<?xml version="1.0" standalone="no"?>
<!DOCTYPE svg PUBLIC "-//W3C//DTD SVG 1.1//EN" "http://www.w3.org/Graphics/SVG/1.1/DTD/svg11.dtd">
<svg xmlns="http://www.w3.org/2000/svg">
    <metadata>Generated by Fontastic.me</metadata>
    <defs>
        <font id="anticon" horiz-adv-x="512">
            <font-face font-family="anticon" units-per-em="512" ascent="480" descent="-32"/>
            <missing-glyph horiz-adv-x="512"/>

            <glyph glyph-name="account-book" unicode="&#97;"
                   d="M440 420l-84 0 0 32c0 2-2 4-4 4l-28 0c-2 0-4-2-4-4l0-32-128 0 0 32c0 2-2 4-4 4l-28 0c-2 0-4-2-4-4l0-32-84 0c-9 0-16-7-16-16l0-332c0-9 7-16 16-16l368 0c9 0 16 7 16 16l0 332c0 9-7 16-16 16z m-20-328l-328 0 0 292 64 0 0-24c0-2 2-4 4-4l28 0c2 0 4 2 4 4l0 24 128 0 0-24c0-2 2-4 4-4l28 0c2 0 4 2 4 4l0 24 64 0z m-100 213l-23 0c-1 0-3-1-3-2l-37-73-1 0-37 73c-1 1-2 2-4 2l-23 0c0 0-1-2-2-1-1-1-2-3-1-5l45-82-25 0c-2 0-4-2-4-4l0-11c0-2 2-4 4-4l33 0 0-16-33 0c-2 0-4-2-4-4l0-11c0-2 2-4 4-4l33 0 0-27c0-2 2-4 4-4l20 0c3 0 4 2 4 4l0 27 33 0c2 0 4 2 4 4l0 11c0 2-2 4-4 4l-33 0 0 16 33 0c2 0 4 2 4 4l0 11c0 2-2 4-4 4l-24 0 44 82c0 1 1 1 1 2 0 2-2 4-4 4z"/>
            <glyph glyph-name="alert" unicode="&#98;"
                   d="M97 114c0-9 7-16 16-16l287 0c8 0 16 7 16 16l0 116c0 89-72 160-160 160-88 0-159-71-159-160z m36 116c0 69 55 124 123 124 68 0 124-55 124-124l0-96-178 0 0 85c0 3-2 5-5 5l-22 0c-3 0-5-2-5-5l0-85-37 0z m-25 127l20 20c2 1 2 4 0 5l-34 34c-1 2-4 2-5 0l-20-20c-2-1-2-4 0-5l34-34c1-2 4-2 5 0z m335 39l-20 20c-1 2-4 2-5 0l-34-34c-2-1-2-4 0-5l20-20c1-2 4-2 5 0l34 34c2 1 2 4 0 5z m-27-330l-320 0c-9 0-16-7-16-16l0-12c0-2 2-4 4-4l344 0c2 0 4 2 4 4l0 12c0 9-7 16-16 16z m-174 356l28 0c2 0 4 2 4 4l0 48c0 2-2 4-4 4l-28 0c-2 0-4-2-4-4l0-48c0-2 2-4 4-4z"/>
            <glyph glyph-name="alibaba" unicode="&#99;"
                   d="M301 177c-18-1-16 9-5 23 25 34 72 79 74 113 3 43-41 56-86 56-31 0-63-9-85-17-76-27-124-69-154-116-31-47-21-91 46-93 51 2 85 17 120 34 2 0-96-27-132-7-4 2-8 5-9 13 0 17 27 34 43 39l0 29c33-11 71-8 103 16 1-3 2-7 2-11l6 0c1 12-7 23-19 23 3-2 6-5 7-7l0 0 0-3c-42-29-83-16-87-15l23 23-6 17c46 16 85 28 148 39l-14 11 7 5c38-11 64-19 62-38 0-4-2-8-4-12-11-20-44-56-57-72-9-10-18-19-24-29-7-9-10-18-10-26 1-66 195 31 234 56-56-24-117-47-183-51z m43 152c1-3 2-6 2-10 0 3-1 7-2 10z"/>
            <glyph glyph-name="align-center" unicode="&#100;"
                   d="M132 397l248 0c2 0 4 2 4 4l0 28c0 2-2 4-4 4l-248 0c-2 0-4-2-4-4l0-28c0-2 2-4 4-4z m248-212c2 0 4 2 4 4l0 28c0 2-2 4-4 4l-248 0c-2 0-4-2-4-4l0-28c0-2 2-4 4-4z m72-70l-392 0c-2 0-4-2-4-4l0-28c0-2 2-4 4-4l392 0c2 0 4 2 4 4l0 28c0 2-2 4-4 4z m0 212l-392 0c-2 0-4-2-4-4l0-28c0-2 2-4 4-4l392 0c2 0 4 2 4 4l0 28c0 2-2 4-4 4z"/>
            <glyph glyph-name="align-left" unicode="&#101;"
                   d="M60 397l248 0c2 0 4 2 4 4l0 28c0 2-2 4-4 4l-248 0c-2 0-4-2-4-4l0-28c0-2 2-4 4-4z m0-212l248 0c2 0 4 2 4 4l0 28c0 2-2 4-4 4l-248 0c-2 0-4-2-4-4l0-28c0-2 2-4 4-4z m392-70l-392 0c-2 0-4-2-4-4l0-28c0-2 2-4 4-4l392 0c2 0 4 2 4 4l0 28c0 2-2 4-4 4z m0 212l-392 0c-2 0-4-2-4-4l0-28c0-2 2-4 4-4l392 0c2 0 4 2 4 4l0 28c0 2-2 4-4 4z"/>
            <glyph glyph-name="align-right" unicode="&#102;"
                   d="M452 433l-248 0c-2 0-4-2-4-4l0-28c0-2 2-4 4-4l248 0c2 0 4 2 4 4l0 28c0 2-2 4-4 4z m0-212l-248 0c-2 0-4-2-4-4l0-28c0-2 2-4 4-4l248 0c2 0 4 2 4 4l0 28c0 2-2 4-4 4z m0-106l-392 0c-2 0-4-2-4-4l0-28c0-2 2-4 4-4l392 0c2 0 4 2 4 4l0 28c0 2-2 4-4 4z m0 212l-392 0c-2 0-4-2-4-4l0-28c0-2 2-4 4-4l392 0c2 0 4 2 4 4l0 28c0 2-2 4-4 4z"/>
            <glyph glyph-name="alipay" unicode="&#103;"
                   d="M395 207c-20 6-46 16-75 27 18 30 32 64 41 101l-96 0 0 35 117 0 0 19-117 0 0 57-47 0c-9 0-9-8-9-8l0-49-118 0 0-19 118 0 0-35-97 0 0-19 189 0c-7-23-16-45-27-66-62 20-127 36-168 26-27-6-44-18-54-30-45-55-13-140 84-140 57 0 112 32 155 84 63-30 189-82 189-82l0 74c0 0-16 2-85 25z m-268-68c-75 0-98 59-60 91 12 11 35 17 47 18 45 4 86-13 135-37-35-44-78-72-122-72z"/>
            <glyph glyph-name="alipay-circle" unicode="&#104;"
                   d="M154 239c-10-1-28-5-38-14-31-27-13-75 49-75 36 0 72 23 100 59-40 20-74 34-111 30z m231-33c50-17 77-22 83-23 8 24 12 48 12 73 0 124-100 224-224 224-124 0-224-100-224-224 0-124 100-224 224-224 78 0 147 40 187 100-38 15-107 43-144 60-35-43-80-69-126-69-80 0-107 69-69 115 8 10 22 19 44 25 33 8 87-6 137-22 9 17 17 35 23 54l-155 0 0 16 80 0 0 28-97 0 0 16 97 0 0 40c0 0 0 7 6 7l40 0 0-47 95 0 0-16-95 0 0-28 78 0c-8-31-19-59-33-83 23-9 45-17 61-22z"/>
            <glyph glyph-name="aliwangwang" unicode="&#105;"
                   d="M434 323c-9 23-23 43-40 61-18 17-38 31-61 40-23 10-48 15-73 15-21 0-42-3-61-10-46 21-99 23-114 23-1 0-3 0-4-1-6-2-12-3-15-8-3-5-4-11-2-17l32-81c-17-29-26-62-26-96 0-26 5-51 15-74 9-23 23-43 41-60 17-18 37-31 60-41 23-9 48-14 74-14 25 0 50 5 73 15 23 9 43 23 61 40 17 18 31 38 40 61 10 23 15 48 15 74 0 25-5 50-15 73z m-33-133c-8-18-19-35-33-49-14-14-31-25-49-33l0 0c-19-8-39-12-60-12-41 0-80 16-109 45-14 14-25 31-33 49l0 0c-8 19-12 39-12 60 0 28 8 55 22 78l6 12-4 11-26 65c7-3 18-1 30-3 22-3 41-9 57-16l10-5 10 4c16 5 32 8 49 8 41 0 80-16 109-45 14-14 25-31 33-49l0-1 0 0c8-18 12-39 13-60-1-20-5-41-13-59z m-60 140c-11 0-19-8-19-19l0-27c0-10 8-19 19-19 10 0 18 9 18 19l0 27c0 11-8 19-18 19z m-88 0c-10 0-19-8-19-19l0-27c0-10 9-19 19-19 10 0 19 9 19 19l0 27c0 11-9 19-19 19z"/>
            <glyph glyph-name="aliyun" unicode="&#106;"
                   d="M480 320c-1 41-34 74-75 74l-117 0 11-42 100-22c10-2 16-10 17-20 0-3 108 0 108 0 0-10-7-18-16-20l-101-22-11-42 117 0c41 0 75 33 75 74l0 20z m-367-138c-10 2-16 10-17 20 0 0 0 108 0 108 4 10 8 18 17 20l100 22 11 42-117 0c-41 0-74-33-75-74l0-129c1-41 34-74 75-74l117 0-11 43z m100 79l86 0 0-10-86 0z"/>
            <glyph glyph-name="amazon" unicode="&#107;"
                   d="M413 128c-2 0-4 0-6-1-31-14-61-24-90-30-63-13-124-6-184 20-17 7-40 19-69 37-1 0-2 1-3 1-1 0-1-1-2-5-1-4-2-1-2-1-1-1-1-2 0-3 3-1 1-2 2-4 5-6 12-12 19-19 8-7 18-15 31-24 12-8 26-16 39-23 14-6 30-12 48-17 19-4 37-7 55-7 18 0 36 2 53 6 17 3 31 8 43 13 12 5 23 10 33 16 9 6 17 11 21 15 5 4 9 8 11 10 2 3 3 5 3 8 1 2-1 3-2 3z m-149 210c-8-1-17-2-28-4-11-2-20-5-30-8-9-3-18-7-28-13-9-5-18-11-24-18-7-7-13-16-17-26-4-11-6-22-6-34 0-14 2-26 7-37 5-10 11-19 19-25 8-6 17-11 27-15 10-3 21-5 32-4 11 0 21 2 32 5 10 3 20 8 29 14 9 7 17 14 22 23 3-3 4-6 6-7l5-5c2-3 7-7 13-13 6-6 12-11 18-17l52 50-3 3c-2 1-4 4-7 7-3 3-6 6-9 10-3 4-5 8-7 13-2 5-3 10-3 14l0 132c0 5-1 10-3 16-2 6-6 12-11 19-5 7-11 13-18 19-8 5-18 10-30 13-12 4-26 6-42 6-15 0-30-2-43-6-14-3-26-8-35-14-10-6-18-13-25-21-7-8-12-17-16-26-3-8-5-17-5-26l68-6c3 8 6 15 11 21 5 6 9 11 13 14 4 2 8 5 13 6 4 2 7 3 9 3 2 0 3 0 4 0 13 0 22-4 28-12 3-4 5-12 5-21l0-29c-8-3-16 0-23-1z m23-76c0-8-2-16-4-23-4-14-13-23-26-27-11-3-22-2-32 5-11 7-16 17-16 30 0 10 3 18 8 25 5 7 11 13 20 16 8 4 16 6 24 7 8 2 17 3 26 3z m167-109c-2 2-8 4-17 5-10 1-18 1-25-2-8-1-16-3-24-7-8-3-11-6-11-9l1 0 5-1 3 0c0 0 1 0 2 0 0 0 1 0 1 0 1 0 2 0 3 0 1 0 2 1 3 1 2 0 2 0 5 0 3 1 6 1 7 1 2 0 4 0 8 0 3 0 6 0 8 0 2 0 4-3 6 0 3-2 5-1 7-2 1 0 2-1 3-2 3-3 2-11-1-22-4-11-7-20-11-27-1-3-1-5 0-6 2 0 4 0 6 2 8 7 15 16 20 28 3 7 5 15 7 23 1 8 1 13-1 15z"/>
            <glyph glyph-name="android" unicode="&#108;"
                   d="M224 399c-9 0-16-6-16-16 0-9 7-16 16-16 9 0 16 7 16 16 1 10-7 16-16 16z m197-48c-7 7-16 11-26 11-2 0-4-2-6-1l0 1-2 0c-2 15-9 30-19 44-9 12-21 24-35 32l12 18 0 2c0 0 2 1 4 2 3 1 1 2 1 4 0 9-7 16-16 16-5 0-10-3-13-8l-15-21c-15 5-31 8-47 8-15 0-32-3-47-8l-17 21c-4 5-9 8-13 8-10 0-16-7-16-16 0-3 1-6 3-9l11-16c-14-8-27-20-36-32-10-14-16-29-18-44l-3 0 0-1c-2 1-3 1-5 1-11 0-20-4-27-11-7-7-11-16-11-26l0-118c0-10 4-19 11-26 7-7 16-11 27-11 2 0 3 0 5 1l0-47c0-15 12-27 27-27l16 0 0-29c0-10 3-19 10-26 7-7 17-11 27-11 10 0 19 4 26 11 7 6 11 16 11 26l0 29 32 0 0-29c0-10 4-19 11-26 7-7 16-11 26-11 11 0 20 4 27 11 7 7 11 16 11 26l0 29 16 0c14 0 26 12 26 27l0 46c2-3 4-1 6-1 10 0 19 4 26 11 7 7 11 16 11 26l0 118c0 10-4 19-11 26z m-298-144c0-3-2-5-5-5-4 0-6 2-6 5l0 118c0 3 2 5 6 5 3 0 5-2 5-5z m66 199c18 13 42 21 67 21 25 0 49-8 68-22 16-11 27-27 31-43l-198 0c4 16 15 32 32 44z m19-338c0-3-2-4-5-4-3 0-5 2-5 5l0 29 10 0z m101-4c-3 0-5 2-5 5l0 29 11 0 0-30c-1-3-3-4-6-4z m48 66l-202 0 0 200 202 0z m43 77c0-3-2-5-5-5-4 0-6 2-6 5l0 118c0 3 2 5 6 5 3 0 5-2 5-5z m-112 192c-9 0-16-6-16-16 0-9 7-16 16-16 9 0 16 7 16 16 0 10-7 16-16 16z"/>
            <glyph glyph-name="ant-cloud" unicode="&#109;"
                   d="M189 143c-1 0-3 0-4 1l2-16 13 0-7 15c-1-2-2-3-4-3z m211 146c-6 0-12-1-18-3-11 20-31 33-55 33-3 0-7-3-10-1-18 39-57 65-102 65-56 0-103-41-111-95-40-4-72-38-72-80 0-44 36-80 80-80l25 0 7 14c-13 4-22 15-20 25 2 10 16 17 32 13 11-2 20-9 22-17 3 4 7 6 11 6l0 0c0 2 0 3 0 5 0 10 7 18 17 20l0 12c0 3 2 4 4 4 2 0 4-1 4-4l0-13c2 0 4-1 6-3l10 11c1 2 4 2 5 0 2-1 2-4 1-5l-10-11 0-1c4-7 4-17-2-23-5-7-14-10-22-7 0-3-1-5-3-7l10-20 193 0 0 1c43 1 78 36 78 80 0 44-36 80-80 80z m-231-146l-2-15 12 0-3 21c-2-2-4-4-7-6z m230 216c0-13 10-24 24-24 13 0 24 11 24 24 0 14-11 24-24 24-14 0-24-10-24-24z m-33-30c0-7 5-12 12-12 7 0 12 5 12 12 0 6-5 12-12 12-7 0-12-6-12-12z m-214-188l-6-13 13 0 2 13c-3-4-6-1-9-2z"/>
            <glyph glyph-name="ant-design" unicode="&#110;"
                   d="M358 355c10 10 10 25 0 34l-35 35 1 0c-9 10-25 25-48 48-10 10-28 10-38-3l-198-194c-5-5-7-12-7-19 0-7 2-14 7-19l197-197c11-11 28-11 39 0l82 82c10 10 10 25 0 35-9 9-25 9-34 0l-63-63c-2-2-6-2-9 0l-157 157c-3 3-3 7 0 10l157 157c0 0 4 0 1 0 2 2 6 2 8 0l63-63c9-9 25-9 34 0z m-154-100c0-30 24-53 53-53 30 0 54 23 54 53 0 29-24 53-54 53-29 0-53-24-53-53z m268 19l-61 61c-10 10-25 10-34 0-5-5-8-11-8-17 0-7 3-13 8-18l41-41c3-3 3-7 0-9l-41-41c-4-5-7-11-7-17 0-7 3-13 7-17 10-10 25-10 35 0l60 60c6 6 8 12 8 20 0 7-3 14-8 19z"/>
            <glyph glyph-name="apartment" unicode="&#111;"
                   d="M454 192l-52 0 0 76c0 2-2 4-4 4l-124 0 0 48 54 0c4 0 8 4 8 8l0 144c0 4-4 8-8 8l-144 0c-4 0-8-4-8-8l0-144c0-4 4-8 8-8l54 0 0-48-124 0c-2 0-4-2-4-4l0-76-52 0c-4 0-8-4-8-8l0-144c0-4 4-8 8-8l144 0c4 0 8 4 8 8l0 144c0 4-4 8-8 8l-56 0 0 44 220 0 0-44-56 0c-4 0-8-4-8-8l0-144c0-4 4-8 8-8l144 0c4 0 8 4 8 8l0 144c0 4-4 8-8 8z m-282-38l0-84-84 0 0 84z m42 204l0 84 84 0 0-84z m210-288l-84 0 0 84 84 0z"/>
            <glyph glyph-name="api" unicode="&#112;"
                   d="M459 438l-21 21c-1 1-2 1-3 1-1 0-2-4-3-1l-38-38c-17 11-36 17-56 17-26 0-51-10-71-29l-51-51c-1-2-1-4 0-6l136-136c1-1 2-1 3-1 1 0 2 0 3 1l51 51c34 35 38 88 12 127l38 38c1 1 1 4 0 6z m-74-147l-30-30-94 94 30 30c13 12 29 19 47 19 18 0 34-7 47-19 12-13 19-30 19-47 0-18-7-34-19-47z m-96-52c-1 1-4 1-5 0l-33-34-46 45 34 34c1 1 1 4 0 5l-18 19c-2 1-5 1-6 0l-33-34-22 22c-1 1-2 1-3 1-1 0-2-4-3-1l-51-51c-34-35-38-88-12-127l-38-38c-1-1-1-4 0-6l21-21c1-1 2-1 3-1 1 0 2 0 3 1l38 38c17-11 37-17 56-17 26 0 51 10 71 29l51 51c1 2 1 4 0 6l-22 22 34 33c1 1 1 4 0 6z m-68-112c-13-12-29-19-47-19-17 0-34 7-47 19-12 13-19 30-19 47 0 18 7 34 19 47l30 30 94-94z"/>
            <glyph glyph-name="apple" unicode="&#113;"
                   d="M374 244c0 34 15 60 46 79-17 25-44 39-78 41-33 3-69-19-83-19-14 0-46 18-71 18-51 0-106-41-106-123 0-25 4-50 13-76 12-34 55-117 99-116 24 1 40 17 71 17 29 0 45-17 71-17 45 1 84 77 95 111-61 28-57 83-57 85z m-6-133c-7-10-14-18-21-23-5-4-9-6-12-6-4 0-8 1-17 4 0 1-1 1-2 1l-2 1c-9 3-14 5-21 7-9 2-18 4-28 4-10 0-20-2-29-4-7-2-13-4-22-7 0-1-4-1-5-2-1 0-3-1-4-1-5-2-9-3-11-3-1 0-1 0-1 0-1 0-2 0-2 1-3 1-5 2-8 5-7 5-15 14-23 25-14 19-27 44-33 62-8 23-11 44-11 65 0 30 8 53 24 68 13 14 31 21 49 21 3 0 7 0 12-2 5-1 9-3 16-5 2 0 8-3 9-3 4-2 7-3 10-3 9-3 16-5 23-5 8 0 15 2 24 5 4 1 17 6 19 7 13 4 22 7 30 7 3 1 5 1 7 0 11 0 21-3 29-6-19-22-28-49-28-80 0-7 4-16 2-26 4-15 10-30 19-44 8-11 17-21 28-29-6-12-13-24-21-34z m-47 286c26 30 23 57 22 67-22-1-48-15-63-32-16-19-25-42-23-67 24-2 46 10 64 32z"/>
            <glyph glyph-name="appstore" unicode="&#114;"
                   d="M232 440l-152 0c-4 0-8-4-8-8l0-152c0-4 4-8 8-8l152 0c4 0 8 4 8 8l0 152c0 4-4 8-8 8z m-26-134l-100 0 0 100 100 0z m226 134l-152 0c-4 0-8-4-8-8l0-152c0-4 4-8 8-8l152 0c4 0 8 4 8 8l0 152c0 4-4 8-8 8z m-26-134l-100 0 0 100 100 0z m-174-66l-152 0c-4 0-8-4-8-8l0-152c0-4 4-8 8-8l152 0c4 0 8 4 8 8l0 152c0 4-4 8-8 8z m-26-134l-100 0 0 100 100 0z m226 134l-152 0c-4 0-8-4-8-8l0-152c0-4 4-8 8-8l152 0c4 0 8 4 8 8l0 152c0 4-4 8-8 8z m-26-134l-100 0 0 100 100 0z"/>
            <glyph glyph-name="area-chart" unicode="&#115;"
                   d="M444 116l-344 0 0 312c0 2-2 4-4 4l-28 0c-2 0-4-2-4-4l0-344c0-2 2-4 4-4l376 0c2 0 4 2 4 4l0 28c0 2-2 4-4 4z m-308 32l268 0c2 0 4 2 4 4l0 218c0 4-4 5-7 3l-105-105-63 62c-1 1-4 1-5 0l-95-95c-1-1-1-2-1-3l0-80c0-2 2-4 4-4z"/>
            <glyph glyph-name="arrow-down" unicode="&#116;"
                   d="M431 279l-40 0c-3 0-5-1-7-2l-109-127 0 282c0 2-2 4-4 4l-30 0c-2 0-4-2-4-4l0-282-109 127c-2 1-4 2-6 2l-41 0c-3 0-5-4-3-6l166-192c3-3 7-5 12-5 5 0 9 2 12 5l166 192c2 2 4 6-3 6z"/>
            <glyph glyph-name="arrow-left" unicode="&#117;"
                   d="M436 275l-293 0 176 152c2 2 1 7-3 7l-44 0c-2 0-4-1-6-2l-188-164c-4-3-6-7-6-12 0-5 2-9 6-12l190-165c0-1 1-1 2-1l46 0c4 0 5 5 3 7l-176 152 293 0c2 0 4 2 4 4l0 30c0 2-2 4-4 4z"/>
            <glyph glyph-name="arrow-right" unicode="&#118;"
                   d="M435 268l-189 164c-2 1-4 2-6 2l-44 0c-4 0-5-5-2-7l175-152-293 0c-2 0-4-2-4-4l0-30c0-2 2-4 4-4l293 0-176-152c-2-2-1-7 3-7l46 0c1 0 2 0 2 1l191 165c3 3 5 7 5 12 0 5-2 9-5 12z"/>
            <glyph glyph-name="arrow-up" unicode="&#119;"
                   d="M434 239l-166 191c-3 4-7 6-12 6-5 0-9-2-12-6l-166-191c-1-1-1-3-1-4 1-1 2-2 4-2l41 0c2 0 4 1 6 2l109 127 0-282c0-2 2-4 4-4l30 0c2 0 4 2 4 4l0 282 109-127c2-1 4-2 7-2l40 0c3 0 5 4 3 6z"/>
            <glyph glyph-name="arrows-alt" unicode="&#120;"
                   d="M428 432l-95-12c-3-4-5-4-2-7l27-27-77-77c-1-1-1-4 0-5l23-23c1-1 4-1 5 0l77 77 28-27c1-1 2-2 4-1 1 0 2 1 2 3l12 94c0 2 0 3-1 4-1 1-2 1-3 1z m-220-201c-1 1-4 1-5 0l-77-77-27 27c-2 1-3 2-5 1-1 0-2-1-2-3l-12-95c0-2 2-4 5-4l94 12c3 0 5 4 2 7l-27 27 77 77c1 1 1 4 0 5z"/>
            <glyph glyph-name="audio" unicode="&#121;"
                   d="M421 285c0 2-2 4-4 4l-30 0c-2 0-4-2-4-4 0-70-57-127-127-127-70 0-127 57-127 127 0 2-2 4-4 4l-30 0c-2 0-4-2-4-4 0-84 63-154 145-164l0-51-73 0c-6 0-12-7-12-16l0-18c0-2 1-4 3-4l204 0c2 0 3 2 3 4l0 18c0 9-5 16-12 16l-75 0 0 51c83 9 147 79 147 164z m-165-85c47 0 85 38 85 84l0 112c0 46-38 84-85 84-47 0-85-38-85-84l0-112c0-46 38-84 85-84z m-47 196c0 25 21 46 47 46 26 0 47-21 47-46l0-112c0-25-21-46-47-46-26 0-47 21-47 46z"/>
            <glyph glyph-name="audit" unicode="&#122;"
                   d="M148 387c-2 0-4-2-4-4l0-24c0-2 2-4 4-4l192 0c2 0 4 2 4 4l0 24c0 2-2 4-4 4z m92-72l-92 0c-2 0-4-2-4-4l0-24c0-2 2-4 4-4l92 0c2 0 4 2 4 4l0 24c0 2-2 4-4 4z m-24-229l-112 0 0 352 280 0 0-160c0-2 2-4 4-4l28 0c2 0 4 2 4 4l0 180c0 9-7 16-16 16l-320 0c-9 0-16-7-16-16l0-392c0-9 7-16 16-16l132 0c2 0 4 2 4 4l0 28c0 2-2 4-4 4z m220 44l-72 0 0 18c23 7 40 29 40 54 0 31-25 56-56 56-31 0-56-25-56-56 0-25 17-47 40-54l0-18-72 0c-4 0-8-4-8-8l0-76c0-4 4-8 8-8l176 0c4 0 8 4 8 8l0 76c0 4-4 8-8 8z m-113 72c0 14 11 25 25 25 14 0 25-11 25-25 0-14-11-25-25-25-14 0-25 11-25 25z m90-133l-130 0 0 30 130 0z"/>
            <glyph glyph-name="backward" unicode="&#65;"
                   d="M243 387l-144-124c-4-4-4-10 0-14l144-124c5-5 13-5 13 7l0 248c0 7-8 12-13 7z m160 0l-144-124c-2-2-3-4-3-7 0-3 1-5 3-7l144-124c5-5 13-5 13 7l0 248c0 7-8 12-13 7z"/>
            <glyph glyph-name="bank" unicode="&#66;"
                   d="M447 281c15 0 22 20 9 29l-191 139c-5 4-13 4-18 0l-191-139c-13-9-6-29 9-29l31 0 0-187-36 0c-2 0-4-2-4-4l0-26c0-2 2-4 4-4l392 0c2 0 4 2 4 4l0 26c0 2-2 4-4 4l-36 0 0 187z m-191 133l136-99-272 0z m-124-133l59 0 0-187-59 0z m95 0l58 0 0-187-58 0z m153-187l-59 0 0 187 59 0z"/>
            <glyph glyph-name="bar-chart" unicode="&#67;"
                   d="M444 116l-344 0 0 312c0 2-2 4-4 4l-28 0c-2 0-4-2-4-4l0-344c0-2 2-4 4-4l376 0c2 0 4 2 4 4l0 28c0 2-2 4-4 4z m-300 40l28 0c2 0 4 2 4 4l0 72c0 2-2 4-4 4l-28 0c-2 0-4-2-4-4l0-72c0-2 2-4 4-4z m76 0l28 0c2 0 4 2 4 4l0 160c0 2-2 4-4 4l-28 0c-2 0-4-2-4-4l0-160c0-2 2-4 4-4z m76 0l28 0c2 0 4 2 4 4l0 121c0 2-2 4-4 4l-28 0c-2 0-4-2-4-4l0-121c0-2 2-4 4-4z m76 0l28 0c2 0 4 2 4 4l0 200c0 2-2 4-4 4l-28 0c-2 0-4-2-4-4l0-200c0-2 2-4 4-4z"/>
            <glyph glyph-name="barcode" unicode="&#68;"
                   d="M60 432l-24 0c-2 0-4-2-4-4l0-344c0-2 2-4 4-4l24 0c2 0 4 2 4 4l0 344c0 2-2 4-4 4z m417 0l-24 0c-3 0-4-2-4-4l0-344c0-2 1-4 4-4l24 0c2 0 4 2 4 4l0 344c0 2-2 4-4 4z m-377-288l56 0c2 0 4 2 4 4l0 280c0 2-2 4-4 4l-56 0c-2 0-4-2-4-4l0-280c0-2 2-4 4-4z m161 0l24 0c2 0 4 2 4 4l0 280c0 2-2 4-4 4l-24 0c-3 0-4-2-4-4l0-280c0-2 1-4 4-4z m63 0l89 0c2 0 4 2 4 4l0 280c0 2-2 4-4 4l-89 0c-3 0-4-2-4-4l0-280c0-2 1-4 4-4z m-128 0l24 0c2 0 4 2 4 4l0 280c0 2-2 4-4 4l-24 0c-2 0-4-2-4-4l0-280c0-2 2-4 4-4z m-39-32l-56 0c-3 0-4-2-4-4l0-24c0-2 1-4 4-4l56 0c2 0 4 2 4 4l0 24c0 2-2 4-4 4z m128 0l-24 0c-2 0-4-2-4-4l0-24c0-2 2-4 4-4l24 0c2 0 4 2 4 4l0 24c0 2-2 4-4 4z m128 0l-89 0c-2 0-4-2-4-4l0-24c0-2 2-4 4-4l89 0c2 0 4 2 4 4l0 24c0 2-2 4-4 4z m-192 0l-24 0c-3 0-4-2-4-4l0-24c0-2 1-4 4-4l24 0c2 0 4 2 4 4l0 24c0 2-2 4-4 4z"/>
            <glyph glyph-name="bars" unicode="&#69;"
                   d="M456 416l-292 0c-2 0-4-2-4-4l0-28c0-2 2-4 4-4l292 0c2 0 4 2 4 4l0 28c0 2-2 4-4 4z m0-142l-292 0c-2 0-4-2-4-4l0-28c0-2 2-4 4-4l292 0c2 0 4 2 4 4l0 28c0 2-2 4-4 4z m0-142l-292 0c-2 0-4-2-4-4l0-28c0-2 2-4 4-4l292 0c2 0 4 2 4 4l0 28c0 2-2 4-4 4z m-404 266c0-15 13-28 28-28 15 0 28 13 28 28 0 15-13 28-28 28-15 0-28-13-28-28z m0-142c0-15 13-28 28-28 15 0 28 13 28 28 0 15-13 28-28 28-15 0-28-13-28-28z m0-142c0-15 13-28 28-28 15 0 28 13 28 28 0 15-13 28-28 28-15 0-28-13-28-28z"/>
            <glyph glyph-name="behance" unicode="&#70;"
                   d="M317 365l100 0 0-24-100 0z m-100-96c22 11 34 27 34 51 0 50-37 61-79 61l-116 0 0-246 119 0c45 0 87 22 87 72 0 31-15 53-45 62z m-107 70l51 0c19 0 37-5 37-28 0-21-14-29-33-29l-55 0z m58-162l-58 0 0 68 59 0c24 0 39-10 39-35 0-25-18-33-40-33z m288 45c0 53-31 96-87 96-54 0-91-40-91-94 0-55 35-94 91-94 43 0 70 20 83 60l-43 0c-4-15-23-23-38-23-29 0-44 17-44 46l128 0c1 3 4 6 4 9z m-129 21c2 24 17 39 41 39 24 0 36-15 39-39z"/>
            <glyph glyph-name="behance-square" unicode="&#71;"
                   d="M440 456l-368 0c-9 0-16-7-16-16l0-368c0-9 7-16 16-16l368 0c9 0 16 7 16 16l0 368c0 9-7 16-16 16z m-141-119l69 0 0-17-69 0z m-43-139c-3-7-8-12-13-16-6-4-13-7-20-9-7-2-15-3-22-3l-83 0 0 171 81 0c8 0 15-1 22-2 7-2 12-4 17-7 5-4 9-8 11-13 3-6 4-12 4-20 0-9-2-16-6-22-4-5-9-10-17-14 10-3 18-8 23-16 5-7 8-16 8-27 0-9-2-16-5-22z m139 26l-89 0c0-10 4-19 9-24 5-5 12-7 22-7 6 0 12 1 17 5 5 3 8 7 9 11l30 0c-5-15-12-26-22-32-10-7-22-10-35-10-10 0-19 2-27 5-7 3-14 7-20 13-5 6-10 13-12 21-3 8-5 17-5 26 0 9 2 18 5 26 6 15 17 28 33 34 8 4 17 5 25 5 11 0 20-2 28-6 8-4 14-9 19-16 5-7 9-15 11-24 2-8 3-17 2-27z m-61 48c-5 0-10-1-13-3-4-2-6-4-9-7-2-2-3-5-4-9-1-2-2-5-2-8l56 0c-1 9-4 15-8 20-4 4-11 7-20 7z m-124 5c5 3 7 8 7 15-1 4-1 7-2 10-2 3-4 5-6 6-3 2-6 3-9 3-3 1-6 1-9 1l-35 0 0-40 38 0c6 0 12 2 16 5z m6-36c-5 4-11 5-20 5l-40 0 0-47 40 0c3 0 7 1 10 1 4 1 7 2 9 4 3 2 5 4 6 7 2 3 3 6 3 11 0 9-3 15-8 19z"/>
            <glyph glyph-name="bell" unicode="&#72;"
                   d="M408 128l-12 0 0 170c0 71-52 129-120 139l0 19c0 11-9 20-20 20-11 0-20-9-20-20l0-19c-68-10-120-68-120-139l0-170-12 0c-9 0-16-7-16-16l0-16c0-2 2-4 4-4l108 0c0-31 25-56 56-56 31 0 56 25 56 56l108 0c2 0 4 2 4 4l0 16c0 9-7 16-16 16z m-152-60c-13 0-24 11-24 24l48 0c0-13-11-24-24-24z m-104 60l0 170c0 28 11 54 30 74 20 19 46 30 74 30 28 0 54-11 74-30 19-20 30-46 30-74l0-170z"/>
            <glyph glyph-name="bg-colors" unicode="&#73;"
                   d="M383 140c22 0 40 18 40 40 0 27-40 70-40 70 0 0-39-43-39-70 0-22 17-40 39-40z m-188 22c3-4 9-4 12 0l129 128c3 3 3 9 0 13l-128 128c-1 0-1 0-1 1l-40 39c-1 1-4 1-6 0l-24-24c-2-2-2-5 0-7l34-33-104-104c-4-4-4-10 0-13z m6 224l90-89-179 0z m251-282l-392 0c-2 0-4-2-4-4l0-40c0-2 2-4 4-4l392 0c2 0 4 2 4 4l0 40c0 2-2 4-4 4z"/>
            <glyph glyph-name="block" unicode="&#74;"
                   d="M428 324l-104 0 0 104c0 4-4 8-8 8l-232 0c-4 0-8-4-8-8l0-232c0-4 4-8 8-8l104 0 0-104c0-4 4-8 8-8l232 0c4 0 8 4 8 8l0 232c0 4-4 8-8 8z m-240-8l0-94-78 0 0 180 180 0 0-78-94 0c-4 0-8-4-8-8z m102-26l0-68-68 0 0 68z m112-180l-180 0 0 78 94 0c4 0 8 4 8 8l0 94 78 0z"/>
            <glyph glyph-name="bold" unicode="&#75;"
                   d="M349 271c17 18 27 41 27 67l0 6c0 53-44 97-98 97l-148 0c-8 0-14-6-14-14l0-339c0-8 7-15 15-15l159 0c59 0 106 47 106 105l0 6c0 36-19 68-47 87z m-185 122l112 0c29 0 52-22 52-50l0-4c0-28-23-50-52-50l-112 0z m183-215c0-31-26-57-57-57l-126 0 0 120 126 0c31 0 57-26 57-57z"/>
            <glyph glyph-name="book" unicode="&#76;"
                   d="M416 480l-320 0c-9 0-16-7-16-16l0-416c0-9 7-16 16-16l320 0c9 0 16 7 16 16l0 416c0 9-7 16-16 16z m-130-36l48 0 0-105-23 17-25-18z m110-376l-280 0 0 376 140 0 0-148c0-2 1-4 2-5 1-2 3-3 5-3 2-1 4 0 6 1l42 30 40-30c2-1 3-1 5-1 4 0 8 3 8 8l0 148 32 0 0-376z"/>
            <glyph glyph-name="border" unicode="&#77;"
                   d="M440 456l-368 0c-9 0-16-7-16-16l0-368c0-9 7-16 16-16l368 0c9 0 16 7 16 16l0 368c0 9-7 16-16 16z m-20-364l-328 0 0 328 328 0z"/>
            <glyph glyph-name="border-bottom" unicode="&#78;"
                   d="M436 108l-360 0c-2 0-4-2-4-4l0-28c0-2 2-4 4-4l360 0c2 0 4 2 4 4l0 28c0 2-2 4-4 4z m-360 47l28 0c2 0 4 2 4 4l0 28c0 2-2 4-4 4l-28 0c-2 0-4-2-4-4l0-28c0-2 2-4 4-4z m0 249l28 0c2 0 4 2 4 4l0 28c0 2-2 4-4 4l-28 0c-2 0-4-2-4-4l0-28c0-2 2-4 4-4z m0-166l28 0c2 0 4 2 4 4l0 28c0 2-2 4-4 4l-28 0c-2 0-4-2-4-4l0-28c0-2 2-4 4-4z m0 83l28 0c2 0 4 2 4 4l0 28c0 2-2 4-4 4l-28 0c-2 0-4-2-4-4l0-28c0-2 2-4 4-4z m83-83l28 0c2 0 4 2 4 4l0 28c0 2-2 4-4 4l-28 0c-2 0-4-2-4-4l0-28c0-2 2-4 4-4z m0 166l28 0c2 0 4 2 4 4l0 28c0 2-2 4-4 4l-28 0c-2 0-4-2-4-4l0-28c0-2 2-4 4-4z m166 0l28 0c2 0 4 2 4 4l0 28c0 2-2 4-4 4l-28 0c-2 0-4-2-4-4l0-28c0-2 2-4 4-4z m0-166l28 0c2 0 4 2 4 4l0 28c0 2-2 4-4 4l-28 0c-2 0-4-2-4-4l0-28c0-2 2-4 4-4z m111 36l-28 0c-2 0-4-2-4-4l0-28c0-2 2-4 4-4l28 0c2 0 4 2 4 4l0 28c0 2-2 4-4 4z m-194-36l28 0c2 0 4 2 4 4l0 28c0 2-2 4-4 4l-28 0c-2 0-4-2-4-4l0-28c0-2 2-4 4-4z m194 202l-28 0c-2 0-4-2-4-4l0-28c0-2 2-4 4-4l28 0c2 0 4 2 4 4l0 28c0 2-2 4-4 4z m-194-36l28 0c2 0 4 2 4 4l0 28c0 2-2 4-4 4l-28 0c-2 0-4-2-4-4l0-28c0-2 2-4 4-4z m194-213l-28 0c-2 0-4-2-4-4l0-28c0-2 2-4 4-4l28 0c2 0 4 2 4 4l0 28c0 2-2 4-4 4z m-194-36l28 0c2 0 4 2 4 4l0 28c0 2-2 4-4 4l-28 0c-2 0-4-2-4-4l0-28c0-2 2-4 4-4z m194 202l-28 0c-2 0-4-2-4-4l0-28c0-2 2-4 4-4l28 0c2 0 4 2 4 4l0 28c0 2-2 4-4 4z m-194-36l28 0c2 0 4 2 4 4l0 28c0 2-2 4-4 4l-28 0c-2 0-4-2-4-4l0-28c0-2 2-4 4-4z"/>
            <glyph glyph-name="border-horizontal" unicode="&#79;"
                   d="M270 440l-28 0c-2 0-4-2-4-4l0-360c0-2 2-4 4-4l28 0c2 0 4 2 4 4l0 360c0 2-2 4-4 4z m-83 0l-28 0c-2 0-4-2-4-4l0-28c0-2 2-4 4-4l28 0c2 0 4 2 4 4l0 28c0 2-2 4-4 4z m249 0l-28 0c-2 0-4-2-4-4l0-28c0-2 2-4 4-4l28 0c2 0 4 2 4 4l0 28c0 2-2 4-4 4z m-332 0l-28 0c-2 0-4-2-4-4l0-28c0-2 2-4 4-4l28 0c2 0 4 2 4 4l0 28c0 2-2 4-4 4z m249 0l-28 0c-2 0-4-2-4-4l0-28c0-2 2-4 4-4l28 0c2 0 4 2 4 4l0 28c0 2-2 4-4 4z m-249-83l-28 0c-2 0-4-2-4-4l0-28c0-2 2-4 4-4l28 0c2 0 4 2 4 4l0 28c0 2-2 4-4 4z m332 0l-28 0c-2 0-4-2-4-4l0-28c0-2 2-4 4-4l28 0c2 0 4 2 4 4l0 28c0 2-2 4-4 4z m0-166l-28 0c-2 0-4-2-4-4l0-28c0-2 2-4 4-4l28 0c2 0 4 2 4 4l0 28c0 2-2 4-4 4z m-332 0l-28 0c-2 0-4-2-4-4l0-28c0-2 2-4 4-4l28 0c2 0 4 2 4 4l0 28c0 2-2 4-4 4z m0-83l-28 0c-2 0-4-2-4-4l0-28c0-2 2-4 4-4l28 0c2 0 4 2 4 4l0 28c0 2-2 4-4 4z m0 166l-28 0c-2 0-4-2-4-4l0-28c0-2 2-4 4-4l28 0c2 0 4 2 4 4l0 28c0 2-2 4-4 4z m332-166l-28 0c-2 0-4-2-4-4l0-28c0-2 2-4 4-4l28 0c2 0 4 2 4 4l0 28c0 2-2 4-4 4z m0 166l-28 0c-2 0-4-2-4-4l0-28c0-2 2-4 4-4l28 0c2 0 4 2 4 4l0 28c0 2-2 4-4 4z m-249-166l-28 0c-2 0-4-2-4-4l0-28c0-2 2-4 4-4l28 0c2 0 4 2 4 4l0 28c0 2-2 4-4 4z m0 166l-28 0c-2 0-4-2-4-4l0-28c0-2 2-4 4-4l28 0c2 0 4 2 4 4l0 28c0 2-2 4-4 4z m166-166l-28 0c-2 0-4-2-4-4l0-28c0-2 2-4 4-4l28 0c2 0 4 2 4 4l0 28c0 2-2 4-4 4z m0 166l-28 0c-2 0-4-2-4-4l0-28c0-2 2-4 4-4l28 0c2 0 4 2 4 4l0 28c0 2-2 4-4 4z"/>
            <glyph glyph-name="border-inner" unicode="&#80;"
                   d="M436 274l-162 0 0 166-36 0 0-166-162 0c-2 0-4-2-4-4l0-28c0-2 2-4 4-4l162 0 0-166 36 0 0 166 162 0c2 0 4 2 4 4l0 28c0 2-2 4-4 4z m0 83l-28 0c-2 0-4-2-4-4l0-28c0-2 2-4 4-4l28 0c2 0 4 2 4 4l0 28c0 2-2 4-4 4z m0-249l-28 0c-2 0-4-2-4-4l0-28c0-2 2-4 4-4l28 0c2 0 4 2 4 4l0 28c0 2-2 4-4 4z m0 332l-28 0c-2 0-4-2-4-4l0-28c0-2 2-4 4-4l28 0c2 0 4 2 4 4l0 28c0 2-2 4-4 4z m0-249l-28 0c-2 0-4-2-4-4l0-28c0-2 2-4 4-4l28 0c2 0 4 2 4 4l0 28c0 2-2 4-4 4z m-111 213l28 0c2 0 4 2 4 4l0 28c0 2-2 4-4 4l-28 0c-2 0-4-2-4-4l0-28c0-2 2-4 4-4z m28-296l-28 0c-2 0-4-2-4-4l0-28c0-2 2-4 4-4l28 0c2 0 4 2 4 4l0 28c0 2-2 4-4 4z m-166 0l-28 0c-2 0-4-2-4-4l0-28c0-2 2-4 4-4l28 0c2 0 4 2 4 4l0 28c0 2-2 4-4 4z m-28 296l28 0c2 0 4 2 4 4l0 28c0 2-2 4-4 4l-28 0c-2 0-4-2-4-4l0-28c0-2 2-4 4-4z m-83 0l28 0c2 0 4 2 4 4l0 28c0 2-2 4-4 4l-28 0c-2 0-4-2-4-4l0-28c0-2 2-4 4-4z m28-296l-28 0c-2 0-4-2-4-4l0-28c0-2 2-4 4-4l28 0c2 0 4 2 4 4l0 28c0 2-2 4-4 4z m-28 213l28 0c2 0 4 2 4 4l0 28c0 2-2 4-4 4l-28 0c-2 0-4-2-4-4l0-28c0-2 2-4 4-4z m28-130l-28 0c-2 0-4-2-4-4l0-28c0-2 2-4 4-4l28 0c2 0 4 2 4 4l0 28c0 2-2 4-4 4z"/>
            <glyph glyph-name="border-left" unicode="&#81;"
                   d="M104 440l-28 0c-2 0-4-2-4-4l0-360c0-2 2-4 4-4l28 0c2 0 4 2 4 4l0 360c0 2-2 4-4 4z m83 0l-28 0c-2 0-4-2-4-4l0-28c0-2 2-4 4-4l28 0c2 0 4 2 4 4l0 28c0 2-2 4-4 4z m249 0l-28 0c-2 0-4-2-4-4l0-28c0-2 2-4 4-4l28 0c2 0 4 2 4 4l0 28c0 2-2 4-4 4z m-166 0l-28 0c-2 0-4-2-4-4l0-28c0-2 2-4 4-4l28 0c2 0 4 2 4 4l0 28c0 2-2 4-4 4z m83 0l-28 0c-2 0-4-2-4-4l0-28c0-2 2-4 4-4l28 0c2 0 4 2 4 4l0 28c0 2-2 4-4 4z m-83-83l-28 0c-2 0-4-2-4-4l0-28c0-2 2-4 4-4l28 0c2 0 4 2 4 4l0 28c0 2-2 4-4 4z m166 0l-28 0c-2 0-4-2-4-4l0-28c0-2 2-4 4-4l28 0c2 0 4 2 4 4l0 28c0 2-2 4-4 4z m0-166l-28 0c-2 0-4-2-4-4l0-28c0-2 2-4 4-4l28 0c2 0 4 2 4 4l0 28c0 2-2 4-4 4z m-166 0l-28 0c-2 0-4-2-4-4l0-28c0-2 2-4 4-4l28 0c2 0 4 2 4 4l0 28c0 2-2 4-4 4z m0-83l-28 0c-2 0-4-2-4-4l0-28c0-2 2-4 4-4l28 0c2 0 4 2 4 4l0 28c0 2-2 4-4 4z m0 166l-28 0c-2 0-4-2-4-4l0-28c0-2 2-4 4-4l28 0c2 0 4 2 4 4l0 28c0 2-2 4-4 4z m166-166l-28 0c-2 0-4-2-4-4l0-28c0-2 2-4 4-4l28 0c2 0 4 2 4 4l0 28c0 2-2 4-4 4z m0 166l-28 0c-2 0-4-2-4-4l0-28c0-2 2-4 4-4l28 0c2 0 4 2 4 4l0 28c0 2-2 4-4 4z m-249-166l-28 0c-2 0-4-2-4-4l0-28c0-2 2-4 4-4l28 0c2 0 4 2 4 4l0 28c0 2-2 4-4 4z m0 166l-28 0c-2 0-4-2-4-4l0-28c0-2 2-4 4-4l28 0c2 0 4 2 4 4l0 28c0 2-2 4-4 4z m166-166l-28 0c-2 0-4-2-4-4l0-28c0-2 2-4 4-4l28 0c2 0 4 2 4 4l0 28c0 2-2 4-4 4z m0 166l-28 0c-2 0-4-2-4-4l0-28c0-2 2-4 4-4l28 0c2 0 4 2 4 4l0 28c0 2-2 4-4 4z"/>
            <glyph glyph-name="border-outer" unicode="&#82;"
                   d="M440 456l-368 0c-9 0-16-7-16-16l0-368c0-9 7-16 16-16l368 0c9 0 16 7 16 16l0 368c0 9-7 16-16 16z m-20-364l-328 0 0 328 328 0z m-178 237l28 0c2 0 4 2 4 4l0 28c0 2-2 4-4 4l-28 0c-2 0-4-2-4-4l0-28c0-2 2-4 4-4z m-91-91l28 0c2 0 4 2 4 4l0 28c0 2-2 4-4 4l-28 0c-2 0-4-2-4-4l0-28c0-2 2-4 4-4z m182 0l28 0c2 0 4 2 4 4l0 28c0 2-2 4-4 4l-28 0c-2 0-4-2-4-4l0-28c0-2 2-4 4-4z m-91 0l28 0c2 0 4 2 4 4l0 28c0 2-2 4-4 4l-28 0c-2 0-4-2-4-4l0-28c0-2 2-4 4-4z m0-91l28 0c2 0 4 2 4 4l0 28c0 2-2 4-4 4l-28 0c-2 0-4-2-4-4l0-28c0-2 2-4 4-4z"/>
            <glyph glyph-name="border-right" unicode="&#83;"
                   d="M436 440l-28 0c-2 0-4-2-4-4l0-360c0-2 2-4 4-4l28 0c2 0 4 2 4 4l0 360c0 2-2 4-4 4z m-83 0l-28 0c-2 0-4-2-4-4l0-28c0-2 2-4 4-4l28 0c2 0 4 2 4 4l0 28c0 2-2 4-4 4z m-249 0l-28 0c-2 0-4-2-4-4l0-28c0-2 2-4 4-4l28 0c2 0 4 2 4 4l0 28c0 2-2 4-4 4z m166 0l-28 0c-2 0-4-2-4-4l0-28c0-2 2-4 4-4l28 0c2 0 4 2 4 4l0 28c0 2-2 4-4 4z m-83 0l-28 0c-2 0-4-2-4-4l0-28c0-2 2-4 4-4l28 0c2 0 4 2 4 4l0 28c0 2-2 4-4 4z m83-83l-28 0c-2 0-4-2-4-4l0-28c0-2 2-4 4-4l28 0c2 0 4 2 4 4l0 28c0 2-2 4-4 4z m-166 0l-28 0c-2 0-4-2-4-4l0-28c0-2 2-4 4-4l28 0c2 0 4 2 4 4l0 28c0 2-2 4-4 4z m0-166l-28 0c-2 0-4-2-4-4l0-28c0-2 2-4 4-4l28 0c2 0 4 2 4 4l0 28c0 2-2 4-4 4z m166 0l-28 0c-2 0-4-2-4-4l0-28c0-2 2-4 4-4l28 0c2 0 4 2 4 4l0 28c0 2-2 4-4 4z m0-83l-28 0c-2 0-4-2-4-4l0-28c0-2 2-4 4-4l28 0c2 0 4 2 4 4l0 28c0 2-2 4-4 4z m0 166l-28 0c-2 0-4-2-4-4l0-28c0-2 2-4 4-4l28 0c2 0 4 2 4 4l0 28c0 2-2 4-4 4z m-166-166l-28 0c-2 0-4-2-4-4l0-28c0-2 2-4 4-4l28 0c2 0 4 2 4 4l0 28c0 2-2 4-4 4z m0 166l-28 0c-2 0-4-2-4-4l0-28c0-2 2-4 4-4l28 0c2 0 4 2 4 4l0 28c0 2-2 4-4 4z m249-166l-28 0c-2 0-4-2-4-4l0-28c0-2 2-4 4-4l28 0c2 0 4 2 4 4l0 28c0 2-2 4-4 4z m0 166l-28 0c-2 0-4-2-4-4l0-28c0-2 2-4 4-4l28 0c2 0 4 2 4 4l0 28c0 2-2 4-4 4z m-166-166l-28 0c-2 0-4-2-4-4l0-28c0-2 2-4 4-4l28 0c2 0 4 2 4 4l0 28c0 2-2 4-4 4z m0 166l-28 0c-2 0-4-2-4-4l0-28c0-2 2-4 4-4l28 0c2 0 4 2 4 4l0 28c0 2-2 4-4 4z"/>
            <glyph glyph-name="border-top" unicode="&#84;"
                   d="M436 440l-360 0c-2 0-4-2-4-4l0-28c0-2 2-4 4-4l360 0c2 0 4 2 4 4l0 28c0 2-2 4-4 4z m-332-83l-28 0c-2 0-4-2-4-4l0-28c0-2 2-4 4-4l28 0c2 0 4 2 4 4l0 28c0 2-2 4-4 4z m0-249l-28 0c-2 0-4-2-4-4l0-28c0-2 2-4 4-4l28 0c2 0 4 2 4 4l0 28c0 2-2 4-4 4z m0 166l-28 0c-2 0-4-2-4-4l0-28c0-2 2-4 4-4l28 0c2 0 4 2 4 4l0 28c0 2-2 4-4 4z m0-83l-28 0c-2 0-4-2-4-4l0-28c0-2 2-4 4-4l28 0c2 0 4 2 4 4l0 28c0 2-2 4-4 4z m83 83l-28 0c-2 0-4-2-4-4l0-28c0-2 2-4 4-4l28 0c2 0 4 2 4 4l0 28c0 2-2 4-4 4z m0-166l-28 0c-2 0-4-2-4-4l0-28c0-2 2-4 4-4l28 0c2 0 4 2 4 4l0 28c0 2-2 4-4 4z m166 0l-28 0c-2 0-4-2-4-4l0-28c0-2 2-4 4-4l28 0c2 0 4 2 4 4l0 28c0 2-2 4-4 4z m0 166l-28 0c-2 0-4-2-4-4l0-28c0-2 2-4 4-4l28 0c2 0 4 2 4 4l0 28c0 2-2 4-4 4z m83 0l-28 0c-2 0-4-2-4-4l0-28c0-2 2-4 4-4l28 0c2 0 4 2 4 4l0 28c0 2-2 4-4 4z m-166 0l-28 0c-2 0-4-2-4-4l0-28c0-2 2-4 4-4l28 0c2 0 4 2 4 4l0 28c0 2-2 4-4 4z m166-166l-28 0c-2 0-4-2-4-4l0-28c0-2 2-4 4-4l28 0c2 0 4 2 4 4l0 28c0 2-2 4-4 4z m-166 0l-28 0c-2 0-4-2-4-4l0-28c0-2 2-4 4-4l28 0c2 0 4 2 4 4l0 28c0 2-2 4-4 4z m166 249l-28 0c-2 0-4-2-4-4l0-28c0-2 2-4 4-4l28 0c2 0 4 2 4 4l0 28c0 2-2 4-4 4z m-166 0l-28 0c-2 0-4-2-4-4l0-28c0-2 2-4 4-4l28 0c2 0 4 2 4 4l0 28c0 2-2 4-4 4z m166-166l-28 0c-2 0-4-2-4-4l0-28c0-2 2-4 4-4l28 0c2 0 4 2 4 4l0 28c0 2-2 4-4 4z m-166 0l-28 0c-2 0-4-2-4-4l0-28c0-2 2-4 4-4l28 0c2 0 4 2 4 4l0 28c0 2-2 4-4 4z"/>
            <glyph glyph-name="border-verticle" unicode="&#85;"
                   d="M436 274l-360 0c-2 0-4-2-4-4l0-28c0-2 2-4 4-4l360 0c2 0 4 2 4 4l0 28c0 2-2 4-4 4z m0 83l-28 0c-2 0-4-2-4-4l0-28c0-2 2-4 4-4l28 0c2 0 4 2 4 4l0 28c0 2-2 4-4 4z m0-249l-28 0c-2 0-4-2-4-4l0-28c0-2 2-4 4-4l28 0c2 0 4 2 4 4l0 28c0 2-2 4-4 4z m0 332l-28 0c-2 0-4-2-4-4l0-28c0-2 2-4 4-4l28 0c2 0 4 2 4 4l0 28c0 2-2 4-4 4z m0-249l-28 0c-2 0-4-2-4-4l0-28c0-2 2-4 4-4l28 0c2 0 4 2 4 4l0 28c0 2-2 4-4 4z m-111 213l28 0c2 0 4 2 4 4l0 28c0 2-2 4-4 4l-28 0c-2 0-4-2-4-4l0-28c0-2 2-4 4-4z m28-296l-28 0c-2 0-4-2-4-4l0-28c0-2 2-4 4-4l28 0c2 0 4 2 4 4l0 28c0 2-2 4-4 4z m-166 0l-28 0c-2 0-4-2-4-4l0-28c0-2 2-4 4-4l28 0c2 0 4 2 4 4l0 28c0 2-2 4-4 4z m-28 296l28 0c2 0 4 2 4 4l0 28c0 2-2 4-4 4l-28 0c-2 0-4-2-4-4l0-28c0-2 2-4 4-4z m-83 0l28 0c2 0 4 2 4 4l0 28c0 2-2 4-4 4l-28 0c-2 0-4-2-4-4l0-28c0-2 2-4 4-4z m166 0l28 0c2 0 4 2 4 4l0 28c0 2-2 4-4 4l-28 0c-2 0-4-2-4-4l0-28c0-2 2-4 4-4z m-138-296l-28 0c-2 0-4-2-4-4l0-28c0-2 2-4 4-4l28 0c2 0 4 2 4 4l0 28c0 2-2 4-4 4z m166 0l-28 0c-2 0-4-2-4-4l0-28c0-2 2-4 4-4l28 0c2 0 4 2 4 4l0 28c0 2-2 4-4 4z m-194 213l28 0c2 0 4 2 4 4l0 28c0 2-2 4-4 4l-28 0c-2 0-4-2-4-4l0-28c0-2 2-4 4-4z m166 0l28 0c2 0 4 2 4 4l0 28c0 2-2 4-4 4l-28 0c-2 0-4-2-4-4l0-28c0-2 2-4 4-4z m-138-130l-28 0c-2 0-4-2-4-4l0-28c0-2 2-4 4-4l28 0c2 0 4 2 4 4l0 28c0 2-2 4-4 4z m166 0l-28 0c-2 0-4-2-4-4l0-28c0-2 2-4 4-4l28 0c2 0 4 2 4 4l0 28c0 2-2 4-4 4z"/>
            <glyph glyph-name="box-plot" unicode="&#86;"
                   d="M476 400l-26 0c-2 0-4-2-4-4l0-124-46 0 0 88c0 2-2 4-4 4l-280 0c-2 0-4-2-4-4l0-88-46 0 0 124c0 2-2 4-4 4l-26 0c-2 0-4-2-4-4l0-280c0-2 2-4 4-4l26 0c2 0 4 2 4 4l0 122 46 0 0-86c0-2 2-4 4-4l280 0c2 0 4 2 4 4l0 86 46 0 0-122c0-2 2-4 4-4l26 0c2 0 4 2 4 4l0 280c0 2-2 4-4 4z m-328-72l44 0 0-144-44 0z m216-144l-140 0 0 144 140 0z"/>
            <glyph glyph-name="branches" unicode="&#87;"
                   d="M370 431c-31 0-56-25-56-56 0-25 17-46 39-53l0-48-193-63 0 142c22 7 38 28 38 53 0 31-25 56-56 56-31 0-56-25-56-56 0-25 16-46 38-53l0-194c-22-8-38-28-38-53 0-31 25-56 56-56 31 0 56 25 56 56 0 25-16 45-38 53l0 14 212 69c10 4 17 13 17 24l0 57c22 8 37 28 37 52 0 31-25 56-56 56z m-252-25c0 13 11 24 24 24 13 0 24-11 24-24 0-13-11-24-24-24-13 0-24 11-24 24z m48-300c0-13-11-24-24-24-13 0-24 11-24 24 0 13 11 24 24 24 13 0 24-11 24-24z m204 245c-13 1-24 11-24 24 0 14 11 24 24 24 13 0 24-10 24-24 0-13-11-23-24-24z"/>
            <glyph glyph-name="build" unicode="&#88;"
                   d="M458 407l-270 0c-9 0-16-7-16-16l0-118-118 0c-9 0-16-7-16-16l0-136c0-9 7-16 16-16l270 0c9 0 16 7 16 16l0 118 118 0c9 0 16 7 16 16l0 136c0 9-7 16-16 16z m-252-34l100 0 0-100-100 0z m-34-234l-100 0 0 100 100 0z m134 0l-100 0 0 100 100 0z m134 134l-100 0 0 100 100 0z"/>
            <glyph glyph-name="bulb" unicode="&#89;"
                   d="M316 68l-120 0c-2 0-4-2-4-4l0-16c0-9 7-16 16-16l96 0c9 0 16 7 16 16l0 16c0 2-2 4-4 4z m-60 412c-91 0-164-73-164-164 0-61 33-114 82-142l0-58c0-9 7-16 16-16l132 0c9 0 16 7 16 16l0 58c49 28 82 81 82 142 0 91-73 164-164 164z m64-275l-18-10 0-59-92 0 0 59-18 10c-39 23-64 65-64 111 0 71 57 128 128 128 71 0 128-57 128-128 0-46-25-88-64-111z"/>
            <glyph glyph-name="calculator" unicode="&#90;"
                   d="M126 318l34 0 0-34c0-1 1-2 2-2l24 0c1 0 2 1 2 2l0 34 34 0c1 0 2 1 2 2l0 24c0 2-1 2-2 2l-34 0 0 35c0 1-1 1-2 1l-24 0c-1 0-2 0-2-1l0-35-34 0c-1 0-2 0-2-2l0-24c0-1 1-2 2-2z m164 0l96 0c1 0 2 1 2 2l0 24c0 2-1 2-2 2l-96 0c-1 0-2 0-2-2l0-24c0-1 1-2 2-2z m0-132l96 0c1 0 2 1 2 2l0 24c0 1-1 2-2 2l-96 0c-1 0-2-1-2-2l0-24c0-1 1-2 2-2z m0-52l96 0c1 0 2 1 2 2l0 24c0 1-1 2-2 2l-96 0c-1 0-2-1-2-2l0-24c0-1 1-2 2-2z m-98 40l30 38c3 3 4 6-3 6l-25 0c-1 0-2 0-3-1l-17-21-17 21c-1 1-2 1-3 1l-25 0c-4 0-5-3-3-6l30-38-31-38c-2-3 0-6 3-6l25 0c1 0 3 0 3 1l18 22 18-22c0-1 2-1 3-1l25 0c3 0 5 3 3 6z m248 282l-368 0c-9 0-16-7-16-16l0-368c0-9 7-16 16-16l368 0c9 0 16 7 16 16l0 368c0 9-7 16-16 16z m-18-366l-332 0 0 332 332 0z"/>
            <glyph glyph-name="calendar" unicode="&#48;"
                   d="M440 420l-84 0 0 32c0 2-2 4-4 4l-28 0c-2 0-4-2-4-4l0-32-128 0 0 32c0 2-2 4-4 4l-28 0c-2 0-4-2-4-4l0-32-84 0c-9 0-16-7-16-16l0-332c0-9 7-16 16-16l368 0c9 0 16 7 16 16l0 332c0 9-7 16-16 16z m-20-328l-328 0 0 190 328 0z m-328 224l0 68 64 0 0-24c0-2 2-4 4-4l28 0c2 0 4 2 4 4l0 24 128 0 0-24c0-2 2-4 4-4l28 0c2 0 4 2 4 4l0 24 64 0 0-68z"/>
            <glyph glyph-name="camera" unicode="&#49;"
                   d="M432 388l-68 0-16 45c-2 7-9 11-15 11l-154 0c-6 0-12-4-15-11l-16-45-68 0c-22 0-40-18-40-40l0-228c0-22 18-40 40-40l352 0c22 0 40 18 40 40l0 228c0 22-18 40-40 40z m4-268c0-2-2-4-4-4l-352 0c-2 0-4 2-4 4l0 228c0 2 2 4 4 4l93 0 9 24 11 32 126 0 11-32 9-24 93 0c2 0 4-2 4-4z m-180 200c-44 0-80-36-80-80 0-44 36-80 80-80 44 0 80 36 80 80 0 44-36 80-80 80z m0-128c-26 0-48 21-48 48 0 26 22 48 48 48 27 0 48-22 48-48 0-27-21-48-48-48z"/>
            <glyph glyph-name="car" unicode="&#50;"
                   d="M190 160l132 0c2 0 4 2 4 4l0 42c0 2-2 4-4 4l-20 0c-2 0-4-2-4-4l0-18-84 0 0 18c0 2-2 4-4 4l-20 0c-2 0-4-2-4-4l0-42c0-2 2-4 4-4z m170 61c0-11 9-20 20-20 11 0 20 9 20 20 0 12-9 20-20 20-11 0-20-8-20-20z m120 84l-12 21c-1 2-4 3-6 1l-25-14-39 108c-5 13-17 22-31 22l-216 0c-18 0-33-11-38-28l-38-102-25 14c-2 1-5 1-6-1l-11-21c-2-2-1-4 1-5l30-18-7-20c-1-1-1-3-1-5l0-174c0-8 6-14 13-14l34 0c6 0 11 5 13 11l4 19 272 0 4-19c2-6 7-11 13-11l34 0c7 0 13 6 13 14l0 174c0 2 0 4-1 5l-7 20 30 18c2 1 3 3 2 5z m-60-52l0-118-328 0 0 118 8 22 312 0z m-274 150l1 1 2 0c0 2 2 3 3 3l214 0 38-104-294 0z m-34-182c0-11 9-20 20-20 11 0 20 9 20 20 0 12-9 20-20 20-11 0-20-8-20-20z"/>
            <glyph glyph-name="caret-down" unicode="&#51;"
                   d="M420 362l-328 0c-10 0-16-10-9-18l164-190c4-5 14-5 18 0l164 190c7 8 1 18-9 18z"/>
            <glyph glyph-name="caret-left" unicode="&#52;"
                   d="M345 429l-191-164c-5-4-5-14 0-18l191-164c7-7 17-1 17 9l0 328c0 10-10 16-17 9z"/>
            <glyph glyph-name="caret-right" unicode="&#53;"
                   d="M358 265l-190 164c-8 7-18 1-18-9l0-328c0-10 10-16 18-9l190 164c5 4 5 14 0 18z"/>
            <glyph glyph-name="caret-up" unicode="&#54;"
                   d="M429 167l-164 191c-4 5-13 5-18 0l-164-191c-7-7-1-17 9-17l328 0c10 0 16 10 9 17z"/>
            <glyph glyph-name="carry-out" unicode="&#55;"
                   d="M440 420l-84 0 0 32c0 2-2 4-4 4l-28 0c-2 0-4-2-4-4l0-32-128 0 0 32c0 2-2 4-4 4l-28 0c-2 0-4-2-4-4l0-32-84 0c-9 0-16-7-16-16l0-332c0-9 7-16 16-16l368 0c9 0 16 7 16 16l0 332c0 9-7 16-16 16z m-20-328l-328 0 0 292 64 0 0-24c0-2 2-4 4-4l28 0c2 0 4 2 4 4l0 24 128 0 0-24c0-2 2-4 4-4l28 0c2 0 4 2 4 4l0 24 64 0z m-76 210l-28 0c-2 0-5-1-6-3l-76-104-32 44c-1 2-4 4-6 4l-28 0c-3 0-5-4-3-7l63-87c1-2 4-3 6-3 3 0 5 1 7 3l106 147c2 2 0 6-3 6z"/>
            <glyph glyph-name="check" unicode="&#56;"
                   d="M456 417l-35 0c-5 0-9-2-12-6l-207-261-98 125c-4 4-8 6-13 6l-35 0c-3 0-5-4-3-6l137-174c6-8 19-8 25 0l244 310c2 2 2 6-3 6z"/>
            <glyph glyph-name="check-circle" unicode="&#57;"
                   d="M350 335l-24 0c-5 0-10-2-13-6l-78-109-36 49c-3 4-8 7-13 7l-23 0c-4 0-6-4-4-6l63-87c3-4 7-6 12-6 6 0 10 2 13 6l106 146c2 3 0 6-3 6z m-94 145c-124 0-224-100-224-224 0-124 100-224 224-224 124 0 224 100 224 224 0 124-100 224-224 224z m0-410c-103 0-186 83-186 186 0 103 83 186 186 186 103 0 186-83 186-186 0-103-83-186-186-186z"/>
            <glyph glyph-name="check-square" unicode="&#33;"
                   d="M217 183c3-4 7-6 12-6 6 0 10 2 13 6l106 146c2 3 0 6-4 6l-23 0c-5 0-10-2-13-6l-78-109-36 49c-3 4-8 7-13 7l-23 0c-4 0-6-4-4-6z m223 273l-368 0c-9 0-16-7-16-16l0-368c0-9 7-16 16-16l368 0c9 0 16 7 16 16l0 368c0 9-7 16-16 16z m-20-364l-328 0 0 328 328 0z"/>
            <glyph glyph-name="chrome" unicode="&#34;"
                   d="M464 256l0 0c0 115-93 208-208 208-115 0-208-93-208-208l0 0c0-115 93-208 208-208 115 0 208 93 208 208l0 0 0-1z m-3 37l-1-2 0 2z m-123-100c27 41 27 95-5 132l81 4c10-22 16-47 16-73 0-93-72-168-164-174z m-82-7c-39 0-70 31-70 70 0 39 31 70 70 70 39 0 70-31 70-70 0-39-31-70-70-70z m185 166l-2 3z m-185 78c61 0 114-31 145-78l-132 7c-48 3-95-25-111-71l-44 68c31 45 83 74 142 74z m-205-211c13-72 64-132 131-157-67 25-118 84-131 157z m31 37c0 28 7 54 18 78l60-118c22-43 69-70 117-61l-37-72c-89 8-158 82-158 173z m162-208c2 0 4 0 6 0-2 0-4 0-6 0z"/>
            <glyph glyph-name="ci" unicode="&#35;"
                   d="M256 480c-124 0-224-100-224-224 0-124 100-224 224-224 124 0 224 100 224 224 0 124-100 224-224 224z m0-410c-103 0-186 83-186 186 0 103 83 186 186 186 103 0 186-83 186-186 0-103-83-186-186-186z m109 286l-25 0c-2 0-4-2-4-4l0-192c0-2 2-4 4-4l25 0c2 0 4 2 4 4l0 192c0 2-2 4-4 4z m-141-25c25 0 42-16 44-39 2-2 2-3 4-3l26 0c1 0 2 1 2 2 0 41-32 69-76 69-51 0-81-35-81-92l0-25c0-57 30-91 81-91 44 0 76 28 76 66 0 1-1 2-2 2l-26 0c-2 0-4-1-4-3-2-22-19-36-44-36-30 0-48 22-48 62l0 25c0 41 18 63 48 63z"/>
            <glyph glyph-name="clock-circle" unicode="&#36;"
                   d="M256 480c-124 0-224-100-224-224 0-124 100-224 224-224 124 0 224 100 224 224 0 124-100 224-224 224z m0-410c-103 0-186 83-186 186 0 103 83 186 186 186 103 0 186-83 186-186 0-103-83-186-186-186z m87 123l-71 51 0 124c0 2-2 4-4 4l-24 0c-2 0-4-2-4-4l0-138c0-1 1-2 2-3l82-60c2-2 5-1 6 1l14 19c2 2 1 4-1 6z"/>
            <glyph glyph-name="close" unicode="&#37;"
                   d="M282 256l131 156c2 3 4 7-3 7l-40 0c-2 0-4-1-6-3l-108-129-108 129c-2 2-4 3-7 3l-39 0c-4 0-6-4-4-7l132-156-132-156c-1-2-1-3 0-5 1-1 2-2 4-2l39 0c3 0 5 1 7 3l108 129 108-129c2-2 4-3 6-3l40 0c4 0 5 4 3 7z"/>
            <glyph glyph-name="close-circle" unicode="&#38;"
                   d="M343 335c0 2-2 4-4 4l-33 0-50-60-50 59-33 1c-2 0-4-2-4-4 0-1 4-2 1-3l65-78-65-77c0-1-1-2-1-3 0-2 2-4 4-4l33 1 50 59 50-59 33-1c2 0 4 2 4 4 0 1-1 2-1 3l-65 77 65 78c0 1 1 2 1 3z m-87 144c-124 0-224-100-224-224 0-123 100-224 224-224 124 0 224 101 224 224 0 124-100 224-224 224z m0-410c-103 0-186 84-186 186 0 103 83 186 186 186 103 0 186-83 186-186 0-102-83-186-186-186z"/>
            <glyph glyph-name="close-square" unicode="&#39;"
                   d="M177 176l29 0c3 0 5 2 7 3l43 52 43-52c2-1 4-3 7-3l29 0c3 0 5 4 3 7l-61 73 61 73c2 3 4 6-3 6l-29 0c-3 0-5-1-7-2l-43-52-43 52c-2 1-4 2-7 2l-29 0c-3 0-5-3-3-6l61-73-61-73c-1-1-1-3-1-4 1-2 2-3 4-3z m263 280l-368 0c-9 0-16-7-16-16l0-368c0-9 7-16 16-16l368 0c9 0 16 7 16 16l0 368c0 9-7 16-16 16z m-20-364l-328 0 0 328 328 0z"/>
            <glyph glyph-name="cloud" unicode="&#40;"
                   d="M406 303c-23 60-82 103-150 103-68 0-127-43-149-103-43-12-75-51-75-97 0-55 45-100 100-100l248 0c55 0 100 45 100 100 0 46-32 85-74 97z m18-141c-12-12-28-18-44-18l-248 0c-17 0-32 6-44 18-12 12-18 28-18 44 0 14 5 27 13 38 8 11 20 18 33 22l19 5 7 18c4 12 10 22 18 32 7 10 16 18 26 25 21 14 45 22 70 22 25 0 50-8 70-22 10-7 19-16 26-25 8-10 14-20 18-32l7-18 19-5c27-7 46-32 46-60 0-17-6-32-18-44z"/>
            <glyph glyph-name="cloud-download" unicode="&#41;"
                   d="M312 159l-37 0 0 121c0 2-2 4-4 4l-30 0c-2 0-4-2-4-4l0-121-37 0c-3 0-5-4-3-7l56-70c1-1 2-2 3-2 1 0 2 1 3 2l56 70c2 3 2 7-3 7z m94 170c-23 60-82 103-150 103-68 0-127-43-149-103-43-12-75-51-75-97 0-55 45-100 100-100l20 0c2 0 4 2 4 4l0 30c0 2-2 4-4 4l-20 0c-17 0-33 7-45 19-11 12-18 28-17 45 5 13 5 26 13 36 8 11 20 19 33 22l19 5 7 18c4 12 10 22 18 32 7 10 16 18 26 25 21 14 45 22 70 22 25 0 50-8 70-22 10-7 19-15 26-25 8-10 14-20 18-32l7-18 19-5c27-7 46-32 46-60 0-17-6-32-18-44-12-12-28-18-44-18l-20 0c-2 0-4-2-4-4l0-30c0-2 2-4 4-4l20 0c55 0 100 45 100 100 0 46-32 85-74 97z"/>
            <glyph glyph-name="cloud-server" unicode="&#42;"
                   d="M352 289l-192 0c-2 0-4-2-4-4l0-201c0-2 2-4 4-4l192 0c2 0 4 2 4 4l0 201c0 2-2 4-4 4z m-164-32l136 0 0-59-136 0z m136-145l-136 0 0 58 136 0z m-112 26c0-9 7-16 16-16 9 0 16 7 16 16 0 9-7 16-16 16-9 0-16-7-16-16z m0 89c0-9 7-16 16-16 9 0 16 7 16 16 0 9-7 16-16 16-9 0-16-7-16-16z m194 101c-23 60-82 103-150 103-68 0-127-43-149-103-44-12-75-51-75-98 0-52 41-94 92-99 2-2 4 2 4 4l0 30c0 2-1 4-3 4-14 2-27 8-36 17-12 12-19 28-19 45 0 14 5 27 13 38 8 11 20 18 33 22l19 5 7 18c4 11 10 22 18 32 7 9 16 18 26 25 21 14 45 22 70 22 25 0 50-8 70-22 10-7 19-16 26-25 8-10 14-21 18-32l7-18 19-5c27-7 46-32 46-60 0-17-7-33-19-45-9-9-22-15-36-17-2 0-3-2-3-4l0-30c0-2 2-4 4-4 51 5 92 47 92 99 3 47-31 86-74 98z"/>
            <glyph glyph-name="cloud-sync" unicode="&#43;"
                   d="M406 328c-23 60-82 103-150 103-68 0-127-43-149-103-44-12-75-51-75-98 0-52 41-94 92-99 2-2 4 2 4 4l0 30c0 2-1 4-3 4-14 2-27 8-36 17-12 12-19 28-19 45 0 14 5 27 13 38 8 11 20 18 33 22l19 5 7 18c4 11 10 22 18 32 7 9 16 18 26 25 21 14 45 22 70 22 25 0 50-8 70-22 10-7 19-16 26-25 8-10 14-21 18-32l7-18 19-5c27-7 46-32 46-60 0-17-7-33-19-45-9-9-22-15-36-17-2 0-3-2-3-4l0-30c0-2 2-4 4-4 51 5 92 47 92 99 3 47-31 86-74 98z m-218-144c1 17 8 32 20 44 13 13 30 20 48 20 18 0 35-7 48-20 1-1 2-1 2-2l-12-10c-1-1-2-2-2-4 1-1 2-3 3-3l49-12c3-1 5 1 5 4l0 51c0 3-4 5-6 3l-11-9c-19 21-46 34-76 34-53 0-97-43-99-96-1-2 1-4 4-4l24 0c2 0 3 2 3 4z m164-4l-24 0c-3 0-4-2-4-4-1-17-8-32-20-44-13-13-30-20-48-20-18 0-35 7-48 20-1 1-2 1-2 2l12 10c1 1 2 2 2 4-1 1-2 3-3 3l-49 12c-3 0-5-1-5-4l0-51c0-3 3-5 6-3l12 9c18-21 45-34 75-34 54 0 97 43 100 96 1 2-2 4-4 4z"/>
            <glyph glyph-name="cloud-upload" unicode="&#44;"
                   d="M259 282c-1 1-2 2-3 2-1 0-2-1-3-2l-56-70c-1-2-1-3-1-5 1-1 2-2 4-2l37 0 0-121c0-2 2-4 4-4l30 0c2 0 4 2 4 4l0 121 37 0c3 0 5 4 3 7z m147 47c-23 60-82 103-150 103-68 0-127-43-149-103-43-12-75-51-75-97 0-55 45-100 100-100l20 0c2 0 4 2 4 4l0 30c0 2-2 4-4 4l-20 0c-17 0-33 7-45 19-11 12-18 28-17 45 5 13 5 26 13 36 8 11 20 19 33 22l19 5 7 18c4 12 10 22 18 32 7 10 16 18 26 25 21 14 45 22 70 22 25 0 50-8 70-22 10-7 19-15 26-25 8-10 14-20 18-32l7-18 19-5c27-7 46-32 46-60 0-17-6-32-18-44-12-12-28-18-44-18l-20 0c-2 0-4-2-4-4l0-30c0-2 2-4 4-4l20 0c55 0 100 45 100 100 0 46-32 85-74 97z"/>
            <glyph glyph-name="cluster" unicode="&#45;"
                   d="M444 172l-27 0 0 70-144 0 0 46 119 0c4 0 8 4 8 8l0 132c0 4-4 8-8 8l-272 0c-4 0-8-4-8-8l0-132c0-4 4-8 8-8l119 0 0-46-144 0 0-70-27 0c-2 0-4-2-4-4l0-88c0-2 2-4 4-4l88 0c2 0 4 2 4 4l0 88c0 2-2 4-4 4l-27 0 0 36 110 0 0-36-27 0c-2 0-4-2-4-4l0-88c0-2 2-4 4-4l88 0c2 0 4 2 4 4l0 88c0 2-2 4-4 4l-27 0 0 36 110 0 0-36-27 0c-2 0-4-2-4-4l0-88c0-2 2-4 4-4l88 0c2 0 4 2 4 4l0 88c0 2-2 4-4 4z m-316-63c0 0-1-1-1-1l-30 0c0 0-1 1-1 1l0 30c0 0 1 1 1 1l30 0c0 0 1-1 1-1z m144 0c0 0-1-1-1-1l-30 0c0 0-1 1-1 1l0 30c0 0 1 1 1 1l30 0c0 0 1-1 1-1z m-128 211l0 84 224 0 0-84z m272-211c0 0-1-1-1-1l-30 0c0 0-1 1-1 1l0 30c0 0 1 1 1 1l30 0c0 0 1-1 1-1z m-236 253c0-11 9-20 20-20 11 0 20 9 20 20 0 11-9 20-20 20-11 0-20-9-20-20z"/>
            <glyph glyph-name="code" unicode="&#46;"
                   d="M258 175c0-2 2-4 4-4l92 0c2 0 4 2 4 4l0 24c0 3-2 4-4 4l-92 0c-2 0-4-1-4-4z m-97-3l96 81c1 2 1 4 0 6l-96 81c-2 1-3 1-5 0-1-1-2-2-2-4l0-31c0-1 1-2 1-3l55-46-55-46c0-1-1-2-1-3l0-32c0-3 4-5 7-3z m279 284l-368 0c-9 0-16-7-16-16l0-368c0-9 7-16 16-16l368 0c9 0 16 7 16 16l0 368c0 9-7 16-16 16z m-20-364l-328 0 0 328 328 0z"/>
            <glyph glyph-name="code-sandbox" unicode="&#47;"
                   d="M355 407l0 0 0 0-99 57-99-57 0 0 0-1-81-46 0-208 180-104 180 104 0 208z m-114-317l-71 41 0 70-65 37 0 88 136-79z m-122 261l67 39 70-40 69 40 68-39-137-79z m288-113l-64-37 0-69-72-42 0 157 136 78z"/>
            <glyph glyph-name="codepen" unicode="&#58;"
                   d="M456 319l0 1c0 1 0 1-1 2 0 0 0 0 0 0 0 1 0 1 0 2 0 0-1 0-1 0 0 1 0 1 0 2 0 0-1 0-1 0 0 1-1 2-1 2 0 1-1 1-1 1 0 0 0 1-1 1 0 0 0 0-1 1 0 0 0 0 0 0 0 0-1 0-1 0l-182 122c-6 4-14 4-19 0l-183-122c0 0-1-1-1-2 0-2 0 1 0 0-1-3-1-1-1-1-1-2-1-5-1-1 0-3-1 0-1-1 0 0-1-1-1-1 0-3-1-1-1-1 0-4 0-1 0-1 0-3-1-1-1-1 0-4 0-1 0-2 0-3 0 0 0 0-1-5-1-1-1-2l0-1c0 0 0-1 0-2l0-122c0 0 0-1 0-2l0-1 3-1c0-3 1-3 1-2 3-1 5-1 1-2 1-4 1-3 4-1 1-1 2-3 0-1 1-3 5 0 1-1l1-1c0-3 0 0 1 0 2-5 0-1 3-1 1-1 1-3 0-1 1 0 2-2 4-2l172-118c2-2 6-3 9-3 3 0 7 1 10 3l182 122c0 0 2 0 3 0 3 0 1 0 1 1 4 0 1 0 1 0 3 1 5 1 1 1 3 0 0 1 1 1l0 1 1 1c0 0 4 0 1 1 2 0 4 0 0 1 2 0 3 0 4 1 2 0 3 1 5 1 1 0 2 0 2 1 2 0 2 1 3 1l0 1c0 1 2 1 0 2l0 122c0 1 0 2 0 2z m-183 88l135-90-60-40-75 50 0 80z m-34 0l0-80-75-50-60 40z m-149-122l43-29-43-29z m149-179l-135 89 60 41 75-50z m17 110l-61 40 61 41 61-41z m17-110l0 80 75 50 60-41z m149 121l-43 29 43 29z"/>
            <glyph glyph-name="codepen-circle" unicode="&#59;"
                   d="M244 305l0 55-94-62 42-28z m127-69l0 40-30-20z m-115 244c-124 0-224-100-224-224 0-124 100-224 224-224 124 0 224 100 224 224 0 124-100 224-224 224z m139-267c0 0 0-1 0-1 0 0 0-4 0-1 0 0 0-1-1-1 0-3 0-1 0-1 0-2 0-4 0-1 0-2 0 0-1 0 0-2 0-4 0-1 0-2 0 0 0-1-1-2-1-3-1 0 0-2 0-5 0-1-1-1-1-3-1 1 0-2 0-4-1-1 0-1 0-3 0-4 0 0 0-1 0-1l-127-81c-2-1-5-2-7-2-2 0-5 1-7 2l-127 85c0 0 0 0 0 0l0 0c-1 0-1 0-1 1 0 0 0 0-1 0 0 0 0 0 0 1 0 0 0 0-1 0 0 0 0 1 0 1 0 0 0 0 0 1-1 0-1 0-1 0 0 1 0 1 0 1 0 0 0 1 0 1 0 0-1 0-1 0 0 1 0 1 0 1 0 1 0 1 0 1 0 0 0 1 0 1l0 85c0 1 0 1 1 2 1 0 1 0 1 0 0 1 0 1 0 2 0 0 2 0 3 1 1 0 2 0 3 0 1 0 2 1 4 1 1 0 2 0 3 0 3 1 1 1 1 2 2 0 4 0 1 0 1 1 3 1 0 1 2 0 5 0 1 0 2 1 4 1 1 1 0 0 1 0 2 0l111 84c4 3 10 3 14 0l127-84c0-1 1-2 1-2l0-4 1 0c0-2 3-1 1-2 4-1 0-4 0-1 1-1 1-3 4-1 1-3 0 0 1-1 2-2 0-1 2 0 3-1 0-2 2-1 1-2 0-2 1 0 1-4 0 0 0 0 1-1 2-1 2-1l0-82z m-127-6l0-56 94 62-42 28z m-127 69l0-40 30 20z m115 8l-42-28 42-28 42 28z m106 14l-94 62 0-55 52-35z m-170-57l-42-28 94-62 0 56z"/>
            <glyph glyph-name="coffee" unicode="&#60;"
                   d="M138 371c9 0 18 9 18 18l0 105c0 10-9 18-18 18-10 0-18-8-18-18l0-105c0-9 8-18 18-18z m306-72l-60 0c0 20-16 36-36 36l-248 0c-20 0-36-16-36-36l0-124c0-1 1-3 4-4-1-4-1-7-1-11 0-88 72-160 160-160 80 0 147 59 158 135l59 0c20 0 36 17 36 36l0 92c0 20-16 36-36 36z m-96-128l-1 0c0-3 1-7 1-11 0-69-55-124-124-124-68 0-124 55-124 124 0 4 2 8 1 11l-1 0 0 128 248 0z m96 4l-56 0 0 88 56 0z m-137 196c9 0 18 9 18 18l0 105c0 10-9 18-18 18-10 0-18-8-18-18l0-105c0-9 8-18 18-18z m-85 0c9 0 18 9 18 18l0 105c0 10-9 18-18 18-10 0-18-8-18-18l0-105c0-9 8-18 18-18z"/>
            <glyph glyph-name="colum-height" unicode="&#61;"
                   d="M420 94l-328 0c-2 0-4-2-4-4l0-30c0-2 2-4 4-4l328 0c2 0 4 2 4 4l0 30c0 2-2 4-4 4z m0 362l-328 0c-2 0-4-2-4-4l0-30c0-2 2-4 4-4l328 0c2 0 4 2 4 4l0 30c0 2-2 4-4 4z m-115-133c3 0 5 3 3 6l-50 64c-1 1-2 1-3 1-1 0-2 0-3-1l-50-64c-1-1-1-3-1-4 1-1 2-2 4-2l33 0 0-134-31 0c-3 0-5-4-3-6l50-64c2-1 4-1 6 0l50 64c2 2 2 6-3 6l-33 0 0 134z"/>
            <glyph glyph-name="column-width" unicode="&#62;"
                   d="M90 424l-30 0c-2 0-4-2-4-4l0-328c0-2 2-4 4-4l30 0c2 0 4 2 4 4l0 328c0 2-2 4-4 4z m362 0l-30 0c-2 0-4-2-4-4l0-328c0-2 2-4 4-4l30 0c2 0 4 2 4 4l0 328c0 2-2 4-4 4z m-59-164l-64 50c-1 1-3 1-4 1-1-1-2-2-2-4l0-33-134 0 0 31c0 3-3 5-6 3l-64-50c-1-1-1-2-1-3 0-1 0-2 1-3l64-50c2-2 6-2 6 3l0 33 134 0 0-31c0-3 3-5 6-3l64 50c1 2 1 4 1 6z"/>
            <glyph glyph-name="compass" unicode="&#63;"
                   d="M256 480c-124 0-224-100-224-224 0-124 100-224 224-224 124 0 224 100 224 224 0 124-100 224-224 224z m0-410c-103 0-186 83-186 186 0 103 83 186 186 186 103 0 186-83 186-186 0-103-83-186-186-186z m99 294c-4 1-8 0-12-2l-136-58-59-135c-2-4-2-9 0-13 2-4 5-7 9-8 2-1 4-1 6-1 2 0 4 0 6 1l136 59 59 136c2 4 2 8 0 12-1 4-5 7-9 9z m-67-119l14-13-22-22-13 14-77-34 34 77-13 13 21 21 13-13 77 34z m-56 56l-21-21 13-13 43-43 13-14 22 22-14 13-43 43z"/>
            <glyph glyph-name="contacts" unicode="&#64;"
                   d="M297 211c10 11 15 24 15 38 0 31-25 56-56 56-31 0-56-25-56-56 0-15 6-28 15-38-22-13-36-37-37-63-1-1 0-2 1-3 0-1 1-1 3-1l22 0c2 0 3 2 3 4 2 25 23 45 49 45 26 0 47-20 49-45 0-2 2-4 4-4l22 0c1 0 2 0 2 1 1 1 2 2 2 3-2 27-16 50-38 63z m-41 12c-14 0-26 12-26 26 0 14 12 26 26 26 14 0 26-12 26-26 0-14-12-26-26-26z m208 177l-80 0 0 28c0 2-2 4-4 4l-28 0c-2 0-4-2-4-4l0-28-74 0 0 28c0 2-2 4-4 4l-28 0c-2 0-4-2-4-4l0-28-74 0 0 28c0 2-2 4-4 4l-28 0c-2 0-4-2-4-4l0-28-80 0c-9 0-16-7-16-16l0-288c0-9 7-16 16-16l416 0c9 0 16 7 16 16l0 288c0 9-7 16-16 16z m-20-284l-376 0 0 248 60 0 0-28c0-2 2-4 4-4l28 0c2 0 4 2 4 4l0 28 74 0 0-28c0-2 2-4 4-4l28 0c2 0 4 2 4 4l0 28 74 0 0-28c0-2 2-4 4-4l28 0c2 0 4 2 4 4l0 28 60 0z"/>
            <glyph glyph-name="container" unicode="&#91;"
                   d="M416 480l-320 0c-9 0-16-7-16-16l0-416c0-9 7-16 16-16l320 0c9 0 16 7 16 16l0 416c0 9-7 16-16 16z m-20-412l-280 0 0 100 49 0c6-16 16-31 30-42 17-14 39-22 61-22 22 0 44 8 62 22 13 11 23 26 29 42l49 0 0 32-74 0-3-12c-6-30-32-52-63-52-31 0-57 22-63 52l-3 12-74 0 0 244 280 0z m-236 273l192 0c2 0 4 2 4 4l0 24c0 3-2 4-4 4l-192 0c-2 0-4-1-4-4l0-24c0-2 2-4 4-4z m0-80l192 0c2 0 4 2 4 4l0 24c0 3-2 4-4 4l-192 0c-2 0-4-1-4-4l0-24c0-2 2-4 4-4z"/>
            <glyph glyph-name="control" unicode="&#93;"
                   d="M440 456l-368 0c-9 0-16-7-16-16l0-368c0-9 7-16 16-16l368 0c9 0 16 7 16 16l0 368c0 9-7 16-16 16z m-20-364l-328 0 0 328 328 0z m-250 78l0-38c0-2 2-4 4-4l24 0c2 0 4 2 4 4l0 38c-5-1-10-2-16-2-6 0-11 1-16 2z m32 99l0 111c0 2-2 4-4 4l-24 0c-2 0-4-2-4-4l0-111c5 2 10 3 16 3 6 0 11-1 16-3z m-32-99c5-1 10-2 16-2 6 0 11 1 16 2 21 7 36 27 36 50 0 23-15 43-36 49-5 2-10 3-16 3-6 0-11-1-16-3-21-6-36-26-36-49 0-23 15-43 36-50z m0 58c0 1 4 1 1 1l0 0 0 1c0 0 1 0 2 0 1 1 3 1 0 1 1 0 1 0 2 0 2 1 4 1 0 1l0 0 1 1 2 0c0 0 0 1 1 1 3 0 0 0 0 0 1 0 2 1 3 1 2 0 4 0 1 0 0 0 1 0 2 0 3 0 0 1 1 1 0 0 1 0 2 0 2 0 0 0 0 0l0 0c0 1 1 1 1 1 4 0 1 0 1 0 1 0 2 0 3 0 3 0 1 0 1 0 1 0 0 1 3 1 3 0 0 0 1 0 1 0 0 0 0 0 3 0 0 0 1 0l-1 0c0 0 1 0 2 0 0 0 0 0 1-1l0 0c0 0 1 0 1-1 0 0 0 0 1 0 1-1 1-2 0 0 1-1 0-1 1-1 2-1 1-2 1-1 2-1 4-1 1-2 1-1 3-1 3-1l0-1c1-1 1-3 1-4 1-1 2-2 1-4 1 0 0-1 2-2 1-1 1-1 0-1 1-2 2-1 5-1 0 0-3 0-3 0 0 0 1-4 1-1l0-2 1 0 1 0c1-3 1-1 1-1 1-1 2-2 4-1 1 0 1-1 1-1l1-1c0 0 0 0 0 0 2-3 3-6 3-10 0-3-1-5-2-8 0-3 0 0-1-1 0 0 0 0 0 0l0-1c0-1 0-2 0-3-1-2-1-4-1 0 0-1 0-2 0-2 0-3-1-1-1-1l0-2-1 0 0-2c0-3 0 0-1-1 0-2 0-4 0-1 0 0-1-1-1-1 0-2 0-4 0-1 0 0 0-1-1-1 0-2 0-4 0-1-1 0-1 0-1-1 0-1 0 1 0-4l-1-1c0-2 0-3-1 0 0-1 0-2-1-3 0-1 0-1 0-1 0-1-1-2-1-2 0 0 0-1 0-1-1-1-1-1-1-2 0 0 0 0-1 0 0-1 0-1 0-1l-1 0c0 0-1-1-1-1 0 0-1 0-1 0l0 0c-1 0-1 0-1 0 0 0 0 0-1 0 0 0 0 1-1 1 0 0 0 0 0 0 0 0 0 0-1 0 0 0 0 0 0 0 0 0-1 0-1 0 0 0-1 1-1 1l0 0c-1 0-1 0-1 0 0 0 0 0 0 0-1 1-1 1-1 1 0 0 0 0-1 0 0 0 0 0 0 1 0 0 0 0 0 0-1 0-1 0-1 0-1 1-1 1-1 1l0 0-1 1c0 0-1 1-1 1 0 0 0 0 0 0 0 0 0 0 0 1 0 0-1 0-1 0l0 1 0 0c0 0-1 1-1 1-1 2-2 5-2 8 0 3 1 6 2 9z m140 14l0-110c0-2 2-4 4-4l24 0c2 0 4 2 4 4l0 110c-5-1-10-2-16-2-6 0-11 1-16 2z m32 99l0 39c0 2-2 4-4 4l-24 0c-2 0-4-2-4-4l0-39c5 2 10 3 16 3 6 0 11-1 16-3z m-32-99c5-1 10-2 16-2 6 0 11 1 16 2 21 7 36 27 36 50 0 23-15 43-36 49-5 2-10 3-16 3-6 0-11-1-16-3-21-6-36-26-36-49 0-23 15-43 36-50z m0 58c0 1 4 1 1 1l0 0 0 1c0 0 1 0 2 0 1 1 3 1 0 1 1 0 1 0 2 0 2 1 4 1 0 1l0 0 1 1 2 0c0 0 0 1 1 1 3 0 0 0 0 0 1 0 2 1 3 1 2 0 4 0 1 0 0 0 1 0 2 0 3 0 0 1 1 1 0 0 1 0 2 0 2 0 0 0 0 0l0 0c0 1 1 1 1 1 4 0 1 0 1 0 1 0 2 0 3 0 3 0 1 0 1 0 1 0 0 1 3 1 3 0 0 0 1 0 1 0 0 0 0 0 3 0 0 0 1 0l-1 0c0 0 1 0 2 0 0 0 0 0 1-1l0 0c0 0 1 0 1-1 0 0 0 0 1 0 1-1 1-2 0 0 1-1 0-1 1-1 2-1 1-2 1-1 2-1 4-1 1-2 1-1 3-1 3-1l0-1c1-1 1-3 1-4 1-1 2-2 1-4 1 0 0-1 2-2 1-1 1-1 0-1 1-2 2-1 5-1 0 0-3 0-3 0 0 0 1-4 1-1l0-2 1 0 1 0c1-3 1-1 1-1 1-1 2-2 4-1 1 0 1-1 1-1l1-1 0 0c1-3 2-6 2-10 0-3 0-5-2-8 0-3 0 0 0-1l0 0-1-1c0-1 0-1 0-2 0-3 0-5 0-1 0 0-1-1-1-2 0-3 0 0 0-1l0-1-1-1 0-2c0-2-1 1-1-1 0-2-1-4-1 0 0-1 0-1 0-2 0-1-1-3-1 0 0-1 0-1 0-2 0-2-1-3-1 0 0-1 0-1 0-1 0-2-1 0-1-4l0-2c-1-1-1-3-1 1-1-2-1-3-1-4 0 0-1 0-1-1 0-1 0-1 0-2-1 0-1 0-1 0 0-1 0-2-1-2 0 0 0 0 0-1 0 0-1 0-1-1l0 0c-1 0-1 0-1 0-1 0-1 0-2 0l0 0c0 0 0 0-1 0 0 0 0 0 0 0 0 0-1 0-1 0 0 0 0 0 0 0-1 0-1 0-1 0 0 0 0 0-1 0 0 1 0 1-1 1 0 0 0 0-1 0l0 0c0 0 0 1-1 1 0 0 0 0 0 0 0 0-1 0-1 0 0 0 0 0 0 1 0 0-1 0-1 0 0 0 0 0 0 0 0 0-1 1-1 1 0 0 0 0-1 1l0 0 0 0-1 0c0 1 0 1 0 1 0 0 0 0 0 0-1 1-1 1-1 1 0 0 0 0 0 0l-1 1 0 0c0 1 0 1 0 1-1 3-2 6-2 9 0 3 1 5 2 8z"/>
            <glyph glyph-name="copy" unicode="&#94;"
                   d="M416 480l-268 0c-2 0-4-2-4-4l0-28c0-2 2-4 4-4l248 0 0-344c0-2 2-4 4-4l28 0c2 0 4 2 4 4l0 364c0 9-7 16-16 16z m-64-64l-256 0c-9 0-16-7-16-16l0-265c0-5 2-9 5-12l86-86c1-1 3-2 4-3l0-1 2 0c2-1 4-1 6-1l169 0c9 0 16 7 16 16l0 352c0 9-7 16-16 16z m-177-332l-43 43 43 0z m157-16l-125 0 0 71c0 11-9 20-20 20l-71 0 0 221 216 0z"/>
            <glyph glyph-name="copyright" unicode="&#95;"
                   d="M256 480c-124 0-224-100-224-224 0-124 100-224 224-224 124 0 224 100 224 224 0 124-100 224-224 224z m0-410c-103 0-186 83-186 186 0 103 83 186 186 186 103 0 186-83 186-186 0-103-83-186-186-186z m3 266c26 0 44-17 46-41 2-2 2-4 4-4l29 0c1 0 2 1 2 2 0 44-34 74-81 74-55 0-87-37-87-98l0-27c0-60 32-97 87-97 47 0 81 29 81 71 0 1-1 2-2 2l-29 0c-2 0-4-2-4-4-2-23-20-39-46-39-33 0-51 24-51 67l0 27c0 43 18 67 51 67z"/>
            <glyph glyph-name="credit-card" unicode="&#96;"
                   d="M464 432l-416 0c-9 0-16-7-16-16l0-320c0-9 7-16 16-16l416 0c9 0 16 7 16 16l0 320c0 9-7 16-16 16z m-396-36l376 0 0-60-376 0z m376-280l-376 0 0 176 376 0z m-118 32l82 0c2 0 4 2 4 4l0 36c0 2-2 4-4 4l-82 0c-3 0-4-2-4-4l0-36c0-2 1-4 4-4z"/>
            <glyph glyph-name="crown" unicode="&#123;"
                   d="M450 374l-97-60-94 124c-1 1-2 2-3 2-1 0-2-1-3-2l-93-124-98 60c-3 1-6-1-6-4l38-291c1-3 4-7 8-7l308 0c4 0 7 3 8 7l38 291c0 3-3 5-6 4z m-63-267l-262 0-27 204 70-43 88 118 88-118 70 43z m-131 150c-31 0-56-25-56-56 0-31 25-56 56-56 31 0 56 25 56 56 0 31-25 56-56 56z m0-80c-13 0-24 11-24 24 0 13 11 24 24 24 13 0 24-10 24-24 0-13-11-24-24-24z"/>
            <glyph glyph-name="customer-service" unicode="&#124;"
                   d="M256 448c-106 0-192-86-192-192l0-180c0-7 5-12 12-12l92 0c18 0 32 14 32 32l0 104c0 18-14 32-32 32l-68 0 0 24c0 86 70 156 156 156 86 0 156-70 156-156l0-24-68 0c-18 0-32-14-32-32l0-104c0-18 14-32 32-32l92 0c7 0 12 5 12 12l0 180c0 106-86 192-192 192z m-92-252l0-96-64 0 0 96z m248-96l-64 0 0 96 64 0z"/>
            <glyph glyph-name="dash" unicode="&#125;"
                   d="M56 274l80 0 0-36-80 0z m160 0l80 0 0-36-80 0z m160 0l80 0 0-36-80 0z"/>
            <glyph glyph-name="dashboard" unicode="&#126;"
                   d="M462 319c-11 27-27 51-48 71-20 21-44 37-71 48-27 12-57 18-87 18-30 0-60-6-87-18-27-11-51-27-71-48-21-20-37-44-48-71-12-27-18-57-18-87 0-66 29-129 80-172l1 0c3-3 6-4 10-4l266 0c4 0 7 1 10 4l1 0c51 43 80 106 80 172 0 30-6 60-18 87z m-81-225l-250 0c-39 35-61 85-61 138 0 50 19 96 55 131 35 36 81 55 131 55 50 0 96-19 132-55 35-35 54-81 54-131 0-53-22-103-61-138z m-69 207c-2 2-4 2-6 0l-42-42c-9 2-20 0-27-7-5-5-8-13-8-20 0-7 3-15 8-20 5-5 12-8 20-8 7 0 14 3 19 8 7 7 10 18 8 27l42 42c1 2 1 5 0 6z m-67 51l22 0c2 0 4 2 4 4l0 40c0 2-2 4-4 4l-22 0c-2 0-4-2-4-4l0-40c0-2 2-4 4-4z m130-109l0-22c0-2 2-4 4-4l40 0c2 0 4 2 4 4l0 22c0 2-2 4-4 4l-40 0c-2 0-4-2-4-4z m6 99l-15 15c-2 2-4 2-6 0l-28-28c-2-2-2-4 0-6l15-15c2-2 5-2 6 0l28 28c2 1 2 4 0 6z m-229 15c-2 2-4 2-6 0l-15-15c-2-2-2-4 0-6l28-28c2-2 4-2 6 0l15 15c2 2 2 4 0 6z m-21-110l-40 0c-2 0-4-2-4-4l0-22c0-2 2-4 4-4l40 0c2 0 4 2 4 4l0 22c0 2-2 4-4 4z"/>
            <glyph glyph-name="database" unicode="&#92;"
                   d="M416 480l-320 0c-9 0-16-7-16-16l0-416c0-9 7-16 16-16l320 0c9 0 16 7 16 16l0 416c0 9-7 16-16 16z m-300-36l280 0 0-104-280 0z m280-240l-280 0 0 104 280 0z m0-136l-280 0 0 104 280 0z m-244 324c0-11 9-20 20-20 11 0 20 9 20 20 0 11-9 20-20 20-11 0-20-9-20-20z m0-136c0-11 9-20 20-20 11 0 20 9 20 20 0 11-9 20-20 20-11 0-20-9-20-20z m0-136c0-11 9-20 20-20 11 0 20 9 20 20 0 11-9 20-20 20-11 0-20-9-20-20z"/>
            <glyph glyph-name="delete" unicode="&#57344;"
                   d="M180 420l-4 0c2 0 4 2 4 4l0-4 152 0 0 4c0-2 2-4 4-4l-4 0 0-36 36 0 0 40c0 18-14 32-32 32l-160 0c-18 0-32-14-32-32l0-40 36 0z m252-36l-352 0c-9 0-16-7-16-16l0-16c0-2 2-4 4-4l30 0 13-262c0-17 14-30 32-30l227 0c17 0 31 13 31 30l13 262 30 0c2 0 4 2 4 4l0 16c0 9-7 16-16 16z m-66-292l-220 0-12 256 244 0z"/>
            <glyph glyph-name="deployment-unit" unicode="&#57345;"
                   d="M444 165c-21 13-47 9-64-6l-27 15 0 76c0 8-4 15-11 19l-68 39 0 34c22 7 38 28 38 53 0 31-25 56-56 56-31 0-56-25-56-56 0-25 16-46 38-53l0-34-68-39c-7-4-11-11-11-19l0-76-26-15c-18 15-44 19-65 6-27-15-36-49-21-76 16-27 50-36 77-21 21 13 31 37 26 60l25 14 70-40c3-2 7-3 11-3 4 0 8 1 11 3l70 40 25-14c-5-23 5-47 26-60 27-15 61-6 77 21 15 27 6 61-21 76z m-336-69c-6-3-12-4-18-2-7 1-12 5-15 11-7 11-3 26 9 33 5 3 12 4 18 2 6-2 11-6 14-11 7-12 3-26-8-33z m153 184z m-29 115c0 13 11 24 24 24 13 0 24-11 24-24 0-13-11-24-24-24-13 0-24 11-24 24z m85-223l-61-35-61 35 0 70 61 35 61-35z m120-67c-7-12-21-15-33-9-11 7-15 21-8 33 6 11 21 15 32 9 12-7 16-22 9-33z"/>
            <glyph glyph-name="desktop" unicode="&#57346;"
                   d="M464 442l-416 0c-9 0-16-7-16-16l0-248c0-9 7-16 16-16l190 0 0-56-86 0c-4 0-8-4-8-8l0-24c0-2 2-4 4-4l216 0c2 0 4 2 4 4l0 24c0 4-4 8-8 8l-86 0 0 56 190 0c9 0 16 7 16 16l0 248c0 9-7 16-16 16z m-20-244l-376 0 0 208 376 0z"/>
            <glyph glyph-name="diff" unicode="&#57347;"
                   d="M238 312c0 2-2 4-3 4l-21 0c-2 0-4-2-4-4l0-42-42 0c-2 0-4-2-4-4l0-21c0-1 2-3 4-3l42 0 0-42c0-2 2-4 4-4l21 0c1 0 3 2 3 4l0 42 42 0c2 0 4 2 4 3l0 21c0 2-2 4-4 4l-42 0z m42-152l-112 0c-2 0-4-2-4-4l0-21c0-1 2-3 4-3l112 0c2 0 4 2 4 3l0 21c0 2-2 4-4 4z m-3 251c-3 3-7 5-12 5l-169 0c-9 0-16-7-16-16l0-352c0-9 7-16 16-16l256 0c9 0 16 7 16 16l0 265c0 5-2 9-5 12z m55-343l-216 0 0 312 141 0 75-75z m95 291l-121 117c-3 2-7 4-11 4l-147 0c-2 0-4-2-4-4l0-28c0-2 2-4 4-4l139 0 109-105 0-239c0-2 2-4 4-4l28 0c2 0 4 2 4 4l0 247c0 5-2 9-5 12z"/>
            <glyph glyph-name="dingding" unicode="&#57348;"
                   d="M287 386c-76 27-186 78-186 78-8 2-9-6-9-6-3-30 17-80 27-91 9-11 159-57 159-57 0 0-115 23-143 31-28 8-19-9-19-9 6-31 33-66 54-69 21-3 110-2 110-2 0 0-18-2-47-6-21-3-48-6-55-9-17-6 12-31 12-31 42-39 65-25 65-25 16 5 30 9 42 12l-14-62 42 0-23-92 102 136-54 0 12 19c-1-2 4-4 4-4 0 0 34 65 49 96l0 1 0 0c2 5 4 9 5 12 8 36-57 50-133 78z"/>
            <glyph glyph-name="disconnect" unicode="&#57349;"
                   d="M416 416c-42 43-110 43-153 0l-48-48 25-26 49 49c27 27 72 30 102 0 30-30 27-75 0-102l-49-49 26-25 48 48c43 43 43 111 0 153z m-193-295c-27-27-72-30-102 0-29 30-27 75 0 102l49 49-26 25-48-48c-43-43-43-111 0-153 42-43 110-43 153 0l48 48-25 26z m-93 286c-1 2-4 2-5 0l-20-20c-2-1-2-4 0-5l277-277c1-2 4-2 6 0l19 19c2 2 2 5 0 6z"/>
            <glyph glyph-name="dislike" unicode="&#57350;"
                   d="M443 267c2 6 3 12 3 18 0 14-5 28-13 39 1 6 2 12 2 19 0 14-4 27-13 39 2 6 3 12 3 18 0 26-15 49-39 59-4 2-9 3-13 3l-301 0c-9 0-16-7-16-16l0-182c0-9 7-16 16-16l65 0 43-155c6-26 29-43 55-43 15 0 29 6 39 17 11 10 16 25 15 39l-3 62 120 0c6 0 12 1 17 4 20 12 33 34 33 56 0 14-5 28-13 39z m-351 17l0 142 41 0 0-142z m314-80l-158 0 5-99c1-6-2-12-7-16-3-2-7-3-11-3-9 0-18 7-21 16l-49 180 0 144 207 0c10-5 17-15 17-26 0-5-1-9-3-14l-7-12 11-10c6-5 9-13 9-21 0-5-1-10-3-14l-7-13 11-9c6-6 10-13 10-22 0-4-1-9-4-13l-7-13 11-10c6-5 10-13 10-21 0-10-5-19-14-24z"/>
            <glyph glyph-name="dollar" unicode="&#57351;"
                   d="M256 480c-124 0-224-100-224-224 0-124 100-224 224-224 124 0 224 100 224 224 0 124-100 224-224 224z m0-410c-103 0-186 83-186 186 0 103 83 186 186 186 103 0 186-83 186-186 0-103-83-186-186-186z m24 198l-13 3 0 67c19-3 31-15 33-29 2-2 2-4 4-4l22 0c3 0 5 2 4 5-3 31-28 51-63 54l0 16c0 3-1 4-4 4l-14 0c-2 0-4-1-4-4l0-16c-35-3-63-23-63-60 0-33 25-50 51-56l13-3 0-71c-22 3-35 14-37 30-1 2-2 4-4 4l-23 0c-3 0-5-2-4-5 2-27 23-53 67-56l0-16c0-2 2-4 4-4l14 0c3 0 4 2 4 5l0 15c39 4 67 25 67 62 0 35-22 51-54 59z m-34 8c-3 0-6 1-8 2-17 6-25 16-25 29 0 18 14 28 33 31z m21-103l0 67c2-4 3 0 5-1 23-7 31-17 31-32 0-20-15-32-36-34z"/>
            <glyph glyph-name="dot-chart" unicode="&#57352;"
                   d="M444 116l-344 0 0 312c0 2-2 4-4 4l-28 0c-2 0-4-2-4-4l0-344c0-2 2-4 4-4l376 0c2 0 4 2 4 4l0 28c0 2-2 4-4 4z m-300 94c0-18 14-32 32-32 18 0 32 14 32 32 0 18-14 32-32 32-18 0-32-14-32-32z m59 112c0-13 11-24 24-24 13 0 24 11 24 24 0 13-11 24-24 24-13 0-24-11-24-24z m79-114c0-27 21-48 48-48 27 0 48 21 48 48 0 27-21 48-48 48-27 0-48-21-48-48z m74 157c0-15 13-28 28-28 15 0 28 13 28 28 0 15-13 28-28 28-15 0-28-13-28-28z"/>
            <glyph glyph-name="double-left" unicode="&#57353;"
                   d="M136 256l133 170c2 2 2 6-3 6l-39 0c-2 0-4-1-6-3l-128-163c-4-6-4-14 0-20l128-163c2-2 4-3 6-3l39 0c3 0 5 4 3 6z m152 0l133 170c2 2 2 6-3 6l-39 0c-2 0-4-1-6-3l-128-163c-4-6-4-14 0-20l128-163c2-2 4-3 6-3l39 0c3 0 5 4 3 6z"/>
            <glyph glyph-name="double-right" unicode="&#57354;"
                   d="M267 266l-128 163c-2 2-4 3-6 3l-39 0c-3 0-5-4-3-6l133-170-133-170c-1-1-1-2-1-4 1-1 2-2 4-2l39 0c2 0 4 1 6 3l128 163c4 6 4 14 0 20z m152 0l-128 163c-2 2-4 3-6 3l-39 0c-3 0-5-4-3-6l133-170-133-170c-1-1-1-2-1-4 1-1 2-2 4-2l39 0c2 0 4 1 6 3l128 163c4 6 4 14 0 20z"/>
            <glyph glyph-name="down" unicode="&#57355;"
                   d="M442 384l-37 0c-3 0-5-1-7-3l-142-196-142 196c-2 2-4 3-6 3l-38 0c-3 0-5-4-3-6l176-243c6-9 20-9 26 0l176 243c2 2 1 6-3 6z"/>
            <glyph glyph-name="down-circle" unicode="&#57356;"
                   d="M345 309l-23 0c-6 0-10-2-13-6l-53-73-53 73c-3 4-7 6-13 6l-23 0c-3 0-5-3-3-6l89-123c1-2 5-2 6 0l89 123c2 3 1 6-3 6z m-89 171c-124 0-224-100-224-224 0-124 100-224 224-224 124 0 224 100 224 224 0 124-100 224-224 224z m0-410c-103 0-186 83-186 186 0 103 83 186 186 186 103 0 186-83 186-186 0-103-83-186-186-186z"/>
            <glyph glyph-name="down-square" unicode="&#57357;"
                   d="M253 183c1-3 5-3 6 0l89 123c2 2 0 6-3 6l-23 0c-6 0-10-2-13-7l-53-72-53 72c-3 5-7 7-13 7l-23 0c-3 0-5-4-3-6z m187 273l-368 0c-9 0-16-7-16-16l0-368c0-9 7-16 16-16l368 0c9 0 16 7 16 16l0 368c0 9-7 16-16 16z m-20-364l-328 0 0 328 328 0z"/>
            <glyph glyph-name="download" unicode="&#57358;"
                   d="M253 181c1 0 2-1 3-1 1 0 2 1 3 1l56 71c2 3 2 7-3 7l-37 0 0 169c0 2-2 4-4 4l-30 0c-2 0-4-2-4-4l0-169-37 0c-3 0-5-4-3-7z m186 18l-30 0c-2 0-4-2-4-4l0-77-298 0 0 77c0 2-2 4-4 4l-30 0c-2 0-4-2-4-4l0-99c0-9 7-16 16-16l342 0c9 0 16 7 16 16l0 99c0 2-2 4-4 4z"/>
            <glyph glyph-name="drag" unicode="&#57359;"
                   d="M455 259l-64 50c-1 1-3 1-4 1-1-1-2-2-2-4l0-32-111 0 0 111 32 0c3 0 5 3 3 6l-50 64c-1 1-2 1-3 1-1 0-2 0-3-1l-50-64c-1-1-1-3-1-4 1-1 2-2 4-2l32 0 0-111-111 0 0 32c0 3-3 5-6 3l-64-50c-1-1-1-2-1-3 0-1 0-2 1-3l64-50c2-2 6-2 6 3l0 32 111 0 0-111-32 0c-3 0-5-4-3-6l50-64c2-1 4-1 6 0l50 64c2 2 2 6-3 6l-32 0 0 111 111 0 0-32c0-3 4-5 6-3l64 50c0 1 1 2 1 3 0 1 0 2-1 3z"/>
            <glyph glyph-name="dribbble" unicode="&#57360;"
                   d="M256 464c-115 0-208-93-208-208 0-115 93-208 208-208 115 0 208 93 208 208 0 115-93 208-208 208z m138-96c24-30 39-69 40-111-6 2-65 14-124 6-1 3-3 6-4 9-4 9-7 18-12 26 66 27 96 65 100 70z m-138 65c45 0 86-17 118-44-3-5-30-41-93-65-29 54-62 98-67 104 14 4 28 5 42 5z m-76-17c5-6 37-50 66-102-83-22-156-22-164-22 12 55 49 101 98 124z m-102-160c0 2 1 3 1 5 8-1 94-1 183 25 5-9 10-20 14-30-2 0-4-1-7-2-92-29-141-110-145-117-28 31-46 73-46 119z m178-178c-41 0-79 14-109 38 3 6 39 76 139 111l1 0c25-65 36-119 38-135-22-9-45-14-69-14z m99 30c-2 11-11 63-34 127 55 9 104-6 110-8-7-49-36-92-76-119z"/>
            <glyph glyph-name="dribbble-square" unicode="&#57361;"
                   d="M249 296c-20 36-42 67-45 71-35-16-60-48-68-86 5 0 56-3 113 15z m34-11c2-6 5-12 8-18 1-2 2-4 2-6 41 5 82-3 86-4 0 29-11 56-28 77-2-4-23-30-68-49z m157 171l-368 0c-9 0-16-7-16-16l0-368c0-9 7-16 16-16l368 0c9 0 16 7 16 16l0 368c0 9-7 16-16 16z m-184-344c-79 0-144 65-144 144 0 79 65 144 144 144 79 0 144-65 144-144 0-79-65-144-144-144z m45 130c16-45 23-81 24-88 27 18 47 48 52 82-4 2-38 12-76 6z m-36 13c1 0 3 1 4 1-3 7-6 14-9 21-62-18-122-18-127-17 0-2 0-3 0-4 0-32 12-61 32-82 2 4 36 60 100 81z m73 93c-31 27-72 37-111 27 4-4 26-35 46-72 44 17 62 42 65 45z m-61-112c-69-25-94-73-96-77 20-16 47-26 75-26 17 0 33 3 48 10-2 10-9 48-26 93l-1-3z"/>
            <glyph glyph-name="dropbox" unicode="&#57362;"
                   d="M32 234l132-87 92 76-133 83z m448 145z m0 0l-132 85-92-76 133-82-133-83 92-76 132 86-91 73z m-223-172l-93-77-40 26 0-29 133-79 131 79 0 29-39-26z m-93 257l-132-85 91-73 133 82z m-132-230z"/>
            <glyph glyph-name="edit" unicode="&#57363;"
                   d="M129 136c1 0 2 0 3 0l84 15c1 0 2 1 3 1l212 212c0 1 1 3 1 4 0 1-1 2-1 3l-84 84c0 0-2 1-3 1-1 0-3-1-4-1l-212-212c0-1-1-2-1-3l-15-84c-1-6 1-11 5-15 3-3 7-5 12-5z m34 87l181 181 37-36-182-181-44-8z m277-129l-368 0c-9 0-16-7-16-16l0-18c0-2 2-4 4-4l392 0c2 0 4 2 4 4l0 18c0 9-7 16-16 16z"/>
            <glyph glyph-name="ellipsis" unicode="&#57364;"
                   d="M88 256c0-15 13-28 28-28 15 0 28 13 28 28 0 16-13 28-28 28-15 0-28-12-28-28z m140 0c0-15 13-28 28-28 15 0 28 13 28 28 0 16-13 28-28 28-15 0-28-12-28-28z m140 0c0-15 13-28 28-28 15 0 28 13 28 28 0 16-13 28-28 28-15 0-28-12-28-28z"/>
            <glyph glyph-name="enter" unicode="&#57365;"
                   d="M432 427l-30 0c-2 0-4-2-4-4l0-259-243 0 0 36c0 4-4 6-6 4l-71-56c-1-1-2-2-2-4 0-1 1-2 2-3l71-56c2-2 6 0 6 3l0 38 249 0c18 0 32 14 32 32l0 265c0 2-2 4-4 4z"/>
            <glyph glyph-name="environment" unicode="&#57366;"
                   d="M427 367c-9 22-23 42-40 58-17 17-37 30-59 39-23 10-47 14-72 14-25 0-49-4-72-14-22-9-42-22-59-39-17-16-31-36-40-58-10-22-15-46-15-71 0-35 8-70 25-104 13-27 32-54 56-79 40-43 82-69 94-76 3-2 7-3 11-3 4 0 8 1 11 3 12 7 54 33 94 76 24 25 43 52 56 79 17 34 25 69 25 104 0 25-5 49-15 71z m-171-295c-33 21-150 104-150 224 0 39 16 76 44 104 28 27 66 42 106 42 40 0 78-15 106-42 28-28 44-65 44-104 0-120-117-203-150-224z m0 308c-49 0-88-39-88-88 0-48 39-88 88-88 49 0 88 40 88 88 0 49-39 88-88 88z m40-127c-11-11-25-17-40-17-15 0-29 6-40 17-10 10-16 25-16 39 0 15 6 29 16 40 11 11 25 16 40 16 15 0 29-5 40-16 10-11 16-25 16-40 0-14-6-29-16-39z"/>
            <glyph glyph-name="euro" unicode="&#57367;"
                   d="M256 480c-124 0-224-100-224-224 0-124 100-224 224-224 124 0 224 100 224 224 0 124-100 224-224 224z m0-410c-103 0-186 83-186 186 0 103 83 186 186 186 103 0 186-83 186-186 0-103-83-186-186-186z m59 294c-8 2-17 3-28 3-53 0-89-28-99-75l-16 0c-2 0-4-2-4-4l0-14c0-2 2-4 4-4l13 0c0-2 0-4 0-6l0-18-13 0c-2 0-4-2-4-4l0-14c0-2 2-4 4-4l15 0c9-50 45-79 100-79 11 0 20 1 28 3 2 0 3 2 3 3l0 22c0 2-2 4-5 4-7-2-16-2-26-2-34 0-57 18-64 49l65 0c2 0 4 2 4 4l0 14c0 2-2 4-4 4l-68 0 0 18c0 2 0 4 1 6l68 0c2 0 4 2 4 4l0 14c0 2-2 4-4 4l-65 0c8 29 31 45 63 45 10 0 19 0 26-2 1 0 3 0 4 1 0 1 1 2 1 3l0 21c0 2-1 4-3 4z"/>
            <glyph glyph-name="exception" unicode="&#57368;"
                   d="M344 356l0 24c0 2-2 4-4 4l-192 0c-2 0-4-2-4-4l0-24c0-2 2-4 4-4l192 0c2 0 4 2 4 4z m-196-44c-2 0-4-2-4-4l0-24c0-2 2-4 4-4l92 0c2 0 4 2 4 4l0 24c0 2-2 4-4 4z m188-58c-60 0-108-48-108-108 0-60 48-108 108-108 60 0 108 48 108 108 0 60-48 108-108 108z m54-162c-15-14-34-22-54-22-20 0-39 8-54 22-14 15-22 34-22 54 0 20 8 39 22 54 15 14 34 22 54 22 20 0 39-8 54-22 14-15 22-34 22-54 0-20-8-39-22-54z m-70 14c0-9 7-16 16-16 9 0 16 7 16 16 0 9-7 16-16 16-9 0-16-7-16-16z m6 32l20 0c2 0 4 2 4 4l0 56c0 2-2 4-4 4l-20 0c-2 0-4-2-4-4l0-56c0-2 2-4 4-4z m-106-52l-116 0 0 352 280 0 0-172c0-2 2-4 4-4l28 0c2 0 4 2 4 4l0 192c0 9-7 16-16 16l-320 0c-9 0-16-7-16-16l0-392c0-9 7-16 16-16l136 0c2 0 4 2 4 4l0 28c0 2-2 4-4 4z"/>
            <glyph glyph-name="exclamation" unicode="&#57369;"
                   d="M224 110c0-18 14-32 32-32 18 0 32 14 32 32 0 18-14 32-32 32-18 0-32-14-32-32z m16 84l32 0c2 0 4 2 4 4l0 232c0 2-2 4-4 4l-32 0c-2 0-4-2-4-4l0-232c0-2 2-4 4-4z"/>
            <glyph glyph-name="exclamation-circle" unicode="&#57370;"
                   d="M256 480c-124 0-224-100-224-224 0-124 100-224 224-224 124 0 224 100 224 224 0 124-100 224-224 224z m0-410c-103 0-186 83-186 186 0 103 83 186 186 186 103 0 186-83 186-186 0-103-83-186-186-186z m-24 98c0-13 11-24 24-24 13 0 24 11 24 24 0 13-11 24-24 24-13 0-24-11-24-24z m12 56l24 0c2 0 4 2 4 4l0 136c0 2-2 4-4 4l-24 0c-2 0-4-2-4-4l0-136c0-2 2-4 4-4z"/>
            <glyph glyph-name="experiment" unicode="&#57371;"
                   d="M256 276c0-11 9-20 20-20 11 0 20 9 20 20 0 11-9 20-20 20-11 0-20-9-20-20z m184-176l-92 236 0 87 36 0 0 34-256 0 0-34 36 0 0-87-91-236c-2-4-3-8-3-12 0-18 15-32 32-32l308 0c4 0 8 1 11 2 17 6 25 25 19 42z m-242 230l0 92 116 0 0-92 46-118c-11 3-21 4-32 4-31 0-60-11-83-30-17-14-38-22-61-22-16 0-32 4-46 12z m-93-240l21 54c18-9 38-14 58-14 31 0 60 11 83 30 17 14 38 22 61 22 17 0 34-5 49-14l30-78z"/>
            <glyph glyph-name="export" unicode="&#57372;"
                   d="M444 133l-27 0c-2 0-4-1-4-4l0-30-314 0 0 314 314 0 0-30c0-3 2-4 4-4l27 0c2 0 4 1 4 4l0 50c0 8-7 15-15 15l-354 0c-8 0-15-7-15-15l0-354c0-8 7-15 15-15l354 0c8 0 15 7 15 15l0 50c0 3-2 4-4 4z m9 126l-70 56c-3 2-7 0-7-3l0-38-157 0c-2 0-4-2-4-4l0-28c0-2 2-4 4-4l157 0 0-38c0-3 4-5 7-3l70 56c1 1 2 2 2 3 0 1-1 2-2 3z"/>
            <glyph glyph-name="eye" unicode="&#57373;"
                   d="M471 269c-47 100-119 150-215 150-96 0-168-50-215-150-4-8-4-18 0-26 47-100 119-150 215-150 96 0 168 50 215 150 4 8 4 18 0 26z m-215-140c-81 0-140 41-181 127 41 86 100 127 181 127 81 0 140-41 181-127-41-86-100-127-181-127z m-2 215c-49 0-88-39-88-88 0-49 39-88 88-88 49 0 88 39 88 88 0 49-39 88-88 88z m0-144c-31 0-56 25-56 56 0 31 25 56 56 56 31 0 56-25 56-56 0-31-25-56-56-56z"/>
            <glyph glyph-name="eye-invisible" unicode="&#57374;"
                   d="M471 269c-17 37-38 67-63 90l-25-25c21-20 39-46 54-78-41-86-100-127-181-127-24 0-47 4-67 11l-27-27c28-13 59-20 94-20 96 0 168 50 215 150 4 8 4 18 0 26z m-32 160l-21 22c-1 0-2 1-3 1-1 0-2-1-3-1l-54-55c-30 15-64 23-102 23-96 0-168-50-215-150-4-8-4-18 0-26 19-40 42-72 68-96l-53-53c-1-1-1-4 0-5l22-22c1-1 4-1 5 0l356 357c1 0 1 1 1 2 0 1 0 2-1 3z m-364-173c41 86 100 127 181 127 27 0 52-5 75-14l-36-35c-34 18-76 12-103-16-28-27-34-69-16-103l-41-42c-23 20-43 48-60 83z m123 0c0 18 9 35 23 45 14 11 33 14 50 8l-70-70c-2 5-3 11-3 17z m56-56c-2 0-3 0-5 0l-27-26c33-13 70-5 94 20 25 24 33 61 20 94l-26-27c0-2 23-3 23-5 0-15-6-29-16-40-11-10-25-16-40-16z"/>
            <glyph glyph-name="facebook" unicode="&#57375;"
                   d="M440 456l-368 0c-9 0-16-7-16-16l0-368c0-9 7-16 16-16l368 0c9 0 16 7 16 16l0 368c0 9-7 16-16 16z m-16-368l-92 0 0 123 52 0 8 60-60 0 0 39c0 17 5 29 30 29l32 0 0 54c-6 1-25 3-47 3-46 0-77-29-77-80l0-45-53 0 0-60 53 0 0-123-182 0 0 336 336 0z"/>
            <glyph glyph-name="fall" unicode="&#57376;"
                   d="M463 110l-12 100c0 3-4 4-7 2l-29-30-136 136c-3 3-8 3-11 0l-51-51-139 138c-1 2-4 2-5 0l-23-22c-1-2-1-4 0-6l161-161c3-3 8-3 11 0l51 51 113-113-29-30c-1-1-2-2-1-4 0-1 1-2 3-2l100-12c2-4 4 1 4 4z"/>
            <glyph glyph-name="fast-backward" unicode="&#57377;"
                   d="M259 375l-144-113c-2-1-3-4-3-6 0-2 1-5 3-6l144-113c5-4 13-4 13 6l0 226c0 7-8 10-13 6z m160 0l-144-113c-2-1-3-4-3-6 0-2 1-5 3-6l144-113c5-4 13-4 13 6l0 226c0 7-8 10-13 6z m-310 13l-26 0c-2 0-3-1-3-3l0-258c0-2 1-3 3-3l26 0c2 0 3 1 3 3l0 258c0 2-1 3-3 3z"/>
            <glyph glyph-name="fast-forward" unicode="&#57378;"
                   d="M397 262l-144 113c-5 4-13 1-13-6l0-226c0-7 8-10 13-6l144 113c2 1 3 4 3 6 0 2-1 5-3 6z m-160 0l-144 113c-5 4-13 1-13-6l0-226c0-7 8-10 13-6l144 113c2 1 3 4 3 6 0 2-1 5-3 6z m192 126l-26 0c-2 0-3-1-3-3l0-258c0-2 1-3 3-3l26 0c2 0 3 1 3 3l0 258c0 2-1 3-3 3z"/>
            <glyph glyph-name="file" unicode="&#57379;"
                   d="M427 368l-107 107c-3 3-7 5-12 5l-212 0c-9 0-16-7-16-16l0-416c0-9 7-16 16-16l320 0c9 0 16 7 16 16l0 308c0 5-2 9-5 12z m-32-19l-94 0 0 94z m1-281l-280 0 0 376 151 0 0-108c0-12 9-21 21-21l108 0z"/>
            <glyph glyph-name="file-add" unicode="&#57380;"
                   d="M427 368l-107 107c-3 3-7 5-12 5l-212 0c-9 0-16-7-16-16l0-416c0-9 7-16 16-16l320 0c9 0 16 7 16 16l0 308c0 5-2 9-5 12z m-32-19l-94 0 0 94z m1-281l-280 0 0 376 151 0 0-108c0-12 9-21 21-21l108 0z m-124 208c0 2-2 4-4 4l-24 0c-2 0-4-2-4-4l0-54-54 0c-2 0-4-2-4-4l0-24c0-2 2-4 4-4l54 0 0-54c0-2 2-4 4-4l24 0c2 0 4 2 4 4l0 54 54 0c2 0 4 2 4 4l0 24c0 2-2 4-4 4l-54 0z"/>
            <glyph glyph-name="file-done" unicode="&#57381;"
                   d="M344 356l0 24c0 2-2 4-4 4l-192 0c-2 0-4-2-4-4l0-24c0-2 2-4 4-4l192 0c2 0 4 2 4 4z m-196-44c-2 0-4-2-4-4l0-24c0-2 2-4 4-4l92 0c2 0 4 2 4 4l0 24c0 2-2 4-4 4z m188-58c-60 0-108-48-108-108 0-60 48-108 108-108 60 0 108 48 108 108 0 60-48 108-108 108z m54-162c-15-14-34-22-54-22-20 0-39 8-54 22-14 15-22 34-22 54 0 20 8 39 22 54 15 14 34 22 54 22 20 0 39-8 54-22 14-15 22-34 22-54 0-20-8-39-22-54z m-9 92l-23 0c-1 0-2-1-3-2l-32-44-11 16c-1 1-2 2-3 2l-22 0c-4 0-6-4-4-6l37-51c2-3 5-3 7 0l57 79c2 2 0 6-3 6z m-161-98l-116 0 0 352 280 0 0-172c0-2 2-4 4-4l28 0c2 0 4 2 4 4l0 192c0 9-7 16-16 16l-320 0c-9 0-16-7-16-16l0-392c0-9 7-16 16-16l136 0c2 0 4 2 4 4l0 28c0 2-2 4-4 4z"/>
            <glyph glyph-name="file-excel" unicode="&#57382;"
                   d="M427 368l-107 107c-3 3-7 5-12 5l-212 0c-9 0-16-7-16-16l0-416c0-9 7-16 16-16l320 0c9 0 16 7 16 16l0 308c0 5-2 9-5 12z m-32-19l-94 0 0 94z m1-281l-280 0 0 376 151 0 0-108c0-12 9-21 21-21l108 0z m-139 154l-31 51c-1 2-3 3-5 3l-19 0c-1 0-2-3-3-1-3-2-4-5-2-8l41-65-42-67c-1-2-1-4 0-6 1-2 3-3 5-3l18 0c2 0 4 1 5 3l31 51 31-51c1-2 3-3 5-3l19 0c1 0 2 0 3 1 3 2 4 5 2 8l-42 65 43 67c1 2 1 4 0 6-1 2-3 3-5 3l-18 0c-2 0-4-1-5-3z"/>
            <glyph glyph-name="file-exclamation" unicode="&#57383;"
                   d="M427 368l-107 107c-3 3-7 5-12 5l-212 0c-9 0-16-7-16-16l0-416c0-9 7-16 16-16l320 0c9 0 16 7 16 16l0 308c0 5-2 9-5 12z m-32-19l-94 0 0 94z m1-281l-280 0 0 376 151 0 0-108c0-12 9-21 21-21l108 0z m-160 72c0-11 9-20 20-20 11 0 20 9 20 20 0 11-9 20-20 20-11 0-20-9-20-20z m8 52l24 0c2 0 4 2 4 4l0 92c0 2-2 4-4 4l-24 0c-2 0-4-2-4-4l0-92c0-2 2-4 4-4z"/>
            <glyph glyph-name="file-image" unicode="&#57384;"
                   d="M277 257l-39-49-21 26c-1 1-2 2-3 2-1 0-2-1-3-2l-50-64c-1-1-1-2-1-4 1-1 3-2 4-2l184 0c3 0 5 4 3 6l-68 87c-1 1-2 2-3 2-2 0-3-1-3-2z m-97 34c0-11 9-20 20-20 11 0 20 9 20 20 0 11-9 20-20 20-11 0-20-9-20-20z m247 77l-107 107c-3 3-7 5-12 5l-212 0c-9 0-16-7-16-16l0-416c0-9 7-16 16-16l320 0c9 0 16 7 16 16l0 308c0 5-2 9-5 12z m-32-19l-94 0 0 94z m1-281l-280 0 0 376 151 0 0-108c0-12 9-21 21-21l108 0z"/>
            <glyph glyph-name="file-jpg" unicode="&#57385;"
                   d="M437 361l-139 140c-2 3-4 4-7 6-1 0-1 1-2 1-1 0-1 1-1 1-5 2-10 3-15 3l-172 0c-20 0-37-16-37-36l0-440c0-20 17-36 37-36l311 0c20 0 36 16 36 36l0 300c0 9-4 18-11 25z m-145 96l100-101-100 0z m120-421l-312 0 0 440 156 0 0-120c0-20 16-36 36-36l120 0z m-237 128c0-12-4-16-11-16-4 0-9 3-12 9l-16-11c7-11 17-17 31-17 21 0 31 15 31 33l0 61-23 0z m76 59l-32 0 0-93 22 0 0 31 10 0c20 0 37 10 37 32 0 23-17 30-37 30z m-1-44l-9 0 0 26 9 0c10 0 16-3 16-12 0-9-5-14-16-14z m92 4l0-18 15 0 0-15c-2-1-6-2-9-2-17 0-26 11-26 29 0 18 10 29 24 29 8 0 12-3 17-7l12 14c-7 6-16 12-30 12-25 0-45-18-45-49 0-31 20-47 45-47 13 0 25 5 31 11l0 43z"/>
            <glyph glyph-name="file-markdown" unicode="&#57386;"
                   d="M427 368l-107 107c-3 3-7 5-12 5l-212 0c-9 0-16-7-16-16l0-416c0-9 7-16 16-16l320 0c9 0 16 7 16 16l0 308c0 5-2 9-5 12z m-32-19l-94 0 0 94z m1-281l-280 0 0 376 151 0 0-108c0-12 9-21 21-21l108 0z m-181 203c-1 3-4 4-6 4l-17 0c-4 0-6-3-6-6l0-136c0-3 2-6 6-6l13 0c3 0 6 3 6 6l0 88 33-75c1-2 4-4 6-4l12 0c2 0 5 2 6 4l33 75 0-88c0-3 3-6 6-6l14 0c3 0 6 3 6 6l0 136c0 3-3 6-6 6l-18 0c-2 0-4-1-5-4l-42-95z"/>
            <glyph glyph-name="file-pdf" unicode="&#57387;"
                   d="M266 225l0 0c3 12 6 27 4 41-2 10-10 15-17 15-8 0-15-4-17-11-3-12 0-28 5-49-6-16-17-40-25-54-15-7-35-19-38-34 0-3 1-6 2-10 2-3 5-6 8-7 2-1 4-1 6-1 8 0 23 7 42 40 3 1 6 2 8 3 14 4 28 9 41 11 14-7 30-12 41-12 11 0 15 6 17 10 2 7 1 15-3 20-7 6-23 8-48 5-12 7-20 18-26 33z m-55-76c-7-10-12-15-15-18 3 7 10 13 15 18z m44 118c2-5 2-18 2-25-2 10-3 24-1 26 4-1 3-2 1-2z m-1-61c5-9 12-17 19-23-10-2-20-6-29-10-2-1-4-2-6-2 6 12 12 25 16 35z m78-32c0-2 2 0 4 0l0 0 0-2c0-2-5-2-22 5 20 1 22-4 22-4z m95 194l-107 107c-3 3-7 5-12 5l-212 0c-9 0-16-7-16-16l0-416c0-9 7-16 16-16l320 0c9 0 16 7 16 16l0 308c0 5-2 9-5 12z m-32-19l-94 0 0 94z m1-281l-280 0 0 376 151 0 0-108c0-12 9-21 21-21l108 0z"/>
            <glyph glyph-name="file-ppt" unicode="&#57388;"
                   d="M212 274c-2 0-4-2-4-4l0-138c0-2 2-4 4-4l16 0c2 0 4 2 4 4l0 48 32 0c30 0 48 19 48 47 0 27-18 47-48 47l-52 0z m75-47c0-22-13-27-35-27l-20 0 0 54 28 0c17 0 27-10 27-27z m140 141l-107 107c-3 3-7 5-12 5l-212 0c-9 0-16-7-16-16l0-416c0-9 7-16 16-16l320 0c9 0 16 7 16 16l0 308c0 5-2 9-5 12z m-32-19l-94 0 0 94z m1-281l-280 0 0 376 151 0 0-108c0-12 9-21 21-21l108 0z"/>
            <glyph glyph-name="file-protect" unicode="&#57389;"
                   d="M322 177c0 1-2 2-3 2l-22 0c-3 0-5-4-3-6l37-51c1-3 5-3 6 0l57 79c2 2 0 6-3 6l-22 0c-1 0-3-1-3-2l-32-44z m22 182l0 24c0 2-2 4-4 4l-192 0c-2 0-4-2-4-4l0-24c0-2 2-4 4-4l192 0c2 0 4 2 4 4z m-196-44c-2 0-4-2-4-4l0-24c0-2 2-4 4-4l92 0c2 0 4 2 4 4l0 24c0 2-2 4-4 4z m92-229l-136 0 0 352 280 0 0-148c0-2 2-4 4-4l28 0c2 0 4 2 4 4l0 168c0 9-7 16-16 16l-320 0c-9 0-16-7-16-16l0-392c0-9 7-16 16-16l156 0c2 0 4 2 4 4l0 28c0 2-2 4-4 4z m201 160l-96 34c0 0-1 0-1 0 0 0-1-1-1-2l-96-33c-2-1-3-2-3-4l0-126c0-1 1-2 2-3l96-75c0-1 1-1 2-1 1 0 2 0 2 1l96 75c1 1 2 2 2 3l0 128c0 1-1 3-3 3z m-28-116l-69-54-69 54 0 93 69 24 69-24z"/>
            <glyph glyph-name="file-search" unicode="&#57390;"
                   d="M344 356l0 24c0 2-2 4-4 4l-192 0c-2 0-4-2-4-4l0-24c0-2 2-4 4-4l192 0c2 0 4 2 4 4z m-196-44c-2 0-4-2-4-4l0-24c0-2 2-4 4-4l92 0c2 0 4 2 4 4l0 24c0 2-2 4-4 4z m72-226l-116 0 0 352 280 0 0-172c0-2 2-4 4-4l28 0c2 0 4 2 4 4l0 192c0 9-7 16-16 16l-320 0c-9 0-16-7-16-16l0-392c0-9 7-16 16-16l136 0c2 0 4 2 4 4l0 28c0 2-2 4-4 4z m223-26l-47 47c11 15 18 33 18 53 0 49-39 88-88 88-49 0-88-39-88-88 0-49 39-88 88-88 18 0 35 5 48 14l48-47c1-1 2-1 3-1 1 0 2 0 2 1l16 16c1 0 1 1 1 2 0 1 0 3-1 3z m-117 44c-31 0-56 25-56 56 0 31 25 56 56 56 31 0 56-25 56-56 0-31-25-56-56-56z"/>
            <glyph glyph-name="file-sync" unicode="&#57391;"
                   d="M148 384c-2 0-4-2-4-4l0-24c0-2 2-4 4-4l192 0c2 0 4 2 4 4l0 24c0 2-2 4-4 4z m96-100l0 24c0 2-2 4-4 4l-92 0c-2 0-4-2-4-4l0-24c0-2 2-4 4-4l92 0c2 0 4 2 4 4z m-24-198l-116 0 0 352 280 0 0-172c0-2 2-4 4-4l28 0c2 0 4 2 4 4l0 192c0 9-7 16-16 16l-320 0c-9 0-16-7-16-16l0-392c0-9 7-16 16-16l136 0c2 0 4 2 4 4l0 28c0 2-2 4-4 4z m52 58c1 17 8 33 20 45 14 14 31 21 50 21 19 0 36-7 50-21 1-1 3-3 4-5l-11-9c-2 0-2-2-2-3 0-2 2-3 3-4l47-11c2 0 5 1 5 4l-1 48c0 1 0 3-2 3-1 1-3 1-4 0l-10-8c-18 23-47 38-79 38-55 0-100-43-102-98 0-2 2-4 4-4l24 0c2 0 4 2 4 4z m168-4l-24 0c-2 0-4-2-4-4-1-17-8-33-20-46-14-13-31-20-50-20-19 0-36 7-50 20-1 2-3 4-4 6l11 8c2 1 2 3 2 4 0 2-2 3-3 4l-47 11c-2 0-5-2-5-4l0-48c0-1 1-3 2-3 2-1 3-1 4 0l11 8c18-23 47-38 79-38 55 0 100 43 102 98 1 2-2 4-4 4z"/>
            <glyph glyph-name="file-text" unicode="&#57392;"
                   d="M427 368l-107 107c-3 3-7 5-12 5l-212 0c-9 0-16-7-16-16l0-416c0-9 7-16 16-16l320 0c9 0 16 7 16 16l0 308c0 5-2 9-5 12z m-32-19l-94 0 0 94z m1-281l-280 0 0 376 151 0 0-108c0-12 9-21 21-21l108 0z m-144 135l-92 0c-2 0-4-2-4-4l0-24c0-2 2-4 4-4l92 0c2 0 4 2 4 4l0 24c0 2-2 4-4 4z m-96 64l0-24c0-2 2-4 4-4l192 0c2 0 4 2 4 4l0 24c0 2-2 4-4 4l-192 0c-2 0-4-2-4-4z"/>
            <glyph glyph-name="file-unknown" unicode="&#57393;"
                   d="M427 368l-107 107c-3 3-7 5-12 5l-212 0c-9 0-16-7-16-16l0-416c0-9 7-16 16-16l320 0c9 0 16 7 16 16l0 308c0 5-2 9-5 12z m-32-19l-94 0 0 94z m1-281l-280 0 0 376 151 0 0-108c0-12 9-21 21-21l108 0z m-195 169c0-2 2-4 5-4l16 0c3 0 5 2 5 4 0 15 13 26 29 26 16 0 29-11 29-26 0-12-10-23-25-25-9-1-17-10-17-20l0-16c0-3 2-5 5-5l16 0c3 0 5 2 5 5l0 6c0 3 2 6 5 7 22 7 37 27 37 49 0 28-25 51-54 51-31 0-56-23-56-52z m39-97c0-9 7-16 16-16 9 0 16 7 16 16 0 9-7 16-16 16-9 0-16-7-16-16z"/>
            <glyph glyph-name="file-word" unicode="&#57394;"
                   d="M427 368l-107 107c-3 3-7 5-12 5l-212 0c-9 0-16-7-16-16l0-416c0-9 7-16 16-16l320 0c9 0 16 7 16 16l0 308c0 5-2 9-5 12z m-32-19l-94 0 0 94z m1-281l-280 0 0 376 151 0 0-108c0-12 9-21 21-21l108 0z m-132 208l-16 0c-3 0-5-2-6-5l-25-99-23 99c0 3-3 5-6 5l-17 0c-2 0-4-1-5-2-1-2-2-4-1-6l37-138c1-2 3-4 6-4l16 0c3 0 5 2 6 4l26 99 26-99c1-2 4-4 6-4l16 0c3 0 5 2 6 4l37 138c1 2 0 4-1 6-1 1-3 2-5 2l-17 0c-3 0-6-2-6-5l-23-99-25 99c-1 3-3 5-6 5z"/>
            <glyph glyph-name="file-zip" unicode="&#57395;"
                   d="M148 316l32 0 0-32-32 0z m0-95l0-80 64 0 0 80-32 0 0 31-32 0z m40-24l0-32-16 0 0 32z m-8 151l32 0 0-32-32 0z m-32 32l32 0 0-32-32 0z m32-96l32 0 0-32-32 0z m0 128l32 0 0-32-32 0z m247-44l-107 107c-3 3-7 5-12 5l-212 0c-9 0-16-7-16-16l0-416c0-9 7-16 16-16l320 0c9 0 16 7 16 16l0 308c0 5-2 9-5 12z m-32-19l-94 0 0 94z m1-281l-280 0 0 376 32 0 0-32 32 0 0 32 87 0 0-108c0-12 9-21 21-21l108 0z"/>
            <glyph glyph-name="filter" unicode="&#57396;"
                   d="M440 435l-368 0c-12 0-20-13-14-24l117-198 0-120c0-9 7-16 15-16l132 0c8 0 16 7 16 16l0 120 116 198c6 11-2 24-14 24z m-138-322l-92 0 0 78 92 0 0-78z m5 118l-5-8-92 0-4 8-100 168 300 0z"/>
            <glyph glyph-name="fire" unicode="&#57397;"
                   d="M417 277c-10 22-24 42-41 58l-15 13c-1 1-2 2-4 1-1 0-2-1-2-2l-7-19c-4-12-11-24-22-35-1-1-1-1-2-1-1-1-1 0-2 0-1 1-1 2-1 3 2 30-7 64-27 101-16 30-39 54-67 71l-21 12c-3 2-6 0-6-3l1-24c1-17-1-31-5-43-6-15-14-29-24-41-7-9-15-16-24-23-21-16-38-37-50-61-12-24-18-50-18-77 0-24 5-46 14-68 9-21 22-40 38-55 16-16 35-29 56-38 21-9 44-14 68-14 24 0 47 5 68 14 21 9 40 22 56 37 17 16 29 35 38 56 9 21 14 45 14 68 0 24-5 48-15 70z m-60-169c-27-27-63-41-101-41-38 0-74 14-100 41-27 26-42 61-42 99 0 22 5 43 15 62 9 19 23 36 40 49 11 8 21 18 29 28 13 16 23 33 29 51 3 7 5 15 6 23 12-11 23-24 31-40 17-31 24-59 23-83-1-11 4-22 12-30 7-6 17-10 27-9 10 0 19 5 25 12 7 7 13 15 18 23 7-9 12-19 17-30 8-17 12-36 12-56 0-38-15-73-41-99z"/>
            <glyph glyph-name="flag" unicode="&#57398;"
                   d="M440 359l-128 0 0 57c0 9-7 16-16 16l-204 0 0 20c0 2-2 4-4 4l-28 0c-2 0-4-2-4-4l0-392c0-2 2-4 4-4l28 0c2 0 4 2 4 4l0 132 124 0 0-57c0-8 7-16 16-16l208 0c9 0 16 8 16 16l0 208c0 9-7 16-16 16z m-348-131l0 168 184 0 0-168z m328-73l-168 0 0 37 56 0c2 0 4 2 4 4l0 127 108 0z"/>
            <glyph glyph-name="folder" unicode="&#57399;"
                   d="M440 363l-179 0-59 56c-1 1-2 1-3 1l-127 0c-9 0-16-7-16-16l0-296c0-9 7-16 16-16l368 0c9 0 16 7 16 16l0 239c0 9-7 16-16 16z m-20-235l-328 0 0 256 94 0 60-57 174 0z"/>
            <glyph glyph-name="folder-add" unicode="&#57400;"
                   d="M242 290l0-42-42 0c-2 0-4-2-4-4l0-21c0-1 2-3 4-3l42 0 0-42c0-2 2-4 4-4l21 0c1 0 3 2 3 4l0 42 42 0c2 0 4 2 4 3l0 21c0 2-2 4-4 4l-42 0 0 42c0 2-2 4-3 4l-21 0c-2 0-4-2-4-4z m198 73l-179 0-59 56c-1 1-2 1-3 1l-127 0c-9 0-16-7-16-16l0-296c0-9 7-16 16-16l368 0c9 0 16 7 16 16l0 239c0 9-7 16-16 16z m-20-235l-328 0 0 256 94 0 60-57 174 0z"/>
            <glyph glyph-name="folder-open" unicode="&#57401;"
                   d="M464 290l-54 0 0 57c0 9-7 16-16 16l-157 0-59 56c-1 1-2 1-3 1l-127 0c-9 0-16-7-16-16l0-296c0-9 7-16 16-16l349 0c7 0 12 4 15 10l67 166c1 2 1 4 1 6 0 9-7 16-16 16z m-396 94l94 0 60-57 152 0 0-37-255 0c-6 0-12-4-15-10l-36-90z m318-256l-306 0 51 128 306 0z"/>
            <glyph glyph-name="font-colors" unicode="&#57402;"
                   d="M452 104l-392 0c-2 0-4-2-4-4l0-40c0-2 2-4 4-4l392 0c2 0 4 2 4 4l0 40c0 2-2 4-4 4z m-325 40l42 0c2 0 4 1 5 3l27 83 109 0 27-83c1-2 3-3 5-3l44 0c1 0 1 0 2 0 1 1 2 2 3 3 0 1 0 2 0 3l-104 303c-1 2-3 3-5 3l-51 0c-2 0-4-1-5-3l-104-303c0 0 0-1 0-1 0-3 2-5 5-5z m128 258l2 0 42-132-87 0z"/>
            <glyph glyph-name="font-size" unicode="&#57403;"
                   d="M460 304l-152 0c-2 0-4-2-4-4l0-56c0-2 2-4 4-4l24 0c2 0 4 2 4 4l0 28 30 0 0-160-23 0c-2 0-4-2-4-4l0-24c0-2 2-4 4-4l82 0c2 0 4 2 4 4l0 24c0 2-2 4-4 4l-23 0 0 160 30 0 0-28c0-2 2-4 4-4l24 0c2 0 4 2 4 4l0 56c0 2-2 4-4 4z m-132 60l0 64c0 2-2 4-4 4l-272 0c-2 0-4-2-4-4l0-64c0-2 2-4 4-4l28 0c2 0 4 2 4 4l0 32 84 0 0-280-46 0c-2 0-4-2-4-4l0-28c0-2 2-4 4-4l132 0c2 0 4 2 4 4l0 28c0 2-2 4-4 4l-46 0 0 280 84 0 0-32c0-2 2-4 4-4l28 0c2 0 4 2 4 4z"/>
            <glyph glyph-name="fork" unicode="&#57404;"
                   d="M376 462c-31 0-56-25-56-56 0-24 15-44 36-52l0-14-100-129-100 129 0 14c21 8 36 28 36 52 0 31-25 56-56 56-31 0-56-25-56-56 0-25 17-47 40-54l0-17c0-5 2-10 5-13l113-146 0-17c-22-7-38-28-38-53 0-31 25-56 56-56 31 0 56 25 56 56 0 25-16 45-38 53l0 17 113 146c3 3 5 8 5 13l0 17c23 7 40 29 40 54 0 31-25 56-56 56z m-264-56c0 13 11 24 24 24 13 0 24-11 24-24 0-13-11-24-24-24-13 0-24 11-24 24z m168-300c0-13-11-24-24-24-13 0-24 11-24 24 0 13 11 24 24 24 13 0 24-11 24-24z m96 276c-13 0-24 11-24 24 0 13 11 24 24 24 13 0 24-11 24-24 0-13-11-24-24-24z"/>
            <glyph glyph-name="form" unicode="&#57405;"
                   d="M452 256l-28 0c-2 0-4-2-4-4l0-160-328 0 0 328 160 0c2 0 4 2 4 4l0 28c0 2-2 4-4 4l-180 0c-9 0-16-7-16-16l0-368c0-9 7-16 16-16l368 0c9 0 16 7 16 16l0 180c0 2-2 4-4 4z m-274-11l-1-60c0-4 4-8 8-8l0 0 59 1c1 0 2 1 3 2l208 207c1 2 1 4 0 6l-62 62c-1 1-2 1-3 1-1 0-2-4-3-1l-208-208c-1 0-1-1-1-2z m32-12l180 179 22-22-180-180-23 0 4 23z"/>
            <glyph glyph-name="forward" unicode="&#57406;"
                   d="M413 263l-144 124c-5 5-13 0-13-7l0-248c0-8 8-12 13-7l144 124c4 4 4 10 0 14z m-160 0l-144 124c-5 5-13 0-13-7l0-248c0-8 8-12 13-7l144 124c2 2 3 4 3 7 0 3-1 5-3 7z"/>
            <glyph glyph-name="frown" unicode="&#57407;"
                   d="M144 301c0-13 11-24 24-24 13 0 24 11 24 24 0 14-11 24-24 24-13 0-24-10-24-24z m176 0c0-13 11-24 24-24 13 0 24 11 24 24 0 14-11 24-24 24-13 0-24-10-24-24z m-64 179c-124 0-224-100-224-224 0-124 100-224 224-224 124 0 224 100 224 224 0 124-100 224-224 224z m132-356c-18-17-37-30-60-39-22-10-47-15-72-15-25 0-49 5-72 15-23 9-43 22-60 39-17 18-30 37-39 60-10 22-15 47-15 72 0 25 5 49 15 72 9 23 22 43 40 60 17 17 37 30 59 39 23 10 47 15 72 15 25 0 50-5 72-15 23-9 43-22 60-40 17-17 30-37 39-59 10-23 15-47 15-72 0-25-5-50-15-72-9-23-22-43-39-60z m-132 121c-43 0-78-33-80-75 0-1 0-2 1-3 1-1 2-2 3-2l24 0c2 0 4 2 4 4 2 25 23 44 48 44 25 0 46-19 48-44 0-2 2-4 4-4l24 0c1 0 2 1 3 2 1 1 1 2 1 3-2 42-37 75-80 75z"/>
            <glyph glyph-name="fullscreen" unicode="&#57408;"
                   d="M145 394l22 22c1 1 1 2 1 4-1 1-2 2-3 3l-80 9c-3 0-5-2-5-4l10-81c0-3 4-4 6-2l22 22 67-67c2-1 4-1 6 0l21 21c1 2 1 4 0 6z m176-94c2-1 4-1 6 0l67 67 22-22c1-1 2-1 4-1 1 1 2 2 3 3l9 80c0 3-2 5-4 5l-81-10c-3-4-4-4-2-6l22-22-67-67c-1-2-1-4 0-6z m102-135c-1 3-5 4-7 2l-22-22-67 67c-2 1-4 1-6 0l-21-21c-1-2-1-4 0-6l67-67-22-22c-1-1-1-2-1-4 1-1 2-2 3-3l81-9c2-3 4 2 4 4z m-232 47c-2 1-4 1-6 0l-67-67-22 22c-1 1-2 1-4 1-1-1-2-2-2-3l-10-81c0-2 2-4 5-4l80 9c3 1 4 5 2 7l-22 22 67 67c1 2 1 4 0 6z"/>
            <glyph glyph-name="fullscreen-exit" unicode="&#57409;"
                   d="M196 392c-1 3-5 4-7 2l-22-22-67 67c-2 1-4 1-6 0l-21-21c-1-2-1-4 0-6l67-67-22-22c-1-1-1-2-1-4 1-1 2-2 3-3l81-9c2-3 4 2 4 4z m5-187l-81-10c-3-4-4-4-2-6l22-22-67-67c-1-2-1-4 0-6l21-21c2-1 4-1 6 0l67 67 22-22c1-1 2-1 4-1 1 1 2 2 3 3l9 81c0 2-2 4-4 4z m110 102l81 9c3 1 4 5 2 7l-22 22 67 67c1 2 1 4 0 6l-21 21c-2 1-4 1-6 0l-67-67-22 22c-1 1-2 1-4 1-1-1-2-2-2-3l-10-81c0-2 2-4 4-4z m61-140l22 22c1 1 1 2 1 4-1 1-2 2-3 3l-80 9c-3 0-5-2-5-4l10-81c0-3 4-4 6-2l22 22 67-67c2-1 4-1 6 0l21 21c1 2 1 4 0 6z"/>
            <glyph glyph-name="fund" unicode="&#57410;"
                   d="M463 430l-416 0c-9 0-16-7-16-16l0-320c0-9 7-16 16-16l416 0c9 0 16 7 16 16l0 320c0 9-7 16-16 16z m-20-316l-376 0 0 280 376 0z m-329 41c1-1 4-1 5 0l86 86 58-57c1-1 4-1 5 0l149 149c1 1 1 4 0 5l-19 19c-1 1-4 1-5 0l-127-128-58 58c-1 1-4 1-5 0l-108-108c-1-1-1-4 0-5z"/>
            <glyph glyph-name="funnel-plot" unicode="&#57411;"
                   d="M440 435l-368 0c-12 0-20-13-14-24l117-203 0-115c0-9 7-16 15-16l132 0c8 0 16 7 16 16l0 115 116 203c6 11-2 24-14 24z m-138-322l-92 0 0 74 92 0 0-74z m5 113l-5-7-92 0-5 7-38 67 178 0z m56 99l-214 0-43 74 300 0z"/>
            <glyph glyph-name="gateway" unicode="&#57412;"
                   d="M464 316c4 0 8 4 8 8l0 92c0 4-4 8-8 8l-92 0c-4 0-8-4-8-8l0-28-216 0 0 28c0 4-4 8-8 8l-92 0c-4 0-8-4-8-8l0-92c0-4 4-8 8-8l28 0 0-120-28 0c-4 0-8-4-8-8l0-92c0-4 4-8 8-8l92 0c4 0 8 4 8 8l0 28 216 0 0-28c0-4 4-8 8-8l92 0c4 0 8 4 8 8l0 92c0 4-4 8-8 8l-28 0 0 120z m-68 76l44 0 0-44-44 0z m-324-44l0 44 44 0 0-44z m44-228l-44 0 0 44 44 0z m324 44l0-44-44 0 0 44z m-40 32l-28 0c-4 0-8-4-8-8l0-28-216 0 0 28c0 4-4 8-8 8l-28 0 0 120 28 0c4 0 8 4 8 8l0 28 216 0 0-28c0-4 4-8 8-8l28 0z"/>
            <glyph glyph-name="gift" unicode="&#57413;"
                   d="M440 357l-74 0c7 11 11 23 11 37 0 38-31 69-69 69-21 0-39-9-52-24-13 15-31 24-52 24-38 0-69-31-69-69 0-14 4-26 11-37l-74 0c-9 0-16-7-16-16l0-100c0-2 2-4 4-4l20 0 0-172c0-9 7-16 16-16l320 0c9 0 16 7 16 16l0 172 20 0c2 0 4 2 4 4l0 100c0 9-7 16-16 16z m-167 37c0 19 16 35 35 35 19 0 35-16 35-35 0-19-16-35-35-35l-35 0z m-69 35c19 0 35-16 35-35l0-35-35 0c-19 0-35 16-35 35 0 19 16 35 35 35z m-114-158l0 52 149 0 0-52z m24-34l125 0 0-154-125 0z m284-154l-125 0 0 154 125 0z m24 188l-149 0 0 52 149 0z"/>
            <glyph glyph-name="github" unicode="&#57414;"
                   d="M256 474c-124 0-224-100-224-224 0-97 63-181 150-211 12-3 10 5 10 11l0 39c-68-8-71 37-75 44-9 16-31 20-25 27 16 8 31-2 50-28 13-20 39-17 52-13 3 11 9 22 17 30-70 13-100 55-100 106 0 25 9 48 25 66-11 31 1 56 2 60 29 3 59-21 62-22 16 4 35 6 56 6 21 0 40-2 57-7 6 5 34 25 61 22 1-3 12-29 2-59 16-18 25-41 25-66 0-51-30-94-100-106 12-12 19-29 19-46l0-56c0-4 0-9 7-9 89 30 153 114 153 212 0 124-101 224-224 224z"/>
            <glyph glyph-name="gitlab" unicode="&#57415;"
                   d="M457 236l-54 185 0 0c-4 12-13 19-25 19-11 0-21-7-24-18l-36-107-124 0-35 107c-4 11-13 18-25 18-12 0-21-8-24-19l-55-185c-2-7 1-16 7-20l184-139c2-1 3-3 5-4l5-3 4 3c2 1 5 3 6 5l184 138c6 4 9 13 7 20z m-81 179c0 1 1 1 2 1 0 0 1-1 1-1l30-100-67 0z m-244 0c1 1 1 1 2 1 1 0 1 0 2-1l33-100-66 0z m-53-182l15 48 101-135z m37 58l61 0 46-142z m140-167l-53 167 107 0z m79 167l60 0-105-141z m-20-147l104 138 14-49z"/>
            <glyph glyph-name="global" unicode="&#57416;"
                   d="M427 112c0 0 3 0 4 0 29 39 49 89 49 144 0 55-20 105-52 144 0 0-1 0-1 0 0 1-1 2-1 2-1 0-1 1-1 1l-2 2 0 0c-1 1-2 2-2 3l0 0c-2 2-4 3-5 5l-3 3c-1 0-1 1-2 2 0 0-1 0-1 0 0 1-1 1-1 2-1 0-1 0-1 0-40 37-93 60-152 60-59 0-112-23-152-60 0-1 0-3-1 0 0 0-1-1-1-2 0-2-1 0-1 0-1-1-1-2-2-2l0-2-3-2 0-1c-1-2-3-3-5-5l0 0c0-1-1-2-2-3l0 0c-1-1-1-2-2-3 0-2 0-4-1-1 0 0-1-1-1-1 0-2-1-3-1-4-32-33-52-83-52-138 0-55 20-105 52-144 1-2 4-5 4-5l1-1c1-3 5-1 1-1l2-2c0 0 1-1 1-1 1-2 2-3 2-3l0 0c2-2 3-4 5-5l0-1c1-1 2-1 2-2l1-2c1-1 3-3 5-4 40-37 93-60 152-60 59 0 112 23 152 60 2 1 3 3 5 4l0 1c1 0 1 1 2 2l0 0c2 2 3 3 5 5l0 0c1 1 1 2 2 3 0 0 1 0 1 0 0 0 1 1 2 2 2 0 4 0 0 1 1 0 1 1 2 2z m2 71c-7-16-16-32-27-45-12 11-26 20-41 28 6 23 10 49 11 76l72 0c-2-20-7-40-15-59z m15 87l-72 0c-1 27-5 53-11 76 15 8 29 17 41 28 24-29 39-66 42-104z m-115 159c20-8 38-20 54-34-9-8-19-15-30-21-8 22-18 42-29 57 2 0 3-1 5-2z m-45-350c-5-4-9-6-14-8l0 92c20-1 39-5 58-13-4-12-9-23-15-34-8-16-19-29-29-37z m29 316c6-10 11-21 15-33-19-8-38-12-58-14l0 93c5-2 9-4 14-8 10-8 21-21 29-38z m-43-203l0 50 74 0c-1-22-4-44-8-64l-1-1c-21 8-43 13-65 15z m0 78l0 50c23 2 45 7 65 14l0 0c5-20 8-42 8-64z m-28-28l0-50c-23-2-45-7-65-15l-1 1c-4 20-7 42-8 64z m-74 28c1 22 4 44 8 64l0 0c21-7 43-12 66-14l0-50z m74-107l0-92c-5 2-9 4-14 8-10 8-21 21-29 38-6 10-11 21-15 33 19 8 38 12 58 13z m0 185c-20 2-39 6-58 14 4 12 9 23 15 33 8 17 19 30 29 38 5 4 9 6 14 8l0-93z m-59 81c2 1 4 2 5 2-11-15-21-35-29-57-11 6-21 13-30 21 16 14 34 26 54 34z m-100-100c7 16 16 32 27 45 12-11 26-20 41-28-6-23-10-49-11-76l-71 0c1 20 6 40 14 59z m-14-87l71 0c1-27 5-53 11-76-15-8-29-17-41-28-24 29-39 66-41 104z m114-159c-20 8-38 20-54 34 9 8 19 15 30 21 8-22 18-42 29-57-1 0-3 1-5 2z m146 0c-2-1-3-2-5-2 11 15 21 35 29 57 11-6 21-13 30-21-16-14-34-26-54-34z"/>
            <glyph glyph-name="gold" unicode="&#57417;"
                   d="M171 276l171 0c0 0 0 0 1 0 2 0 3 2 3 5l-20 124c0 2-2 3-4 3l-131 0c-2 0-4-1-4-3l-20-124c0-2 0-5 0-1 0-2 2-4 4-4z m46 98l79 0 11-64-101 0z m1-141c0 2-2 3-4 3l-131 0c-2 0-4-1-4-3l-20-124c0-2 0-5 0-1 0-2 2-4 4-4l171 0c0 0 0 0 1 0 2 0 3 2 3 5z m-120-95l11 64 79 0 11-64z m355-29l-20 124c0 2-2 3-4 3l-131 0c-2 0-4-1-4-3l-20-124c0-2 0-5 0-1 0-2 2-4 4-4l171 0c0 0 0 0 1 0 2 0 3 2 3 5z m-140 29l11 64 79 0 11-64z"/>
            <glyph glyph-name="google" unicode="&#57418;"
                   d="M441 291l-181 0 0-74 103 0c-4-24-18-45-38-58-17-12-39-19-65-19-50 0-92 34-107 79-4 12-6 24-6 37 0 13 2 25 6 36 15 46 57 79 107 79 28 0 53-9 73-28l55 55c-33 31-76 50-128 50-75 0-140-43-171-106-13-26-21-55-21-86 0-31 8-60 21-86 31-63 96-106 171-106 52 0 95 17 127 46 36 34 57 83 57 142 0 13-1 26-3 39z"/>
            <glyph glyph-name="google-plus" unicode="&#57419;"
                   d="M440 277c0 13 0 27 0 40l-41 0c0-13 0-27 0-40-14-1-27-2-41-3l0-41c14 0 27-2 41-4 13 0 27-2 40-2l41 0c0 13 0 27 2 40 14 0 27 1 41 1l0 40c-14 0-27 0-41 0z m-265 0c0-16 0-32 0-49 27 0 55 0 82 0-12-61-94-80-137-41-45 35-43 110 4 142 32 26 78 20 110-3 13 12 25 25 36 38-27 21-60 36-95 35-73 2-140-62-142-135-4-60 35-119 91-140 55-22 126-7 162 43 23 31 28 72 25 110-45 0-90 0-136 0z"/>
            <glyph glyph-name="hdd" unicode="&#57420;"
                   d="M416 480l-320 0c-9 0-16-7-16-16l0-416c0-9 7-16 16-16l320 0c9 0 16 7 16 16l0 416c0 9-7 16-16 16z m-300-36l280 0 0-104-280 0z m280-240l-280 0 0 104 280 0z m0-136l-280 0 0 104 280 0z m-148 340l-92 0c-2 0-4-2-4-4l0-24c0-2 2-4 4-4l92 0c2 0 4 2 4 4l0 24c0 2-2 4-4 4z m-92-168l92 0c2 0 4 2 4 4l0 24c0 2-2 4-4 4l-92 0c-2 0-4-2-4-4l0-24c0-2 2-4 4-4z m164-122c0-11 9-20 20-20 11 0 20 9 20 20 0 11-9 20-20 20-11 0-20-9-20-20z"/>
            <glyph glyph-name="heart" unicode="&#57421;"
                   d="M462 370c-7 16-17 30-29 42-12 11-26 21-42 27-16 7-34 11-51 10-25 0-49-6-70-19-5-3-9-6-14-10-4 4-9 7-14 10-21 13-45 19-70 19-18 0-35-3-51-10-16-6-30-16-42-27-12-12-22-26-28-42-7-16-11-33-11-51 0-16 3-34 10-51 6-15 14-30 24-46 17-24 39-50 67-76 47-43 93-72 95-73l11-8c6-3 12-3 18 0l11 8c2 1 48 30 95 73 28 26 50 52 67 76 10 16 18 31 24 46 7 17 10 35 10 51 0 18-4 35-10 51z m-206-265c0 0-178 114-178 214 0 51 42 92 94 92 37 0 68-20 84-50 16 30 47 50 84 50 52 0 94-41 94-92 0-100-178-214-178-214z"/>
            <glyph glyph-name="heat-map" unicode="&#57422;"
                   d="M478 84l-208 360c-3 5-9 8-14 8-5 0-11-3-14-8l-208-360c-6-11 2-24 14-24l416 0c12 0 20 13 14 24z m-395 12l173 300 173-300-346 0z m159 237l-114-197c-6-11 2-24 14-24l228 0c12 0 20 13 14 24l-114 197c-3 5-9 8-14 8-5 0-11-3-14-8z m107-193l-186 0 93 161z m-107 97l-28-49c-6-11 1-24 14-24l57 0c12 0 19 13 13 24l-28 49c-3 5-9 8-14 8-5 0-11-3-14-8z m29-49l-30 0 15 25z"/>
            <glyph glyph-name="highlight" unicode="&#57423;"
                   d="M479 258l-177 175c-1 1-2 1-3 1-1 0-2 0-3-1l-119-118c-2-1-2-4 0-5l0-1 20-20-59-57c-2-2-2-4 0-6l0 0 20-20-95-93-27 0c-2 0-4-2-4-4l0-27c0-2 2-4 4-4l172 0c2 0 3 0 3 1l38 38 21-20c0-1 1-1 2-1 1 0 2 0 3 1l59 58 20-20c0-1 1-1 3-1 1 0 2 0 2 1l120 118c1 1 1 4 0 5z m-284-144l-80 0 67 66 40-39z m77 31l-85 84 34 34 86-84z m85 38l-132 129 74 73 131-130z"/>
            <glyph glyph-name="home" unicode="&#57424;"
                   d="M473 259l-193 194-13 13c-6 6-16 6-22 0l-206-207c-6-6-10-14-10-23 1-17 15-31 33-31l21 0 0-163 346 0 0 163 22 0c8 0 16 3 22 9 6 6 10 14 10 23 0 8-4 16-10 22z m-189-181l-56 0 0 102 56 0z m109 163l0-163-77 0 0 114c0 11-9 20-20 20l-80 0c-11 0-20-9-20-20l0-114-77 0 0 163-48 0 185 185 12-12 173-173z"/>
            <glyph glyph-name="hourglass" unicode="&#57425;"
                   d="M371 353l0 67 43 0c2 0 4 2 4 4l0 28c0 2-2 4-4 4l-316 0c-2 0-4-2-4-4l0-28c0-2 2-4 4-4l43 0 0-67c0-41 21-77 53-97-32-20-53-56-53-97l0-67-43 0c-2 0-4-2-4-4l0-28c0-2 2-4 4-4l316 0c2 0 4 2 4 4l0 28c0 2-2 4-4 4l-43 0 0 67c0 41-21 77-53 97 32 20 53 56 53 97z m-36-194l0-67-158 0 0 67c0 21 8 41 23 56 15 15 35 23 56 23 21 0 41-8 56-23 15-15 23-35 23-56z m0 194c0-21-8-41-23-56-15-15-35-23-56-23-21 0-41 8-56 23-15 15-23 35-23 56l0 67 158 0z"/>
            <glyph glyph-name="html5" unicode="&#57426;"
                   d="M73 464l33-373 150-43 150 43 33 373z m305-350l-122-35-123 35-28 320 302 0z m-237 273l0-12 12-126 103 0 0 0 56 0-5-60-51-13 0-1-1 0-51 14-3 37-46 0 6-72 94-26 1 0 0 0 94 26 1 8 10 121 2 12-107 0 0 0-61 0-4 47 176 0 1 10 2 23 1 12z"/>
            <glyph glyph-name="idcard" unicode="&#57427;"
                   d="M464 432l-416 0c-9 0-16-7-16-16l0-320c0-9 7-16 16-16l416 0c9 0 16 7 16 16l0 320c0 9-7 16-16 16z m-20-316l-376 0 0 280 376 0z m-139 158l62 0c1 0 1 2 1 4l0 24c0 2 0 4-1 4l-62 0c0 0-1-2-1-4l0-24c0-2 1-4 1-4z m3-72l92 0c2 0 4 2 4 4l0 24c0 2-2 4-4 4l-92 0c-2 0-4-2-4-4l0-24c0-2 2-4 4-4z m-196-27l22 0c2 0 4 2 4 4 2 25 23 45 49 45 25 0 46-20 48-45 0-2 2-4 4-4l22 0c1 0 2 1 3 2 1 1 1 2 1 3-1 26-16 50-37 63 9 10 14 24 14 37 0 31-25 56-55 56-31 0-56-25-56-56 0-14 5-27 14-37-22-14-36-37-37-63 0-3 2-5 4-5z m75 131c14 0 25-11 25-26 0-14-11-26-25-26-15 0-26 12-26 26 0 15 11 26 26 26z"/>
            <glyph glyph-name="ie" unicode="&#57428;"
                   d="M426 328c8 19 16 46 16 66 0 55-59 74-157 29-81 5-158-55-178-140 23 26 59 62 92 76-41-36-76-82-102-130-16-28-33-74-33-109 0-74 70-64 135-31 24-12 50-12 76-12 73 0 139 41 163 110l-91 0c-39-67-147-40-147 35l246 0c5 33-1 72-20 106z m-314-140c14-39 41-72 76-93-67-36-130-21-76 93z m87 81c2 42 38 72 78 72 40 0 77-30 78-72z m139 141c16 8 36 17 54 17 24 0 41-17 41-41 0-15-6-36-11-51-20 32-49 62-84 75z"/>
            </font>
</defs>
</svg>
