<?xml version="1.0" standalone="no"?>
<!DOCTYPE svg PUBLIC "-//W3C//DTD SVG 1.1//EN" "http://www.w3.org/Graphics/SVG/1.1/DTD/svg11.dtd" >
<svg xmlns="http://www.w3.org/2000/svg" xmlns:xlink="http://www.w3.org/1999/xlink" version="1.1">
<metadata>
Created by FontForge 20190801 at Mon Aug 27 12:33:26 2018
 By www-data
Copyright (c) 2018 by Swiss Typefaces. All rights reserved. |DCNT
</metadata>
<defs>
<font id="EuclidCircularABold" horiz-adv-x="0" >
  <font-face 
    font-family="EuclidCircularABold"
    font-weight="700"
    font-stretch="normal"
    units-per-em="1000"
    panose-1="2 11 8 4 0 0 0 0 0 0"
    ascent="732"
    descent="-268"
    x-height="500"
    cap-height="710"
    bbox="-374 -316 1368 1000"
    underline-thickness="100"
    underline-position="-384"
    unicode-range="U+0020-FEFF"
  />
<missing-glyph horiz-adv-x="634" 
d="M67 0v710h500v-710h-500zM306 355l-220 327v-654zM327 355l221 -327v654zM533 691h-432l216 -321zM317 339l-216 -320h432z" />
    <glyph glyph-name="_368" unicode="ff" horiz-adv-x="807" 
d="M118 0v369h-100v131h100v67q0 92 56.5 140.5t144.5 48.5q54 0 90 -11v-133q-8 8 -54 8t-66 -19.5t-20 -64.5v-36h106v-131h-106v-369h-151zM501 0v369h-79v131h79v67q0 92 56.5 140.5t144.5 48.5q54 0 90 -11v-133q-18 8 -55 8q-45 0 -65 -19.5t-20 -64.5v-36h140v-131
h-140v-369h-151z" />
    <glyph glyph-name="f_i" unicode="fi" horiz-adv-x="699" 
d="M118 0v369h-100v131h100v55q0 92 57.5 146.5t143.5 54.5q54 0 90 -11v-133q-21 9 -54 9q-46 0 -66 -20t-20 -65v-36h140v-131h-140v-369h-151zM561 568q-38 0 -66 27.5t-28 66.5t28 66.5t66 27.5q40 0 67.5 -27.5t27.5 -66.5t-27.5 -66.5t-67.5 -27.5zM486 0v500h151
v-500h-151z" />
    <glyph glyph-name="_372" unicode="ffi" horiz-adv-x="1082" 
d="M944 568q-38 0 -66 27.5t-28 66.5t28 66.5t66 27.5q40 0 67.5 -27.5t27.5 -66.5t-27.5 -66.5t-67.5 -27.5zM869 0v500h151v-500h-151zM118 0v369h-100v131h100v67q0 92 56.5 140.5t144.5 48.5q54 0 90 -11v-133q-8 8 -54 8t-66 -19.5t-20 -64.5v-36h106v-131h-106v-369
h-151zM501 0v369h-79v131h79v67q0 92 56.5 140.5t144.5 48.5q54 0 90 -11v-133q-18 8 -55 8q-45 0 -65 -19.5t-20 -64.5v-36h140v-131h-140v-369h-151z" />
    <glyph glyph-name="f_l" unicode="fl" horiz-adv-x="699" 
d="M118 0v369h-100v131h100v55q0 92 57.5 146.5t143.5 54.5q54 0 90 -11v-133q-21 9 -54 9q-46 0 -66 -20t-20 -65v-36h140v-131h-140v-369h-151zM486 0v750h151v-750h-151z" />
    <glyph glyph-name="_376" unicode="ffl" horiz-adv-x="1081" 
d="M869 0v750h151v-750h-151zM118 0v369h-100v131h100v67q0 92 56.5 140.5t144.5 48.5q54 0 90 -11v-133q-8 8 -54 8t-66 -19.5t-20 -64.5v-36h106v-131h-106v-369h-151zM501 0v369h-79v131h79v67q0 92 56.5 140.5t144.5 48.5q54 0 90 -11v-133q-18 8 -55 8q-45 0 -65 -19.5
t-20 -64.5v-36h140v-131h-140v-369h-151z" />
    <glyph glyph-name="f_t" unicode="ft" horiz-adv-x="835" 
d="M118 0v369h-100v131h100v67q0 92 56.5 140.5t144.5 48.5q54 0 90 -11v-133q-18 8 -54 8q-46 0 -66 -19.5t-20 -64.5v-36h118v-131h-118v-369h-151zM712 -6q-88 0 -144.5 48.5t-56.5 140.5v186h-77v131h77v139h151v-139h140v-131h-140v-155q0 -45 20 -64.5t65 -19.5
q37 0 55 8v-134q-33 -10 -90 -10z" />
    <glyph glyph-name="t_t" unicode="tt" horiz-adv-x="823" 
d="M700 -6q-88 0 -144.5 48.5t-56.5 140.5v186h-79v131h79v139h151v-139h140v-131h-140v-155q0 -45 20 -64.5t65 -19.5q37 0 55 8v-134q-33 -10 -90 -10zM317 -6q-88 0 -144.5 48.5t-56.5 140.5v186h-100v131h100v139h151v-139h106v-131h-106v-155q0 -45 20 -64.5t66 -19.5
q36 0 54 8v-134q-33 -10 -90 -10z" />
    <glyph glyph-name="uni0407_uni0407" unicode="&#x407;&#x407;" horiz-adv-x="618" 
d="M75 0v710h159v-710h-159zM384 0v710h159v-710h-159zM28 768q-33 0 -57 24t-24 56q0 34 23.5 57.5t57.5 23.5q33 0 56.5 -23.5t23.5 -57.5q0 -32 -23.5 -56t-56.5 -24zM301 768q-33 0 -57 24t-24 56q0 34 23.5 57.5t57.5 23.5q33 0 56.5 -23.5t23.5 -57.5q0 -32 -23.5 -56
t-56.5 -24zM575 768q-33 0 -57 24t-24 56q0 34 23.5 57.5t57.5 23.5q33 0 56.5 -23.5t23.5 -57.5q0 -32 -23.5 -56t-56.5 -24z" />
    <glyph glyph-name="uni0457_uni0457" unicode="&#x457;&#x457;" horiz-adv-x="550" 
d="M213 0h-151v500h151v-500zM488 0h-151v500h151v-500zM44 572q-33 0 -56.5 23.5t-23.5 55.5q0 33 23.5 56.5t56.5 23.5q32 0 55.5 -23.5t23.5 -56.5q0 -32 -23.5 -55.5t-55.5 -23.5zM274 572q-32 0 -55.5 23.5t-23.5 55.5q0 33 23.5 56.5t55.5 23.5q33 0 56.5 -23.5
t23.5 -56.5q0 -32 -23.5 -55.5t-56.5 -23.5zM507 572q-33 0 -56.5 23.5t-23.5 55.5q0 33 23.5 56.5t56.5 23.5q32 0 55.5 -23.5t23.5 -56.5q0 -32 -23.5 -55.5t-55.5 -23.5z" />
    <glyph glyph-name="uni0457_uni0458" unicode="&#x457;&#x458;" horiz-adv-x="550" 
d="M213 0h-151v500h151v-500zM44 572q-33 0 -56.5 23.5t-23.5 55.5q0 33 23.5 56.5t56.5 23.5q32 0 55.5 -23.5t23.5 -56.5q0 -32 -23.5 -55.5t-55.5 -23.5zM274 572q-32 0 -55.5 23.5t-23.5 55.5q0 33 23.5 56.5t55.5 23.5q33 0 56.5 -23.5t23.5 -56.5q0 -32 -23.5 -55.5
t-56.5 -23.5zM507 572q-33 0 -56.5 23.5t-23.5 55.5q0 33 23.5 56.5t56.5 23.5q32 0 55.5 -23.5t23.5 -56.5q0 -32 -23.5 -55.5t-55.5 -23.5zM488 500v-530q0 -91 -56 -140t-139 -49q-40 0 -61 4v128q14 -2 25 -2q41 0 60.5 20t19.5 64v505h151z" />
    <glyph glyph-name=".notdef" horiz-adv-x="634" 
d="M67 0v710h500v-710h-500zM306 355l-220 327v-654zM327 355l221 -327v654zM533 691h-432l216 -321zM317 339l-216 -320h432z" />
    <glyph glyph-name=".null" 
 />
    <glyph glyph-name="nonmarkingreturn" horiz-adv-x="333" 
 />
    <glyph glyph-name="space" unicode=" " horiz-adv-x="225" 
 />
    <glyph glyph-name="exclam" unicode="!" horiz-adv-x="292" 
d="M99 265l-29 184v261h152v-261l-30 -184h-93zM146 -8q-44 0 -75.5 31.5t-31.5 75.5t31.5 75.5t75.5 31.5t75.5 -31.5t31.5 -75.5t-31.5 -75.5t-75.5 -31.5z" />
    <glyph glyph-name="quotedbl" unicode="&#x22;" horiz-adv-x="440" 
d="M56 412v298h126v-298h-126zM258 412v298h126v-298h-126z" />
    <glyph glyph-name="numbersign" unicode="#" horiz-adv-x="723" 
d="M317 0l57 181h-132l-57 -181h-127l56 181h-83v114h120l36 120h-83v114h119l56 181h129l-57 -181h131l56 181h129l-57 -181h82v-114h-118l-37 -120h83v-114h-119l-57 -181h-127zM315 415l-37 -120h132l36 120h-131z" />
    <glyph glyph-name="dollar" unicode="$" horiz-adv-x="540" 
d="M244 -88v79q-92 8 -148.5 67t-56.5 152h151q1 -56 54 -71v150l-36 13q-170 64 -170 211q0 91 54.5 147t151.5 61v77h54v-79q85 -12 137.5 -69.5t52.5 -133.5h-151q-9 39 -39 54v-138l37 -13q84 -32 128 -85t44 -139q0 -91 -55 -145.5t-154 -59.5v-78h-54zM356 195
q0 44 -58 72v-132q58 13 58 60zM189 516q0 -39 55 -63v122q-55 -12 -55 -59z" />
    <glyph glyph-name="percent" unicode="%" horiz-adv-x="977" 
d="M341 0h-155l450 710h155zM753 -8q-82 0 -139.5 58t-57.5 139q0 82 57.5 139.5t139.5 57.5q81 0 139 -57.5t58 -139.5q0 -81 -58 -139t-139 -58zM753 118q29 0 49 21t20 50t-20 50t-49 21t-49.5 -21t-20.5 -50t20.5 -50t49.5 -21zM224 324q-82 0 -139.5 58t-57.5 139
q0 82 57.5 139.5t139.5 57.5q81 0 139 -57.5t58 -139.5q0 -81 -58 -139t-139 -58zM224 450q29 0 49 21t20 50t-20 50t-49 21q-30 0 -50 -20.5t-20 -50.5t20 -50.5t50 -20.5z" />
    <glyph glyph-name="ampersand" unicode="&#x26;" horiz-adv-x="777" 
d="M303 -11q-117 0 -179 61t-62 154q0 63 30.5 107t86.5 82q-73 73 -73 146q0 74 58.5 128.5t147.5 54.5t146.5 -54.5t57.5 -125.5q0 -60 -29.5 -98t-87.5 -72l107 -103l63 74h181l-145 -169l181 -174h-198l-78 74q-51 -45 -99 -65t-108 -20zM301 121q58 0 112 47l-135 130
q-69 -46 -69 -99q0 -39 28 -58.5t64 -19.5zM250 539q0 -15 9.5 -30t17.5 -23t31 -28l1 1q34 18 46.5 33.5t12.5 43.5q0 27 -17 43t-41 16q-25 0 -42.5 -15.5t-17.5 -40.5z" />
    <glyph glyph-name="quotesingle" unicode="'" horiz-adv-x="238" 
d="M56 412v298h126v-298h-126z" />
    <glyph glyph-name="parenleft" unicode="(" horiz-adv-x="305" 
d="M284 -160h-119q-128 233 -128 480t128 480h119q-121 -235 -121 -480t121 -480z" />
    <glyph glyph-name="parenright" unicode=")" horiz-adv-x="305" 
d="M140 -160h-119q121 235 121 480t-121 480h119q128 -233 128 -480t-128 -480z" />
    <glyph glyph-name="asterisk" unicode="*" horiz-adv-x="506" 
d="M165 284l-83 60l88 119l-141 46l31 98l143 -45v148h102v-148l141 46l32 -98l-142 -47l89 -119l-83 -60l-87 118z" />
    <glyph glyph-name="plus" unicode="+" horiz-adv-x="490" 
d="M35 224v131h145v145h130v-145h145v-131h-145v-145h-130v145h-145z" />
    <glyph glyph-name="comma" unicode="," horiz-adv-x="289" 
d="M229 30l-115 -185h-87l75 155q-27 10 -46 37.5t-19 61.5q0 44 31.5 75.5t75.5 31.5t75.5 -31.5t31.5 -75.5q0 -30 -22 -69z" />
    <glyph glyph-name="hyphen" unicode="-" horiz-adv-x="404" 
d="M55 208v144h294v-144h-294z" />
    <glyph glyph-name="period" unicode="." horiz-adv-x="286" 
d="M143 -8q-44 0 -75.5 31.5t-31.5 75.5t31.5 75.5t75.5 31.5t75.5 -31.5t31.5 -75.5t-31.5 -75.5t-75.5 -31.5z" />
    <glyph glyph-name="slash" unicode="/" horiz-adv-x="556" 
d="M17 -110l386 820h136l-386 -820h-136z" />
    <glyph glyph-name="zero" unicode="0" horiz-adv-x="633" 
d="M317 -11q-119 0 -194 80t-75 204v165q0 124 75 204t194 80q118 0 193 -80t75 -204v-165q0 -124 -75 -204t-193 -80zM317 138q53 0 85 36t32 99v165q0 63 -32 99t-85 36q-54 0 -86 -36t-32 -99v-165q0 -63 32 -99t86 -36z" />
    <glyph glyph-name="one" unicode="1" horiz-adv-x="380" 
d="M154 0v561h-154l108 149h197v-710h-151z" />
    <glyph glyph-name="two" unicode="2" horiz-adv-x="577" 
d="M529 149v-149h-490v51q0 29 6 56.5t14 48t25 42.5t29 36t36 33.5t37 29t41 29t39 27.5q107 76 107 136q0 37 -21.5 60.5t-62.5 23.5q-43 0 -69.5 -26t-26.5 -63h-151q0 104 71.5 171t180.5 67q96 0 163 -58.5t67 -163.5q0 -61 -21 -109t-49 -77t-76 -65
q-2 -1 -39.5 -25.5t-57.5 -41.5t-29 -33h277z" />
    <glyph glyph-name="three" unicode="3" horiz-adv-x="590" 
d="M299 -11q-107 0 -185 64.5t-82 180.5h150q5 -48 36 -72t81 -24q44 0 70.5 21.5t27.5 56.5q1 38 -28 62t-77 24h-62v121h54q91 0 93 77q1 32 -22 52.5t-59 20.5q-44 0 -72 -26t-27 -63h-151q0 108 75.5 173t174.5 65q109 0 171 -60.5t62 -148.5q0 -48 -21.5 -88.5
t-52.5 -64.5q40 -20 67 -60t27 -97q0 -94 -69.5 -154t-180.5 -60z" />
    <glyph glyph-name="four" unicode="4" horiz-adv-x="643" 
d="M365 0v154h-347v122l362 434h136v-418h91v-138h-91v-154h-151zM202 292h163v195z" />
    <glyph glyph-name="five" unicode="5" horiz-adv-x="576" 
d="M287 -11q-101 0 -177 62.5t-80 158.5h156q8 -32 36 -52t65 -20q47 0 73 27t26 71q0 42 -28 70t-70 28q-39 0 -66 -20.5t-39 -53.5l-131 41l82 409h349v-146h-233l-24 -113q35 19 91 19q100 0 160 -68t60 -177q0 -110 -67.5 -173t-182.5 -63z" />
    <glyph glyph-name="six" unicode="6" horiz-adv-x="572" 
d="M284 -11q-114 0 -182 70t-68 178q0 34 11 65.5t24.5 53t48.5 72.5l198 282h186l-174 -248q81 -7 143.5 -67.5t62.5 -158.5q0 -107 -68 -177t-182 -70zM284 134q42 0 70 29t28 71t-28 71t-70 29q-44 0 -71 -28.5t-27 -71.5t27 -71.5t71 -28.5z" />
    <glyph glyph-name="seven" unicode="7" horiz-adv-x="552" 
d="M212 0h-171l318 564h-324v146h503v-131z" />
    <glyph glyph-name="eight" unicode="8" horiz-adv-x="592" 
d="M296 -11q-110 0 -183 65t-73 165q0 113 85 167q-57 54 -57 141q0 85 62.5 140t165.5 55t165.5 -55t62.5 -140q0 -86 -58 -141q86 -55 86 -167q0 -100 -73.5 -165t-182.5 -65zM296 128q45 0 72.5 28.5t27.5 66.5t-27.5 66.5t-72.5 28.5q-46 0 -73 -28.5t-27 -66.5
t27 -66.5t73 -28.5zM296 437q35 0 58.5 21.5t23.5 54.5t-23.5 54.5t-58.5 21.5t-58.5 -21.5t-23.5 -54.5t23.5 -54.5t58.5 -21.5z" />
    <glyph glyph-name="nine" unicode="9" horiz-adv-x="572" 
d="M69 0l174 248q-81 7 -143 67.5t-62 159.5q0 107 68 177t182 70t182 -70t68 -178q0 -48 -18 -85t-66 -106l-199 -283h-186zM288 377q44 0 71 28.5t27 71.5t-27 71.5t-71 28.5q-42 0 -70 -29t-28 -71t28 -71t70 -29z" />
    <glyph glyph-name="colon" unicode=":" horiz-adv-x="306" 
d="M153 298q-44 0 -75.5 31.5t-31.5 75.5t31.5 75.5t75.5 31.5t75.5 -31.5t31.5 -75.5t-31.5 -75.5t-75.5 -31.5zM153 -8q-44 0 -75.5 31.5t-31.5 75.5t31.5 75.5t75.5 31.5t75.5 -31.5t31.5 -75.5t-31.5 -75.5t-75.5 -31.5z" />
    <glyph glyph-name="semicolon" unicode=";" horiz-adv-x="306" 
d="M153 298q-44 0 -75.5 31.5t-31.5 75.5t31.5 75.5t75.5 31.5t75.5 -31.5t31.5 -75.5t-31.5 -75.5t-75.5 -31.5zM238 30l-115 -185h-87l75 155q-27 10 -46 37.5t-19 61.5q0 44 31.5 75.5t75.5 31.5t75.5 -31.5t31.5 -75.5q0 -30 -22 -69z" />
    <glyph glyph-name="less" unicode="&#x3c;" horiz-adv-x="490" 
d="M465 543l-253 -253l253 -253h-188l-253 253l253 253h188z" />
    <glyph glyph-name="equal" unicode="=" horiz-adv-x="536" 
d="M58 120v130h420v-130h-420zM58 328v131h420v-131h-420z" />
    <glyph glyph-name="greater" unicode="&#x3e;" horiz-adv-x="490" 
d="M278 290l-253 253h188l253 -253l-253 -253h-188z" />
    <glyph glyph-name="question" unicode="?" horiz-adv-x="523" 
d="M160 263v19q0 43 20.5 73.5t64.5 61.5q8 6 30.5 20t31 20.5t17.5 21t9 31.5q0 30 -21 46.5t-52 16.5q-33 0 -57.5 -20.5t-24.5 -57.5h-151q0 94 67.5 160.5t165.5 66.5q96 0 160 -60.5t64 -142.5q0 -56 -18 -96.5t-68 -76.5q-11 -8 -28.5 -21t-25.5 -19t-17 -14
t-12.5 -14.5t-3.5 -13.5v-1h-151zM235 -8q-44 0 -75.5 31.5t-31.5 75.5t31.5 75.5t75.5 31.5t75.5 -31.5t31.5 -75.5t-31.5 -75.5t-75.5 -31.5z" />
    <glyph glyph-name="at" unicode="@" horiz-adv-x="800" 
d="M387 -11q-158 0 -253.5 99.5t-95.5 248.5q0 167 114 276t273 109q150 0 247 -86t97 -230q0 -124 -51.5 -186.5t-133.5 -62.5q-34 0 -63 13.5t-44 34.5q-46 -46 -122 -46q-72 0 -114.5 50t-42.5 122q0 90 57.5 154.5t141.5 64.5q36 0 63.5 -16.5t39.5 -39.5l9 46h105
l-46 -216q-16 -79 35 -79q82 0 82 163q0 111 -75.5 172t-185.5 61q-123 0 -210.5 -82t-87.5 -222q0 -120 71 -193.5t190 -73.5q103 0 176 36v-89q-80 -28 -176 -28zM378 257q38 0 62.5 23.5t33.5 63.5q8 45 -10 76.5t-56 31.5t-62.5 -23.5t-33.5 -63.5q-10 -44 9.5 -76
t56.5 -32z" />
    <glyph glyph-name="A" unicode="A" horiz-adv-x="750" 
d="M-1 0l304 710h144l304 -710h-166l-63 150h-294l-63 -150h-166zM375 501l-90 -213h179z" />
    <glyph glyph-name="B" unicode="B" horiz-adv-x="635" 
d="M75 0v710h267q87 0 149 -61.5t62 -149.5q0 -71 -51 -122q46 -24 73.5 -68t27.5 -100q0 -88 -62 -148.5t-154 -60.5h-312zM234 146h140q32 0 53 20.5t21 50.5t-21.5 50.5t-53.5 20.5h-139v-142zM234 423h90q32 0 53 20t21 50t-21 51t-53 21h-90v-142z" />
    <glyph glyph-name="C" unicode="C" horiz-adv-x="778" 
d="M409 -12q-161 0 -267 106t-106 261t106 261t267 106q119 0 217.5 -70.5t127.5 -185.5h-173q-23 49 -70 75.5t-102 26.5q-96 0 -154.5 -61t-58.5 -152t58.5 -152t154.5 -61q55 0 102 26.5t70 75.5h173q-29 -115 -127.5 -185.5t-217.5 -70.5z" />
    <glyph glyph-name="D" unicode="D" horiz-adv-x="715" 
d="M75 0v710h242q150 0 256 -104t106 -251t-106 -251t-256 -104h-242zM234 146h83q88 0 144.5 60.5t56.5 148.5t-56.5 148.5t-144.5 60.5h-83v-418z" />
    <glyph glyph-name="E" unicode="E" horiz-adv-x="571" 
d="M75 0v710h450v-152h-291v-127h231v-152h-231v-127h291v-152h-450z" />
    <glyph glyph-name="F" unicode="F" horiz-adv-x="545" 
d="M75 0v710h437v-152h-278v-128h217v-152h-217v-278h-159z" />
    <glyph glyph-name="G" unicode="G" horiz-adv-x="802" 
d="M411 -12q-163 0 -269 106t-106 261t106 261t267 106q111 0 204 -60t130 -162h-183q-53 68 -151 68q-96 0 -154.5 -61t-58.5 -152t59 -152t156 -61q157 0 184 139h-204v149h369q13 -109 -9.5 -195.5t-72 -139t-117.5 -80t-150 -27.5z" />
    <glyph glyph-name="H" unicode="H" horiz-adv-x="754" 
d="M75 0v710h159v-278h286v278h159v-710h-159v281h-286v-281h-159z" />
    <glyph glyph-name="I" unicode="I" horiz-adv-x="309" 
d="M75 0v710h159v-710h-159z" />
    <glyph glyph-name="J" unicode="J" horiz-adv-x="552" 
d="M250 -12q-98 0 -164 55.5t-66 164.5h157q0 -35 20.5 -53.5t52.5 -18.5q31 0 52 18t21 50v506h159v-516q0 -102 -66 -154t-166 -52z" />
    <glyph glyph-name="K" unicode="K" horiz-adv-x="700" 
d="M522 0l-289 318v-318h-158v710h158v-297l241 297h195l-280 -341l337 -369h-204z" />
    <glyph glyph-name="L" unicode="L" horiz-adv-x="552" 
d="M75 0v710h159v-558h294v-152h-453z" />
    <glyph glyph-name="M" unicode="M" horiz-adv-x="884" 
d="M75 710h145l221 -306l223 306h145v-710h-160v437l-207 -286l-208 287v-438h-159v710z" />
    <glyph glyph-name="N" unicode="N" horiz-adv-x="792" 
d="M717 0h-137l-346 439v-439h-159v710h137l345 -439v439h160v-710z" />
    <glyph glyph-name="O" unicode="O" horiz-adv-x="804" 
d="M402 142q86 0 146 63t60 150t-60 150t-146 63t-146.5 -63t-60.5 -150t60.5 -150t146.5 -63zM402 -12q-152 0 -259.5 107.5t-107.5 259.5t107.5 259.5t259.5 107.5t259.5 -108t107.5 -259t-107.5 -259t-259.5 -108z" />
    <glyph glyph-name="P" unicode="P" horiz-adv-x="593" 
d="M566 467q0 -103 -71.5 -172.5t-178.5 -69.5h-82v-225h-159v710h241q107 0 178.5 -70t71.5 -173zM412 467q0 40 -27.5 66.5t-70.5 26.5h-80v-186h80q42 0 70 27t28 66z" />
    <glyph glyph-name="Q" unicode="Q" horiz-adv-x="840" 
d="M402 -12q-152 0 -259.5 107.5t-107.5 259.5t107.5 259.5t259.5 107.5t259.5 -108t107.5 -259q0 -100 -52 -188l205 -167h-225l-76 61q-95 -73 -219 -73zM402 142q48 0 92 23l-101 82l90 110l107 -88q18 44 18 86q0 87 -60 150t-146 63t-146.5 -63t-60.5 -150t60.5 -150
t146.5 -63z" />
    <glyph glyph-name="R" unicode="R" horiz-adv-x="662" 
d="M75 0v710h280q98 0 159 -62t61 -152q0 -134 -139 -183l251 -313h-191l-237 293h-25v-293h-159zM234 428h102q36 0 58.5 19t22.5 49q0 32 -22.5 50t-58.5 18h-102v-136z" />
    <glyph glyph-name="S" unicode="S" horiz-adv-x="602" 
d="M312 -12q-124 0 -200 72t-80 168h159q8 -44 40.5 -68.5t80.5 -24.5q41 0 66.5 17t25.5 46q0 51 -93 77l-69 18q-89 24 -140 78t-52 135q0 99 66.5 157.5t177.5 58.5q112 0 182 -67.5t74 -154.5h-158q-11 39 -38 57t-60 18q-37 0 -60 -15t-24 -43t20.5 -46t65.5 -30
l81 -21q89 -24 138.5 -79t49.5 -138q0 -92 -70 -153.5t-183 -61.5z" />
    <glyph glyph-name="T" unicode="T" horiz-adv-x="568" 
d="M203 0v558h-181v152h524v-152h-183v-558h-160z" />
    <glyph glyph-name="U" unicode="U" horiz-adv-x="718" 
d="M359 -12q-129 0 -210.5 80.5t-81.5 212.5v429h159v-431q0 -63 36.5 -100t96.5 -37t96.5 37t36.5 100v431h159v-429q0 -132 -81.5 -212.5t-210.5 -80.5z" />
    <glyph glyph-name="V" unicode="V" horiz-adv-x="727" 
d="M292 0l-291 710h173l189 -473l188 473h175l-291 -710h-143z" />
    <glyph glyph-name="W" unicode="W" horiz-adv-x="965" 
d="M634 0l-151 347l-151 -347h-151l-164 710h170l97 -450l199 462l200 -462l97 450h170l-165 -710h-151z" />
    <glyph glyph-name="X" unicode="X" horiz-adv-x="704" 
d="M177 0h-186l266 359l-250 351h184l161 -228l161 228h184l-249 -351l265 -359h-185l-176 235z" />
    <glyph glyph-name="Y" unicode="Y" horiz-adv-x="694" 
d="M267 0v299l-259 411h185l153 -256l155 256h185l-259 -412v-298h-160z" />
    <glyph glyph-name="Z" unicode="Z" horiz-adv-x="626" 
d="M39 0v109l326 449h-321v152h537v-109l-327 -449h333v-152h-548z" />
    <glyph glyph-name="bracketleft" unicode="[" horiz-adv-x="331" 
d="M72 -160v960h230v-108h-104v-744h104v-108h-230z" />
    <glyph glyph-name="backslash" unicode="\" horiz-adv-x="556" 
d="M153 710l386 -820h-136l-386 820h136z" />
    <glyph glyph-name="bracketright" unicode="]" horiz-adv-x="331" 
d="M259 800v-960h-230v108h104v744h-104v108h230z" />
    <glyph glyph-name="asciicircum" unicode="^" horiz-adv-x="331" 
d="M120 500h-82l102 210h52l101 -210h-82l-46 94z" />
    <glyph glyph-name="underscore" unicode="_" horiz-adv-x="511" 
d="M38 -114v114h435v-114h-435z" />
    <glyph glyph-name="grave" unicode="`" 
d="M31 560l-171 190h172l110 -190h-111z" />
    <glyph glyph-name="a" unicode="a" horiz-adv-x="613" 
d="M264 -11q-97 0 -164.5 77t-67.5 184t67.5 184t164.5 77q86 0 136 -61v50h151v-500h-151v50q-50 -61 -136 -61zM298 126q51 0 82.5 35t31.5 89t-31.5 89t-82.5 35t-82.5 -35t-31.5 -89t31.5 -89t82.5 -35z" />
    <glyph glyph-name="b" unicode="b" horiz-adv-x="613" 
d="M349 -11q-46 0 -83 18.5t-53 42.5v-50h-151v750h151v-300q16 24 53 42.5t83 18.5q97 0 164.5 -77t67.5 -184t-67.5 -184t-164.5 -77zM315 126q51 0 82.5 35t31.5 89t-31.5 89t-82.5 35t-82.5 -35t-31.5 -89t31.5 -89t82.5 -35z" />
    <glyph glyph-name="c" unicode="c" horiz-adv-x="578" 
d="M295 -11q-113 0 -188 75.5t-75 185.5t75 185.5t188 75.5q103 0 170 -57t88 -149h-156q-33 70 -102 70q-49 0 -80 -33.5t-31 -91.5t31 -91.5t80 -33.5q69 0 102 70h156q-21 -92 -88 -149t-170 -57z" />
    <glyph glyph-name="d" unicode="d" horiz-adv-x="613" 
d="M264 -11q-97 0 -164.5 77t-67.5 184t67.5 184t164.5 77q86 0 136 -61v300h151v-750h-151v50q-50 -61 -136 -61zM298 126q51 0 82.5 35t31.5 89t-31.5 89t-82.5 35t-82.5 -35t-31.5 -89t31.5 -89t82.5 -35z" />
    <glyph glyph-name="e" unicode="e" horiz-adv-x="596" 
d="M297 -11q-116 0 -190.5 74t-74.5 188q0 112 75.5 186t189.5 74q55 0 103.5 -19t86 -55t58.5 -93t19 -129h-385q4 -41 36 -68.5t90 -27.5q33 0 60 13.5t36 33.5h158q-24 -79 -96 -128t-166 -49zM293 391q-43 0 -71.5 -22t-38.5 -58h214q-11 41 -40.5 60.5t-63.5 19.5z" />
    <glyph glyph-name="f" unicode="f" horiz-adv-x="424" 
d="M118 0v369h-100v131h100v55q0 92 57.5 146.5t143.5 54.5q54 0 90 -11v-133q-21 9 -54 9q-46 0 -66 -20t-20 -65v-36h140v-131h-140v-369h-151z" />
    <glyph glyph-name="g" unicode="g" horiz-adv-x="615" 
d="M298 -219q-105 0 -171.5 54.5t-72.5 137.5h147q23 -67 101 -67q42 0 71 26.5t29 76.5v59q-18 -27 -54.5 -44t-81.5 -17q-96 0 -165 73.5t-69 178.5t69 178.5t165 73.5q45 0 81.5 -17t54.5 -44v50h151v-469q0 -67 -21.5 -117t-58 -78t-80.5 -41.5t-95 -13.5zM299 144
q47 0 81 32t34 83t-34 83t-81 32t-81 -32t-34 -83t34 -83t81 -32z" />
    <glyph glyph-name="h" unicode="h" horiz-adv-x="602" 
d="M213 0h-151v750h151v-301q43 62 139 62q91 0 142.5 -61t51.5 -161v-289h-151v263q0 111 -81 111q-45 0 -73 -33t-28 -98v-243z" />
    <glyph glyph-name="i" unicode="i" horiz-adv-x="275" 
d="M137 568q-38 0 -66 27.5t-28 66.5t28 66.5t66 27.5q40 0 67.5 -27.5t27.5 -66.5t-27.5 -66.5t-67.5 -27.5zM62 0v500h151v-500h-151z" />
    <glyph glyph-name="j" unicode="j" horiz-adv-x="283" 
d="M221 500v-530q0 -91 -56 -140t-139 -49q-40 0 -61 4v128q14 -2 25 -2q41 0 60.5 20t19.5 64v505h151zM145 568q-38 0 -66 27.5t-28 66.5t28 66.5t66 27.5q40 0 67.5 -27.5t27.5 -66.5t-27.5 -66.5t-67.5 -27.5z" />
    <glyph glyph-name="k" unicode="k" horiz-adv-x="560" 
d="M399 0l-186 223v-223h-151v750h151v-429l146 179h179l-184 -226l228 -274h-183z" />
    <glyph glyph-name="l" unicode="l" horiz-adv-x="275" 
d="M62 0v750h151v-750h-151z" />
    <glyph glyph-name="m" unicode="m" horiz-adv-x="895" 
d="M688 0v259q0 115 -72 115q-86 0 -90 -125v-249h-151v259q0 115 -72 115q-42 0 -66 -32.5t-24 -98.5v-243h-151v500h151v-51q48 62 128 62q105 0 154 -88q22 43 66 65.5t88 22.5q91 0 140.5 -60t49.5 -166v-285h-151z" />
    <glyph glyph-name="n" unicode="n" horiz-adv-x="602" 
d="M62 0v500h151v-51q43 62 139 62q91 0 142.5 -61t51.5 -161v-289h-151v263q0 111 -81 111q-45 0 -73 -33t-28 -98v-243h-151z" />
    <glyph glyph-name="o" unicode="o" horiz-adv-x="588" 
d="M294 -11q-109 0 -186 75.5t-77 185.5t77 185.5t186 75.5t186 -75.5t77 -185.5t-77 -185.5t-186 -75.5zM294 130q48 0 79.5 33t31.5 87t-31.5 87t-79.5 33t-79.5 -33t-31.5 -87t31.5 -87t79.5 -33z" />
    <glyph glyph-name="p" unicode="p" horiz-adv-x="613" 
d="M213 -209h-151v709h151v-50q16 24 53 42.5t83 18.5q97 0 164.5 -77t67.5 -184t-67.5 -184t-164.5 -77q-46 0 -83 18.5t-53 42.5v-259zM315 126q51 0 82.5 35t31.5 89t-31.5 89t-82.5 35t-82.5 -35t-31.5 -89t31.5 -89t82.5 -35z" />
    <glyph glyph-name="q" unicode="q" horiz-adv-x="613" 
d="M551 -209h-151v259q-50 -61 -136 -61q-97 0 -164.5 77t-67.5 184t67.5 184t164.5 77q86 0 136 -61v50h151v-709zM298 126q51 0 82.5 35t31.5 89t-31.5 89t-82.5 35t-82.5 -35t-31.5 -89t31.5 -89t82.5 -35z" />
    <glyph glyph-name="r" unicode="r" horiz-adv-x="403" 
d="M62 0v500h151v-75q12 34 45 57.5t74 23.5q26 0 49 -6v-153q-35 12 -67 12q-48 0 -74.5 -33.5t-26.5 -88.5v-237h-151z" />
    <glyph glyph-name="s" unicode="s" horiz-adv-x="510" 
d="M264 -11q-100 0 -164.5 49.5t-68.5 124.5h159q2 -29 24 -44.5t55 -15.5q56 0 56 32q0 16 -12.5 24.5t-44.5 17.5l-101 26q-126 33 -126 157q0 67 56 109t153 42q86 0 143.5 -42.5t63.5 -119.5h-152q-9 46 -58 46q-51 0 -51 -32q0 -28 51 -39l91 -24q75 -20 108 -58
t33 -99q0 -69 -60 -111.5t-155 -42.5z" />
    <glyph glyph-name="t" unicode="t" horiz-adv-x="440" 
d="M317 -6q-88 0 -144.5 48.5t-56.5 140.5v186h-100v131h100v139h151v-139h140v-131h-140v-155q0 -45 20 -65t65 -20q34 0 55 9v-134q-33 -10 -90 -10z" />
    <glyph glyph-name="u" unicode="u" horiz-adv-x="591" 
d="M245 -11q-91 0 -140 61t-49 165v285h151v-259q0 -115 77 -115q94 0 94 131v243h151v-500h-151v51q-43 -62 -133 -62z" />
    <glyph glyph-name="v" unicode="v" horiz-adv-x="576" 
d="M218 0l-219 500h167l121 -304l122 304h168l-219 -500h-140z" />
    <glyph glyph-name="w" unicode="w" horiz-adv-x="810" 
d="M491 0l-86 264l-85 -264h-152l-165 500h162l87 -307l95 307h116l95 -307l87 307h162l-164 -500h-152z" />
    <glyph glyph-name="x" unicode="x" horiz-adv-x="577" 
d="M395 0l-106 136l-106 -136h-181l192 242l-190 258h178l106 -146l106 146h180l-190 -258l191 -242h-180z" />
    <glyph glyph-name="y" unicode="y" horiz-adv-x="576" 
d="M267 -209h-163l104 238l-208 471h165l124 -309l123 309h166z" />
    <glyph glyph-name="z" unicode="z" horiz-adv-x="502" 
d="M41 0v118l219 246h-216v136h412v-119l-219 -245h227v-136h-423z" />
    <glyph glyph-name="braceleft" unicode="{" horiz-adv-x="347" 
d="M319 -160h-88q-66 0 -104.5 38.5t-38.5 103.5v229q0 55 -53 55h-8v108h8q53 0 53 53v231q0 65 38.5 103.5t104.5 38.5h88v-108h-48q-31 0 -43.5 -12.5t-12.5 -44.5v-217q0 -82 -63 -98q63 -16 63 -101v-214q0 -32 12.5 -44.5t43.5 -12.5h48v-108z" />
    <glyph glyph-name="bar" unicode="|" horiz-adv-x="268" 
d="M71 -110v820h126v-820h-126z" />
    <glyph glyph-name="braceright" unicode="}" horiz-adv-x="347" 
d="M116 -160h-88v108h48q31 0 43.5 12.5t12.5 44.5v214q0 85 63 101q-63 16 -63 98v217q0 32 -12.5 44.5t-43.5 12.5h-48v108h88q66 0 104.5 -38.5t38.5 -103.5v-231q0 -53 53 -53h8v-108h-8q-53 0 -53 -55v-229q0 -65 -38.5 -103.5t-104.5 -38.5z" />
    <glyph glyph-name="asciitilde" unicode="~" horiz-adv-x="328" 
d="M56 230l55 119h46l28 -40l18 40h73l-55 -119h-46l-29 40l-18 -40h-72z" />
    <glyph glyph-name="uni00A0" unicode="&#xa0;" horiz-adv-x="225" 
 />
    <glyph glyph-name="exclamdown" unicode="&#xa1;" horiz-adv-x="282" 
d="M187 238l30 -184v-263h-152v263l29 184h93zM141 297q-44 0 -75.5 31.5t-31.5 75.5t31.5 75.5t75.5 31.5t75.5 -31.5t31.5 -75.5t-31.5 -75.5t-75.5 -31.5z" />
    <glyph glyph-name="cent" unicode="&#xa2;" horiz-adv-x="588" 
d="M273 -88v79q-103 8 -169.5 82t-66.5 177q0 102 66.5 175.5t169.5 83.5v79h54v-78q91 -8 151.5 -64.5t79.5 -140.5h-156q-26 55 -75 67v-244q49 11 75 67h156q-19 -86 -79 -141.5t-152 -63.5v-78h-54zM189 250q0 -50 23 -81.5t61 -40.5v244q-38 -9 -61 -41t-23 -81z" />
    <glyph glyph-name="sterling" unicode="&#xa3;" horiz-adv-x="595" 
d="M44 328v57h74q-25 65 -25 122q0 80 65.5 147.5t162.5 67.5q98 0 163.5 -70t69.5 -165h-151q0 36 -23.5 61t-58.5 25q-33 0 -55 -21.5t-22 -57.5q0 -34 29 -109h166v-57h-146q14 -49 14 -91q0 -43 -23 -88h270v-149h-510v149h95q19 41 19 84q0 40 -19 95h-95z" />
    <glyph glyph-name="yen" unicode="&#xa5;" horiz-adv-x="735" 
d="M75 298v57h180l-231 355h184l159 -260l159 260h184l-230 -355h180v-57h-217v-76h217v-57h-217v-165h-151v165h-217v57h217v76h-217z" />
    <glyph glyph-name="brokenbar" unicode="&#xa6;" horiz-adv-x="268" 
d="M71 -110v343h126v-343h-126zM71 367v343h126v-343h-126z" />
    <glyph glyph-name="section" unicode="&#xa7;" horiz-adv-x="453" 
d="M235 -219q-74 0 -127 43t-59 132h126q10 -67 60 -67q17 0 31.5 12.5t14.5 36.5q0 19 -3 31t-20.5 32.5t-51.5 40.5l-55 35q-103 67 -103 164q0 38 13.5 73t23 48t35.5 45q-73 61 -73 155q0 73 47.5 116.5t119.5 43.5t124.5 -43t58.5 -132h-126q-9 67 -53 67
q-45 0 -45 -51q0 -17 3.5 -28t20 -28.5t49.5 -37.5l55 -35q105 -66 105 -164q0 -12 -1.5 -24t-3 -21.5t-5.5 -20t-6.5 -17.5t-8.5 -17t-8.5 -14.5t-10 -14.5t-9.5 -13t-10.5 -13t-9.5 -12q74 -68 74 -164q0 -72 -49.5 -115t-122.5 -43zM173 259q0 -33 14 -51.5t46 -38.5
l5 -3q43 43 43 86q0 32 -15.5 52t-45.5 38l-5 2q-42 -39 -42 -85z" />
    <glyph glyph-name="dieresis" unicode="&#xa8;" 
d="M-118 572q-33 0 -57 23.5t-24 55.5q0 34 23.5 57.5t57.5 23.5q32 0 55.5 -24t23.5 -57q0 -32 -23.5 -55.5t-55.5 -23.5zM119 572q-33 0 -56.5 23.5t-23.5 55.5q0 34 23.5 57.5t56.5 23.5t56.5 -23.5t23.5 -57.5q0 -32 -23.5 -55.5t-56.5 -23.5z" />
    <glyph glyph-name="copyright" unicode="&#xa9;" horiz-adv-x="803" 
d="M405 163q-85 0 -140 55t-55 137q0 81 55 136.5t140 55.5q62 0 113.5 -37t67.5 -98h-95q-12 24 -35.5 37t-50.5 13q-49 0 -78 -30.5t-29 -76.5t29 -76.5t78 -30.5q62 0 86 49h95q-15 -61 -67 -97.5t-114 -36.5zM401 76q115 0 197 82t82 197t-82 197t-197 82t-196.5 -82
t-81.5 -197t81.5 -197t196.5 -82zM401 -12q-151 0 -258.5 108t-107.5 259t107.5 259t258.5 108t259 -108t108 -259t-108 -259t-259 -108z" />
    <glyph glyph-name="ordfeminine" unicode="&#xaa;" horiz-adv-x="401" 
d="M168 403q-57 0 -97 46.5t-40 110.5t40 110.5t97 46.5q47 0 72 -31v24h105v-300h-105v24q-25 -31 -72 -31zM193 498q25 0 40.5 17t15.5 45t-15.5 45t-40.5 17q-26 0 -41 -17t-15 -45t15 -45t41 -17z" />
    <glyph glyph-name="guillemotleft" unicode="&#xab;" horiz-adv-x="538" 
d="M236 250l141 217h131l-116 -217l116 -217h-131zM25 250l141 217h131l-116 -217l116 -217h-131z" />
    <glyph glyph-name="uni00AD" unicode="&#xad;" horiz-adv-x="404" 
d="M55 208v144h294v-144h-294z" />
    <glyph glyph-name="registered" unicode="&#xae;" horiz-adv-x="803" 
d="M401 -12q-151 0 -258.5 108t-107.5 259t107.5 259t258.5 108t259 -108t108 -259t-108 -259t-259 -108zM401 76q115 0 197 82t82 197t-82 197t-197 82t-196.5 -82t-81.5 -197t81.5 -197t196.5 -82zM275 169v371h149q53 0 84.5 -32t31.5 -81q0 -66 -71 -95l130 -163h-104
l-121 151h-11v-151h-88zM363 394h51q17 0 28 9.5t11 23.5q0 15 -10.5 24t-28.5 9h-51v-66z" />
    <glyph glyph-name="macron" unicode="&#xaf;" 
d="M-174 606v104h348v-104h-348z" />
    <glyph glyph-name="degree" unicode="&#xb0;" horiz-adv-x="382" 
d="M192 493q25 0 42.5 17.5t17.5 42.5t-17.5 43t-42.5 18q-27 0 -44.5 -18t-17.5 -43t17.5 -42.5t44.5 -17.5zM192 393q-67 0 -114 47t-47 113q0 67 47 114t114 47q66 0 113 -47t47 -114q0 -66 -47 -113t-113 -47z" />
    <glyph glyph-name="twosuperior" unicode="&#xb2;" horiz-adv-x="356" 
d="M327 514v-104h-304v34q0 29 9.5 54.5t18.5 40.5t33.5 36t33.5 27t41 27q61 40 61 78q0 16 -11 27t-30 11q-23 0 -36 -14t-12 -30h-105q0 64 44.5 106t112.5 42q59 0 100.5 -36.5t41.5 -101.5q0 -39 -13.5 -70t-30 -48t-41.5 -35q-2 -1 -30 -18.5t-35 -25.5h152z" />
    <glyph glyph-name="threesuperior" unicode="&#xb3;" horiz-adv-x="364" 
d="M184 403q-65 0 -113 39t-52 114h104q7 -49 62 -49q23 0 36.5 11t13.5 28q0 18 -15 30t-39 12h-40v82h33q48 0 48 39q0 16 -11 26t-29 10q-22 0 -36 -13.5t-13 -30.5h-105q0 68 47 108t108 40q71 0 108 -37.5t37 -92.5q0 -52 -41 -93q22 -10 37.5 -34t15.5 -58
q0 -58 -43 -94.5t-113 -36.5z" />
    <glyph glyph-name="acute" unicode="&#xb4;" 
d="M-141 560l109 190h172l-171 -190h-110z" />
    <glyph glyph-name="paragraph" unicode="&#xb6;" horiz-adv-x="675" 
d="M250 -184v444q-93 0 -159 66t-66 159t66 159t159 66h339v-894h-127v763h-85v-763h-127z" />
    <glyph glyph-name="periodcentered" unicode="&#xb7;" horiz-adv-x="294" 
d="M147 175q-44 0 -75.5 31.5t-31.5 75.5t31.5 75.5t75.5 31.5t75.5 -31.5t31.5 -75.5t-31.5 -75.5t-75.5 -31.5z" />
    <glyph glyph-name="cedilla" unicode="&#xb8;" 
d="M-121 -204v65q30 -17 76 -17q60 0 60 31q0 27 -43 27q-21 0 -40 -10l-36 19l56 92h64l-30 -50q30 7 49 7q37 0 61.5 -21t24.5 -58q0 -44 -42 -72t-96 -28q-64 0 -104 15z" />
    <glyph glyph-name="onesuperior" unicode="&#xb9;" horiz-adv-x="247" 
d="M99 410v328h-97l73 104h129v-432h-105z" />
    <glyph glyph-name="ordmasculine" unicode="&#xba;" horiz-adv-x="376" 
d="M188 403q-65 0 -111.5 45.5t-46.5 111.5t46.5 111.5t111.5 45.5t111.5 -45.5t46.5 -111.5t-46.5 -111.5t-111.5 -45.5zM188 501q22 0 37.5 16.5t15.5 42.5t-15.5 42.5t-37.5 16.5t-37.5 -16.5t-15.5 -42.5t15.5 -42.5t37.5 -16.5z" />
    <glyph glyph-name="guillemotright" unicode="&#xbb;" horiz-adv-x="538" 
d="M372 467l141 -217l-141 -217h-131l116 217l-116 217h131zM161 467l141 -217l-141 -217h-131l116 217l-116 217h131z" />
    <glyph glyph-name="onequarter" unicode="&#xbc;" horiz-adv-x="836" 
d="M100 278v328h-97l73 104h129v-432h-105zM196 0h-128l500 710h128zM659 1v86h-205v85l215 261h95v-251h54v-95h-54v-86h-105zM580 182h79v96z" />
    <glyph glyph-name="onehalf" unicode="&#xbd;" horiz-adv-x="826" 
d="M100 278v328h-97l73 104h129v-432h-105zM196 0h-128l500 710h128zM797 105v-104h-304v34q0 29 9.5 54.5t18.5 40.5t33.5 36t33.5 27t41 27q61 40 61 78q0 16 -11 27t-30 11q-23 0 -36 -14t-12 -30h-105q0 64 44.5 106t112.5 42q59 0 100.5 -36.5t41.5 -101.5
q0 -39 -13.5 -70t-30 -48t-41.5 -35q-2 -1 -30 -18.5t-35 -25.5h152z" />
    <glyph glyph-name="threequarters" unicode="&#xbe;" horiz-adv-x="910" 
d="M184 271q-65 0 -113 39t-52 114h104q7 -49 62 -49q23 0 36.5 11t13.5 28q0 18 -15 30t-39 12h-40v82h33q48 0 48 39q0 16 -11 26t-29 10q-22 0 -36 -13.5t-13 -30.5h-105q0 68 47 108t108 40q71 0 108 -37.5t37 -92.5q0 -52 -41 -93q22 -10 37.5 -34t15.5 -58
q0 -58 -43 -94.5t-113 -36.5zM270 0h-128l500 710h128zM733 1v86h-205v85l215 261h95v-251h54v-95h-54v-86h-105zM654 182h79v96z" />
    <glyph glyph-name="questiondown" unicode="&#xbf;" horiz-adv-x="515" 
d="M358 240v-19q0 -43 -20.5 -73.5t-64.5 -61.5q-7 -5 -25 -16t-25.5 -16.5t-18.5 -15.5t-15 -20.5t-4 -24.5q0 -30 21 -46.5t52 -16.5q33 0 57.5 20.5t24.5 57.5h151q0 -94 -67.5 -160.5t-165.5 -66.5q-96 0 -160 60.5t-64 142.5q0 57 18 95.5t68 77.5q11 8 28.5 21
t25.5 19t17 14t12.5 14.5t3.5 13.5v1h151zM283 511q44 0 75.5 -31.5t31.5 -75.5t-31.5 -75.5t-75.5 -31.5t-75.5 31.5t-31.5 75.5t31.5 75.5t75.5 31.5z" />
    <glyph glyph-name="Agrave" unicode="&#xc0;" horiz-adv-x="750" 
d="M-1 0l304 710h144l304 -710h-166l-63 150h-294l-63 -150h-166zM375 501l-90 -213h179zM424 770h-111l-125 157h166z" />
    <glyph glyph-name="Aacute" unicode="&#xc1;" horiz-adv-x="750" 
d="M-1 0l304 710h144l304 -710h-166l-63 150h-294l-63 -150h-166zM375 501l-90 -213h179zM328 770l70 157h166l-125 -157h-111z" />
    <glyph glyph-name="Acircumflex" unicode="&#xc2;" horiz-adv-x="750" 
d="M-1 0l304 710h144l304 -710h-166l-63 150h-294l-63 -150h-166zM375 501l-90 -213h179zM200 762v118l176 68l176 -68v-118l-176 68z" />
    <glyph glyph-name="Atilde" unicode="&#xc3;" horiz-adv-x="750" 
d="M-1 0l304 710h144l304 -710h-166l-63 150h-294l-63 -150h-166zM375 501l-90 -213h179zM183 776l4 28q8 55 42.5 86t78.5 31q35 0 78 -23.5t55 -23.5q19 0 28 11.5t16 36.5h83l-4 -28q-8 -55 -43 -86t-79 -31q-35 0 -78 23.5t-54 23.5q-19 0 -28.5 -11t-16.5 -37h-82z" />
    <glyph glyph-name="Adieresis" unicode="&#xc4;" horiz-adv-x="750" 
d="M-1 0l304 710h144l304 -710h-166l-63 150h-294l-63 -150h-166zM375 501l-90 -213h179zM258 768q-33 0 -57 24t-24 56q0 34 23.5 57.5t57.5 23.5q32 0 55.5 -24t23.5 -57q0 -32 -23.5 -56t-55.5 -24zM495 768q-33 0 -56.5 24t-23.5 56q0 34 23.5 57.5t56.5 23.5
t56.5 -23.5t23.5 -57.5q0 -32 -23.5 -56t-56.5 -24z" />
    <glyph glyph-name="Aring" unicode="&#xc5;" horiz-adv-x="750" 
d="M-1 0l304 710h144l304 -710h-166l-63 150h-294l-63 -150h-166zM375 501l-90 -213h179zM377 753q-50 0 -86 35.5t-36 84.5t36 84.5t86 35.5t86 -35.5t36 -84.5t-36 -84.5t-86 -35.5zM377 818q23 0 39.5 16t16.5 39t-16.5 39t-39.5 16t-39.5 -16t-16.5 -39t16.5 -39
t39.5 -16z" />
    <glyph glyph-name="AE" unicode="&#xc6;" horiz-adv-x="948" 
d="M452 0v150h-225l-82 -150h-173l394 710h536v-152h-291v-127h231v-152h-231v-127h291v-152h-450zM450 558l-148 -270h150v270h-2z" />
    <glyph glyph-name="Ccedilla" unicode="&#xc7;" horiz-adv-x="778" 
d="M409 -12q-161 0 -267 106t-106 261t106 261t267 106q119 0 217.5 -70.5t127.5 -185.5h-173q-23 49 -70 75.5t-102 26.5q-96 0 -154.5 -61t-58.5 -152t58.5 -152t154.5 -61q55 0 102 26.5t70 75.5h173q-29 -115 -127.5 -185.5t-217.5 -70.5zM282 -204v65q30 -17 76 -17
q60 0 60 31q0 27 -43 27q-21 0 -40 -10l-36 19l56 92h64l-30 -50q30 7 49 7q37 0 61.5 -21t24.5 -58q0 -44 -42 -72t-96 -28q-64 0 -104 15z" />
    <glyph glyph-name="Egrave" unicode="&#xc8;" horiz-adv-x="571" 
d="M75 0v710h450v-152h-291v-127h231v-152h-231v-127h291v-152h-450zM347 770h-111l-125 157h166z" />
    <glyph glyph-name="Eacute" unicode="&#xc9;" horiz-adv-x="571" 
d="M75 0v710h450v-152h-291v-127h231v-152h-231v-127h291v-152h-450zM251 770l70 157h166l-125 -157h-111z" />
    <glyph glyph-name="Ecircumflex" unicode="&#xca;" horiz-adv-x="571" 
d="M75 0v710h450v-152h-291v-127h231v-152h-231v-127h291v-152h-450zM123 762v118l176 68l176 -68v-118l-176 68z" />
    <glyph glyph-name="Edieresis" unicode="&#xcb;" horiz-adv-x="571" 
d="M75 0v710h450v-152h-291v-127h231v-152h-231v-127h291v-152h-450zM181 768q-33 0 -57 24t-24 56q0 34 23.5 57.5t57.5 23.5q32 0 55.5 -24t23.5 -57q0 -32 -23.5 -56t-55.5 -24zM418 768q-33 0 -56.5 24t-23.5 56q0 34 23.5 57.5t56.5 23.5t56.5 -23.5t23.5 -57.5
q0 -32 -23.5 -56t-56.5 -24z" />
    <glyph glyph-name="Igrave" unicode="&#xcc;" horiz-adv-x="309" 
d="M75 0v710h159v-710h-159zM203 770h-111l-125 157h166z" />
    <glyph glyph-name="Iacute" unicode="&#xcd;" horiz-adv-x="309" 
d="M75 0v710h159v-710h-159zM107 770l70 157h166l-125 -157h-111z" />
    <glyph glyph-name="Icircumflex" unicode="&#xce;" horiz-adv-x="309" 
d="M75 0v710h159v-710h-159zM-21 762v118l176 68l176 -68v-118l-176 68z" />
    <glyph glyph-name="Idieresis" unicode="&#xcf;" horiz-adv-x="309" 
d="M75 0v710h159v-710h-159zM37 768q-33 0 -57 24t-24 56q0 34 23.5 57.5t57.5 23.5q32 0 55.5 -24t23.5 -57q0 -32 -23.5 -56t-55.5 -24zM274 768q-33 0 -56.5 24t-23.5 56q0 34 23.5 57.5t56.5 23.5t56.5 -23.5t23.5 -57.5q0 -32 -23.5 -56t-56.5 -24z" />
    <glyph glyph-name="Eth" unicode="&#xd0;" horiz-adv-x="732" 
d="M92 0v710h242q150 0 256 -104t106 -251t-106 -251t-256 -104h-242zM251 146h83q88 0 144.5 60.5t56.5 148.5t-56.5 148.5t-144.5 60.5h-83v-418zM20 289v138h351v-138h-351z" />
    <glyph glyph-name="Ntilde" unicode="&#xd1;" horiz-adv-x="792" 
d="M717 0h-137l-346 439v-439h-159v710h137l345 -439v439h160v-710zM203 776l4 28q8 55 42.5 86t78.5 31q35 0 78 -23.5t55 -23.5q19 0 28 11.5t16 36.5h83l-4 -28q-8 -55 -43 -86t-79 -31q-35 0 -78 23.5t-54 23.5q-19 0 -28.5 -11t-16.5 -37h-82z" />
    <glyph glyph-name="Ograve" unicode="&#xd2;" horiz-adv-x="804" 
d="M402 142q86 0 146 63t60 150t-60 150t-146 63t-146.5 -63t-60.5 -150t60.5 -150t146.5 -63zM402 -12q-152 0 -259.5 107.5t-107.5 259.5t107.5 259.5t259.5 107.5t259.5 -108t107.5 -259t-107.5 -259t-259.5 -108zM450 770h-111l-125 157h166z" />
    <glyph glyph-name="Oacute" unicode="&#xd3;" horiz-adv-x="804" 
d="M402 142q86 0 146 63t60 150t-60 150t-146 63t-146.5 -63t-60.5 -150t60.5 -150t146.5 -63zM402 -12q-152 0 -259.5 107.5t-107.5 259.5t107.5 259.5t259.5 107.5t259.5 -108t107.5 -259t-107.5 -259t-259.5 -108zM354 770l70 157h166l-125 -157h-111z" />
    <glyph glyph-name="Ocircumflex" unicode="&#xd4;" horiz-adv-x="804" 
d="M402 142q86 0 146 63t60 150t-60 150t-146 63t-146.5 -63t-60.5 -150t60.5 -150t146.5 -63zM402 -12q-152 0 -259.5 107.5t-107.5 259.5t107.5 259.5t259.5 107.5t259.5 -108t107.5 -259t-107.5 -259t-259.5 -108zM226 762v118l176 68l176 -68v-118l-176 68z" />
    <glyph glyph-name="Otilde" unicode="&#xd5;" horiz-adv-x="804" 
d="M402 142q86 0 146 63t60 150t-60 150t-146 63t-146.5 -63t-60.5 -150t60.5 -150t146.5 -63zM402 -12q-152 0 -259.5 107.5t-107.5 259.5t107.5 259.5t259.5 107.5t259.5 -108t107.5 -259t-107.5 -259t-259.5 -108zM209 776l4 28q8 55 42.5 86t78.5 31q35 0 78 -23.5
t55 -23.5q19 0 28 11.5t16 36.5h83l-4 -28q-8 -55 -43 -86t-79 -31q-35 0 -78 23.5t-54 23.5q-19 0 -28.5 -11t-16.5 -37h-82z" />
    <glyph glyph-name="Odieresis" unicode="&#xd6;" horiz-adv-x="804" 
d="M402 142q86 0 146 63t60 150t-60 150t-146 63t-146.5 -63t-60.5 -150t60.5 -150t146.5 -63zM402 -12q-152 0 -259.5 107.5t-107.5 259.5t107.5 259.5t259.5 107.5t259.5 -108t107.5 -259t-107.5 -259t-259.5 -108zM284 768q-33 0 -57 24t-24 56q0 34 23.5 57.5t57.5 23.5
q32 0 55.5 -24t23.5 -57q0 -32 -23.5 -56t-55.5 -24zM521 768q-33 0 -56.5 24t-23.5 56q0 34 23.5 57.5t56.5 23.5t56.5 -23.5t23.5 -57.5q0 -32 -23.5 -56t-56.5 -24z" />
    <glyph glyph-name="multiply" unicode="&#xd7;" horiz-adv-x="507" 
d="M131 74l-92 92l123 123l-123 123l92 92l123 -122l123 122l91 -92l-122 -123l122 -123l-91 -92l-123 122z" />
    <glyph glyph-name="Oslash" unicode="&#xd8;" horiz-adv-x="811" 
d="M406 142q86 0 146 63t60 150t-60 150t-146 63t-146.5 -63t-60.5 -150t60.5 -150t146.5 -63zM406 -12q-152 0 -259.5 107.5t-107.5 259.5t107.5 259.5t259.5 107.5t259.5 -108t107.5 -259t-107.5 -259t-259.5 -108zM778 638l-657 -656l-89 90l657 656z" />
    <glyph glyph-name="Ugrave" unicode="&#xd9;" horiz-adv-x="718" 
d="M359 -12q-129 0 -210.5 80.5t-81.5 212.5v429h159v-431q0 -63 36.5 -100t96.5 -37t96.5 37t36.5 100v431h159v-429q0 -132 -81.5 -212.5t-210.5 -80.5zM407 770h-111l-125 157h166z" />
    <glyph glyph-name="Uacute" unicode="&#xda;" horiz-adv-x="718" 
d="M359 -12q-129 0 -210.5 80.5t-81.5 212.5v429h159v-431q0 -63 36.5 -100t96.5 -37t96.5 37t36.5 100v431h159v-429q0 -132 -81.5 -212.5t-210.5 -80.5zM311 770l70 157h166l-125 -157h-111z" />
    <glyph glyph-name="Ucircumflex" unicode="&#xdb;" horiz-adv-x="718" 
d="M359 -12q-129 0 -210.5 80.5t-81.5 212.5v429h159v-431q0 -63 36.5 -100t96.5 -37t96.5 37t36.5 100v431h159v-429q0 -132 -81.5 -212.5t-210.5 -80.5zM183 762v118l176 68l176 -68v-118l-176 68z" />
    <glyph glyph-name="Udieresis" unicode="&#xdc;" horiz-adv-x="718" 
d="M359 -12q-129 0 -210.5 80.5t-81.5 212.5v429h159v-431q0 -63 36.5 -100t96.5 -37t96.5 37t36.5 100v431h159v-429q0 -132 -81.5 -212.5t-210.5 -80.5zM241 768q-33 0 -57 24t-24 56q0 34 23.5 57.5t57.5 23.5q32 0 55.5 -24t23.5 -57q0 -32 -23.5 -56t-55.5 -24z
M478 768q-33 0 -56.5 24t-23.5 56q0 34 23.5 57.5t56.5 23.5t56.5 -23.5t23.5 -57.5q0 -32 -23.5 -56t-56.5 -24z" />
    <glyph glyph-name="Yacute" unicode="&#xdd;" horiz-adv-x="694" 
d="M267 0v299l-259 411h185l153 -256l155 256h185l-259 -412v-298h-160zM299 770l70 157h166l-125 -157h-111z" />
    <glyph glyph-name="Thorn" unicode="&#xde;" horiz-adv-x="598" 
d="M566 355q0 -103 -71.5 -173t-178.5 -70h-82v-112h-159v710h159v-112h82q107 0 178.5 -70t71.5 -173zM412 355q0 39 -28 66t-70 27h-80v-186h80q42 0 70 27t28 66z" />
    <glyph glyph-name="germandbls" unicode="&#xdf;" horiz-adv-x="590" 
d="M62 0v525q0 104 69.5 167.5t168.5 63.5q96 0 163 -60.5t67 -150.5q0 -89 -71 -154q47 -28 73 -73.5t26 -91.5q0 -101 -70 -163.5t-171 -62.5h-34v136h27q42 0 69.5 26t27.5 65t-27.5 64.5t-69.5 25.5h-27v136h14q37 0 59.5 24t22.5 60q0 35 -22.5 59t-57.5 24
q-37 0 -62 -26t-25 -67v-527h-150z" />
    <glyph glyph-name="agrave" unicode="&#xe0;" horiz-adv-x="613" 
d="M264 -11q-97 0 -164.5 77t-67.5 184t67.5 184t164.5 77q86 0 136 -61v50h151v-500h-151v50q-50 -61 -136 -61zM298 126q51 0 82.5 35t31.5 89t-31.5 89t-82.5 35t-82.5 -35t-31.5 -89t31.5 -89t82.5 -35zM265 560l-171 190h172l110 -190h-111z" />
    <glyph glyph-name="aacute" unicode="&#xe1;" horiz-adv-x="613" 
d="M264 -11q-97 0 -164.5 77t-67.5 184t67.5 184t164.5 77q86 0 136 -61v50h151v-500h-151v50q-50 -61 -136 -61zM298 126q51 0 82.5 35t31.5 89t-31.5 89t-82.5 35t-82.5 -35t-31.5 -89t31.5 -89t82.5 -35zM270 560l109 190h172l-171 -190h-110z" />
    <glyph glyph-name="acircumflex" unicode="&#xe2;" horiz-adv-x="613" 
d="M264 -11q-97 0 -164.5 77t-67.5 184t67.5 184t164.5 77q86 0 136 -61v50h151v-500h-151v50q-50 -61 -136 -61zM298 126q51 0 82.5 35t31.5 89t-31.5 89t-82.5 35t-82.5 -35t-31.5 -89t31.5 -89t82.5 -35zM320 756l178 -97v-118l-178 97l-178 -97v118z" />
    <glyph glyph-name="atilde" unicode="&#xe3;" horiz-adv-x="613" 
d="M264 -11q-97 0 -164.5 77t-67.5 184t67.5 184t164.5 77q86 0 136 -61v50h151v-500h-151v50q-50 -61 -136 -61zM298 126q51 0 82.5 35t31.5 89t-31.5 89t-82.5 35t-82.5 -35t-31.5 -89t31.5 -89t82.5 -35zM127 565l4 28q8 55 42.5 86t78.5 31q35 0 78 -23.5t55 -23.5
q19 0 28 11.5t16 36.5h83l-4 -28q-8 -54 -43 -85.5t-78 -31.5q-35 0 -78 23.5t-55 23.5q-19 0 -28 -11.5t-16 -36.5h-83z" />
    <glyph glyph-name="adieresis" unicode="&#xe4;" horiz-adv-x="613" 
d="M264 -11q-97 0 -164.5 77t-67.5 184t67.5 184t164.5 77q86 0 136 -61v50h151v-500h-151v50q-50 -61 -136 -61zM298 126q51 0 82.5 35t31.5 89t-31.5 89t-82.5 35t-82.5 -35t-31.5 -89t31.5 -89t82.5 -35zM202 572q-33 0 -57 23.5t-24 55.5q0 34 23.5 57.5t57.5 23.5
q32 0 55.5 -24t23.5 -57q0 -32 -23.5 -55.5t-55.5 -23.5zM439 572q-33 0 -56.5 23.5t-23.5 55.5q0 34 23.5 57.5t56.5 23.5t56.5 -23.5t23.5 -57.5q0 -32 -23.5 -55.5t-56.5 -23.5z" />
    <glyph glyph-name="aring" unicode="&#xe5;" horiz-adv-x="613" 
d="M264 -11q-97 0 -164.5 77t-67.5 184t67.5 184t164.5 77q86 0 136 -61v50h151v-500h-151v50q-50 -61 -136 -61zM298 126q51 0 82.5 35t31.5 89t-31.5 89t-82.5 35t-82.5 -35t-31.5 -89t31.5 -89t82.5 -35zM321 543q-50 0 -86 35.5t-36 84.5t36 84.5t86 35.5t86 -35.5
t36 -84.5t-36 -84.5t-86 -35.5zM321 608q23 0 39.5 16t16.5 39t-16.5 39t-39.5 16t-39.5 -16t-16.5 -39t16.5 -39t39.5 -16z" />
    <glyph glyph-name="ae" unicode="&#xe6;" horiz-adv-x="910" 
d="M622 -11q-129 0 -206 76q-58 -76 -184 -76q-91 0 -145 43.5t-54 108.5q0 71 56.5 107t176.5 58q63 12 72 17q11 8 11 24q0 22 -19.5 33t-49.5 11q-36 0 -61 -15.5t-25 -47.5h-150q2 77 69 130t166 53q116 0 167 -64q69 64 173 64q51 0 97 -19t83.5 -54.5t59 -93.5
t19.5 -129h-385q4 -41 36 -68.5t90 -27.5q33 0 60 13.5t36 33.5h158q-21 -78 -93.5 -127.5t-157.5 -49.5zM354 185v50q-22 -8 -62 -20.5t-52 -16.5q-30 -9 -42.5 -20.5t-12.5 -31.5t18 -32t52 -12q37 0 68 21.5t31 61.5zM607 391q-43 0 -71.5 -22t-38.5 -58h214
q-11 41 -40.5 60.5t-63.5 19.5z" />
    <glyph glyph-name="ccedilla" unicode="&#xe7;" horiz-adv-x="578" 
d="M295 -11q-113 0 -188 75.5t-75 185.5t75 185.5t188 75.5q103 0 170 -57t88 -149h-156q-33 70 -102 70q-49 0 -80 -33.5t-31 -91.5t31 -91.5t80 -33.5q69 0 102 70h156q-21 -92 -88 -149t-170 -57zM178 -204v65q30 -17 76 -17q60 0 60 31q0 27 -43 27q-21 0 -40 -10
l-36 19l56 92h64l-30 -50q30 7 49 7q37 0 61.5 -21t24.5 -58q0 -44 -42 -72t-96 -28q-64 0 -104 15z" />
    <glyph glyph-name="egrave" unicode="&#xe8;" horiz-adv-x="596" 
d="M297 -11q-116 0 -190.5 74t-74.5 188q0 112 75.5 186t189.5 74q55 0 103.5 -19t86 -55t58.5 -93t19 -129h-385q4 -41 36 -68.5t90 -27.5q33 0 60 13.5t36 33.5h158q-24 -79 -96 -128t-166 -49zM293 391q-43 0 -71.5 -22t-38.5 -58h214q-11 41 -40.5 60.5t-63.5 19.5z
M247 560l-171 190h172l110 -190h-111z" />
    <glyph glyph-name="eacute" unicode="&#xe9;" horiz-adv-x="596" 
d="M297 -11q-116 0 -190.5 74t-74.5 188q0 112 75.5 186t189.5 74q55 0 103.5 -19t86 -55t58.5 -93t19 -129h-385q4 -41 36 -68.5t90 -27.5q33 0 60 13.5t36 33.5h158q-24 -79 -96 -128t-166 -49zM293 391q-43 0 -71.5 -22t-38.5 -58h214q-11 41 -40.5 60.5t-63.5 19.5z
M252 560l109 190h172l-171 -190h-110z" />
    <glyph glyph-name="ecircumflex" unicode="&#xea;" horiz-adv-x="596" 
d="M297 -11q-116 0 -190.5 74t-74.5 188q0 112 75.5 186t189.5 74q55 0 103.5 -19t86 -55t58.5 -93t19 -129h-385q4 -41 36 -68.5t90 -27.5q33 0 60 13.5t36 33.5h158q-24 -79 -96 -128t-166 -49zM293 391q-43 0 -71.5 -22t-38.5 -58h214q-11 41 -40.5 60.5t-63.5 19.5z
M302 756l178 -97v-118l-178 97l-178 -97v118z" />
    <glyph glyph-name="edieresis" unicode="&#xeb;" horiz-adv-x="596" 
d="M297 -11q-116 0 -190.5 74t-74.5 188q0 112 75.5 186t189.5 74q55 0 103.5 -19t86 -55t58.5 -93t19 -129h-385q4 -41 36 -68.5t90 -27.5q33 0 60 13.5t36 33.5h158q-24 -79 -96 -128t-166 -49zM293 391q-43 0 -71.5 -22t-38.5 -58h214q-11 41 -40.5 60.5t-63.5 19.5z
M184 572q-33 0 -57 23.5t-24 55.5q0 34 23.5 57.5t57.5 23.5q32 0 55.5 -24t23.5 -57q0 -32 -23.5 -55.5t-55.5 -23.5zM421 572q-33 0 -56.5 23.5t-23.5 55.5q0 34 23.5 57.5t56.5 23.5t56.5 -23.5t23.5 -57.5q0 -32 -23.5 -55.5t-56.5 -23.5z" />
    <glyph glyph-name="igrave" unicode="&#xec;" horiz-adv-x="275" 
d="M62 0v500h151v-500h-151zM83 560l-171 190h172l110 -190h-111z" />
    <glyph glyph-name="iacute" unicode="&#xed;" horiz-adv-x="275" 
d="M62 0v500h151v-500h-151zM88 560l109 190h172l-171 -190h-110z" />
    <glyph glyph-name="icircumflex" unicode="&#xee;" horiz-adv-x="275" 
d="M62 0v500h151v-500h-151zM138 756l178 -97v-118l-178 97l-178 -97v118z" />
    <glyph glyph-name="idieresis" unicode="&#xef;" horiz-adv-x="275" 
d="M62 0v500h151v-500h-151zM44 572q-33 0 -56.5 23.5t-23.5 55.5q0 33 23.5 56.5t56.5 23.5q32 0 55.5 -23.5t23.5 -56.5q0 -32 -23.5 -55.5t-55.5 -23.5zM231 572q-32 0 -55.5 23.5t-23.5 55.5q0 33 23.5 56.5t55.5 23.5q33 0 56.5 -23.5t23.5 -56.5q0 -32 -23.5 -55.5
t-56.5 -23.5z" />
    <glyph glyph-name="eth" unicode="&#xf0;" horiz-adv-x="591" 
d="M456 560h-50l105 -160q48 -75 48 -150q0 -108 -78 -184.5t-186 -76.5t-185.5 76.5t-77.5 184.5q0 59 23.5 108t60 79.5t78 48t80.5 19.5l-36 55h-134v96h72l-60 94h167l61 -94h112v-96zM295 130q49 0 80.5 33.5t31.5 86.5t-31.5 86.5t-80.5 33.5q-48 0 -79.5 -33
t-31.5 -87t31.5 -87t79.5 -33z" />
    <glyph glyph-name="ntilde" unicode="&#xf1;" horiz-adv-x="602" 
d="M62 0v500h151v-51q43 62 139 62q91 0 142.5 -61t51.5 -161v-289h-151v263q0 111 -81 111q-45 0 -73 -33t-28 -98v-243h-151zM110 565l4 28q8 55 42.5 86t78.5 31q35 0 78 -23.5t55 -23.5q19 0 28 11.5t16 36.5h83l-4 -28q-8 -54 -43 -85.5t-78 -31.5q-35 0 -78 23.5
t-55 23.5q-19 0 -28 -11.5t-16 -36.5h-83z" />
    <glyph glyph-name="ograve" unicode="&#xf2;" horiz-adv-x="588" 
d="M294 -11q-109 0 -186 75.5t-77 185.5t77 185.5t186 75.5t186 -75.5t77 -185.5t-77 -185.5t-186 -75.5zM294 130q48 0 79.5 33t31.5 87t-31.5 87t-79.5 33t-79.5 -33t-31.5 -87t31.5 -87t79.5 -33zM239 560l-171 190h172l110 -190h-111z" />
    <glyph glyph-name="oacute" unicode="&#xf3;" horiz-adv-x="588" 
d="M294 -11q-109 0 -186 75.5t-77 185.5t77 185.5t186 75.5t186 -75.5t77 -185.5t-77 -185.5t-186 -75.5zM294 130q48 0 79.5 33t31.5 87t-31.5 87t-79.5 33t-79.5 -33t-31.5 -87t31.5 -87t79.5 -33zM244 560l109 190h172l-171 -190h-110z" />
    <glyph glyph-name="ocircumflex" unicode="&#xf4;" horiz-adv-x="588" 
d="M294 -11q-109 0 -186 75.5t-77 185.5t77 185.5t186 75.5t186 -75.5t77 -185.5t-77 -185.5t-186 -75.5zM294 130q48 0 79.5 33t31.5 87t-31.5 87t-79.5 33t-79.5 -33t-31.5 -87t31.5 -87t79.5 -33zM294 756l178 -97v-118l-178 97l-178 -97v118z" />
    <glyph glyph-name="otilde" unicode="&#xf5;" horiz-adv-x="588" 
d="M294 -11q-109 0 -186 75.5t-77 185.5t77 185.5t186 75.5t186 -75.5t77 -185.5t-77 -185.5t-186 -75.5zM294 130q48 0 79.5 33t31.5 87t-31.5 87t-79.5 33t-79.5 -33t-31.5 -87t31.5 -87t79.5 -33zM101 565l4 28q8 55 42.5 86t78.5 31q35 0 78 -23.5t55 -23.5
q19 0 28 11.5t16 36.5h83l-4 -28q-8 -54 -43 -85.5t-78 -31.5q-35 0 -78 23.5t-55 23.5q-19 0 -28 -11.5t-16 -36.5h-83z" />
    <glyph glyph-name="odieresis" unicode="&#xf6;" horiz-adv-x="588" 
d="M294 -11q-109 0 -186 75.5t-77 185.5t77 185.5t186 75.5t186 -75.5t77 -185.5t-77 -185.5t-186 -75.5zM294 130q48 0 79.5 33t31.5 87t-31.5 87t-79.5 33t-79.5 -33t-31.5 -87t31.5 -87t79.5 -33zM176 572q-33 0 -57 23.5t-24 55.5q0 34 23.5 57.5t57.5 23.5
q32 0 55.5 -24t23.5 -57q0 -32 -23.5 -55.5t-55.5 -23.5zM413 572q-33 0 -56.5 23.5t-23.5 55.5q0 34 23.5 57.5t56.5 23.5t56.5 -23.5t23.5 -57.5q0 -32 -23.5 -55.5t-56.5 -23.5z" />
    <glyph glyph-name="oslash" unicode="&#xf8;" horiz-adv-x="593" 
d="M297 -11q-109 0 -186 75.5t-77 185.5t77 185.5t186 75.5t186 -75.5t77 -185.5t-77 -185.5t-186 -75.5zM297 130q48 0 79.5 33t31.5 87t-31.5 87t-79.5 33t-79.5 -33t-31.5 -87t31.5 -87t79.5 -33zM558 462l-475 -473l-47 49l475 473z" />
    <glyph glyph-name="ugrave" unicode="&#xf9;" horiz-adv-x="591" 
d="M245 -11q-91 0 -140 61t-49 165v285h151v-259q0 -115 77 -115q94 0 94 131v243h151v-500h-151v51q-43 -62 -133 -62zM238 560l-171 190h172l110 -190h-111z" />
    <glyph glyph-name="uacute" unicode="&#xfa;" horiz-adv-x="591" 
d="M245 -11q-91 0 -140 61t-49 165v285h151v-259q0 -115 77 -115q94 0 94 131v243h151v-500h-151v51q-43 -62 -133 -62zM243 560l109 190h172l-171 -190h-110z" />
    <glyph glyph-name="ucircumflex" unicode="&#xfb;" horiz-adv-x="591" 
d="M245 -11q-91 0 -140 61t-49 165v285h151v-259q0 -115 77 -115q94 0 94 131v243h151v-500h-151v51q-43 -62 -133 -62zM293 756l178 -97v-118l-178 97l-178 -97v118z" />
    <glyph glyph-name="udieresis" unicode="&#xfc;" horiz-adv-x="591" 
d="M245 -11q-91 0 -140 61t-49 165v285h151v-259q0 -115 77 -115q94 0 94 131v243h151v-500h-151v51q-43 -62 -133 -62zM175 572q-33 0 -57 23.5t-24 55.5q0 34 23.5 57.5t57.5 23.5q32 0 55.5 -24t23.5 -57q0 -32 -23.5 -55.5t-55.5 -23.5zM412 572q-33 0 -56.5 23.5
t-23.5 55.5q0 34 23.5 57.5t56.5 23.5t56.5 -23.5t23.5 -57.5q0 -32 -23.5 -55.5t-56.5 -23.5z" />
    <glyph glyph-name="yacute" unicode="&#xfd;" horiz-adv-x="576" 
d="M267 -209h-163l104 238l-208 471h165l124 -309l123 309h166zM241 560l109 190h172l-171 -190h-110z" />
    <glyph glyph-name="thorn" unicode="&#xfe;" horiz-adv-x="613" 
d="M213 -209h-151v959h151v-300q16 24 53 42.5t83 18.5q97 0 164.5 -77t67.5 -184t-67.5 -184t-164.5 -77q-46 0 -83 18.5t-53 42.5v-259zM315 126q51 0 82.5 35t31.5 89t-31.5 89t-82.5 35t-82.5 -35t-31.5 -89t31.5 -89t82.5 -35z" />
    <glyph glyph-name="ydieresis" unicode="&#xff;" horiz-adv-x="576" 
d="M267 -209h-163l104 238l-208 471h165l124 -309l123 309h166zM173 572q-33 0 -57 23.5t-24 55.5q0 34 23.5 57.5t57.5 23.5q32 0 55.5 -24t23.5 -57q0 -32 -23.5 -55.5t-55.5 -23.5zM410 572q-33 0 -56.5 23.5t-23.5 55.5q0 34 23.5 57.5t56.5 23.5t56.5 -23.5t23.5 -57.5
q0 -32 -23.5 -55.5t-56.5 -23.5z" />
    <glyph glyph-name="Amacron" unicode="&#x100;" horiz-adv-x="750" 
d="M-1 0l304 710h144l304 -710h-166l-63 150h-294l-63 -150h-166zM375 501l-90 -213h179zM202 787v104h348v-104h-348z" />
    <glyph glyph-name="amacron" unicode="&#x101;" horiz-adv-x="613" 
d="M264 -11q-97 0 -164.5 77t-67.5 184t67.5 184t164.5 77q86 0 136 -61v50h151v-500h-151v50q-50 -61 -136 -61zM298 126q51 0 82.5 35t31.5 89t-31.5 89t-82.5 35t-82.5 -35t-31.5 -89t31.5 -89t82.5 -35zM146 606v104h348v-104h-348z" />
    <glyph glyph-name="Abreve" unicode="&#x102;" horiz-adv-x="750" 
d="M-1 0l304 710h144l304 -710h-166l-63 150h-294l-63 -150h-166zM375 501l-90 -213h179zM376 747q-76 0 -127 49.5t-51 130.5h86q0 -45 26 -69t66 -24t66 24t26 69h86q0 -81 -51 -130.5t-127 -49.5z" />
    <glyph glyph-name="abreve" unicode="&#x103;" horiz-adv-x="613" 
d="M264 -11q-97 0 -164.5 77t-67.5 184t67.5 184t164.5 77q86 0 136 -61v50h151v-500h-151v50q-50 -61 -136 -61zM298 126q51 0 82.5 35t31.5 89t-31.5 89t-82.5 35t-82.5 -35t-31.5 -89t31.5 -89t82.5 -35zM320 552q-76 0 -127 49.5t-51 128.5v20h86v-20q0 -44 26 -68
t66 -24t66 24t26 68v20h86v-20q0 -79 -51 -128.5t-127 -49.5z" />
    <glyph glyph-name="Aogonek" unicode="&#x104;" horiz-adv-x="750" 
d="M-1 0l304 710h144l304 -710q-39 -15 -62 -36.5t-23 -45.5q0 -23 36 -23q31 0 49 14v-99q-39 -29 -108 -29q-53 0 -84 28.5t-31 74.5q0 74 57 116l-63 150h-294l-63 -150h-166zM375 501l-90 -213h179z" />
    <glyph glyph-name="aogonek" unicode="&#x105;" horiz-adv-x="613" 
d="M264 -11q-97 0 -164.5 77t-67.5 184t67.5 184t164.5 77q86 0 136 -61v50h151v-500h-151v50q-50 -61 -136 -61zM298 126q51 0 82.5 35t31.5 89t-31.5 89t-82.5 35t-82.5 -35t-31.5 -89t31.5 -89t82.5 -35zM447 -219q-53 0 -82 28.5t-29 75.5q0 67 64 115h151
q-85 -33 -85 -86q0 -28 36 -28q31 0 49 14v-90q-39 -29 -104 -29z" />
    <glyph glyph-name="Cacute" unicode="&#x106;" horiz-adv-x="778" 
d="M409 -12q-161 0 -267 106t-106 261t106 261t267 106q119 0 217.5 -70.5t127.5 -185.5h-173q-23 49 -70 75.5t-102 26.5q-96 0 -154.5 -61t-58.5 -152t58.5 -152t154.5 -61q55 0 102 26.5t70 75.5h173q-29 -115 -127.5 -185.5t-217.5 -70.5zM355 770l70 157h166l-125 -157
h-111z" />
    <glyph glyph-name="cacute" unicode="&#x107;" horiz-adv-x="578" 
d="M295 -11q-113 0 -188 75.5t-75 185.5t75 185.5t188 75.5q103 0 170 -57t88 -149h-156q-33 70 -102 70q-49 0 -80 -33.5t-31 -91.5t31 -91.5t80 -33.5q69 0 102 70h156q-21 -92 -88 -149t-170 -57zM248 560l109 190h172l-171 -190h-110z" />
    <glyph glyph-name="Ccircumflex" unicode="&#x108;" horiz-adv-x="778" 
d="M409 -12q-161 0 -267 106t-106 261t106 261t267 106q119 0 217.5 -70.5t127.5 -185.5h-173q-23 49 -70 75.5t-102 26.5q-96 0 -154.5 -61t-58.5 -152t58.5 -152t154.5 -61q55 0 102 26.5t70 75.5h173q-29 -115 -127.5 -185.5t-217.5 -70.5zM227 762v118l176 68l176 -68
v-118l-176 68z" />
    <glyph glyph-name="ccircumflex" unicode="&#x109;" horiz-adv-x="578" 
d="M295 -11q-113 0 -188 75.5t-75 185.5t75 185.5t188 75.5q103 0 170 -57t88 -149h-156q-33 70 -102 70q-49 0 -80 -33.5t-31 -91.5t31 -91.5t80 -33.5q69 0 102 70h156q-21 -92 -88 -149t-170 -57zM298 756l178 -97v-118l-178 97l-178 -97v118z" />
    <glyph glyph-name="Cdotaccent" unicode="&#x10a;" horiz-adv-x="778" 
d="M409 -12q-161 0 -267 106t-106 261t106 261t267 106q119 0 217.5 -70.5t127.5 -185.5h-173q-23 49 -70 75.5t-102 26.5q-96 0 -154.5 -61t-58.5 -152t58.5 -152t154.5 -61q55 0 102 26.5t70 75.5h173q-29 -115 -127.5 -185.5t-217.5 -70.5zM403 768q-33 0 -57 24t-24 56
q0 34 23.5 57.5t57.5 23.5q33 0 56.5 -23.5t23.5 -57.5q0 -32 -23.5 -56t-56.5 -24z" />
    <glyph glyph-name="cdotaccent" unicode="&#x10b;" horiz-adv-x="578" 
d="M295 -11q-113 0 -188 75.5t-75 185.5t75 185.5t188 75.5q103 0 170 -57t88 -149h-156q-33 70 -102 70q-49 0 -80 -33.5t-31 -91.5t31 -91.5t80 -33.5q69 0 102 70h156q-21 -92 -88 -149t-170 -57zM298 572q-33 0 -57 23.5t-24 55.5q0 34 23.5 57.5t57.5 23.5
q33 0 56.5 -23.5t23.5 -57.5q0 -32 -23.5 -55.5t-56.5 -23.5z" />
    <glyph glyph-name="Ccaron" unicode="&#x10c;" horiz-adv-x="778" 
d="M409 -12q-161 0 -267 106t-106 261t106 261t267 106q119 0 217.5 -70.5t127.5 -185.5h-173q-23 49 -70 75.5t-102 26.5q-96 0 -154.5 -61t-58.5 -152t58.5 -152t154.5 -61q55 0 102 26.5t70 75.5h173q-29 -115 -127.5 -185.5t-217.5 -70.5zM403 762l-176 68v118l176 -68
l176 68v-118z" />
    <glyph glyph-name="ccaron" unicode="&#x10d;" horiz-adv-x="578" 
d="M295 -11q-113 0 -188 75.5t-75 185.5t75 185.5t188 75.5q103 0 170 -57t88 -149h-156q-33 70 -102 70q-49 0 -80 -33.5t-31 -91.5t31 -91.5t80 -33.5q69 0 102 70h156q-21 -92 -88 -149t-170 -57zM298 541l-178 97v118l178 -97l178 97v-118z" />
    <glyph glyph-name="Dcaron" unicode="&#x10e;" horiz-adv-x="715" 
d="M75 0v710h242q150 0 256 -104t106 -251t-106 -251t-256 -104h-242zM234 146h83q88 0 144.5 60.5t56.5 148.5t-56.5 148.5t-144.5 60.5h-83v-418zM337 762l-176 68v118l176 -68l176 68v-118z" />
    <glyph glyph-name="dcaron" unicode="&#x10f;" horiz-adv-x="613" 
d="M264 -11q-97 0 -164.5 77t-67.5 184t67.5 184t164.5 77q86 0 136 -61v300h151v-750h-151v50q-50 -61 -136 -61zM298 126q51 0 82.5 35t31.5 89t-31.5 89t-82.5 35t-82.5 -35t-31.5 -89t31.5 -89t82.5 -35zM567 590l20 160h151l-69 -160h-102z" />
    <glyph glyph-name="Dcroat" unicode="&#x110;" horiz-adv-x="732" 
d="M92 0v710h242q150 0 256 -104t106 -251t-106 -251t-256 -104h-242zM251 146h83q88 0 144.5 60.5t56.5 148.5t-56.5 148.5t-144.5 60.5h-83v-418zM20 289v138h351v-138h-351z" />
    <glyph glyph-name="dcroat" unicode="&#x111;" horiz-adv-x="613" 
d="M264 -11q-97 0 -164.5 77t-67.5 184t67.5 184t164.5 77q86 0 136 -61v300h151v-750h-151v50q-50 -61 -136 -61zM298 126q51 0 82.5 35t31.5 89t-31.5 89t-82.5 35t-82.5 -35t-31.5 -89t31.5 -89t82.5 -35zM610 564h-343v96h343v-96z" />
    <glyph glyph-name="Emacron" unicode="&#x112;" horiz-adv-x="571" 
d="M75 0v710h450v-152h-291v-127h231v-152h-231v-127h291v-152h-450zM125 787v104h348v-104h-348z" />
    <glyph glyph-name="emacron" unicode="&#x113;" horiz-adv-x="596" 
d="M297 -11q-116 0 -190.5 74t-74.5 188q0 112 75.5 186t189.5 74q55 0 103.5 -19t86 -55t58.5 -93t19 -129h-385q4 -41 36 -68.5t90 -27.5q33 0 60 13.5t36 33.5h158q-24 -79 -96 -128t-166 -49zM293 391q-43 0 -71.5 -22t-38.5 -58h214q-11 41 -40.5 60.5t-63.5 19.5z
M128 606v104h348v-104h-348z" />
    <glyph glyph-name="Ebreve" unicode="&#x114;" horiz-adv-x="571" 
d="M75 0v710h450v-152h-291v-127h231v-152h-231v-127h291v-152h-450zM299 747q-76 0 -127 49.5t-51 130.5h86q0 -45 26 -69t66 -24t66 24t26 69h86q0 -81 -51 -130.5t-127 -49.5z" />
    <glyph glyph-name="ebreve" unicode="&#x115;" horiz-adv-x="596" 
d="M297 -11q-116 0 -190.5 74t-74.5 188q0 112 75.5 186t189.5 74q55 0 103.5 -19t86 -55t58.5 -93t19 -129h-385q4 -41 36 -68.5t90 -27.5q33 0 60 13.5t36 33.5h158q-24 -79 -96 -128t-166 -49zM293 391q-43 0 -71.5 -22t-38.5 -58h214q-11 41 -40.5 60.5t-63.5 19.5z
M302 552q-76 0 -127 49.5t-51 128.5v20h86v-20q0 -44 26 -68t66 -24t66 24t26 68v20h86v-20q0 -79 -51 -128.5t-127 -49.5z" />
    <glyph glyph-name="Edotaccent" unicode="&#x116;" horiz-adv-x="571" 
d="M75 0v710h450v-152h-291v-127h231v-152h-231v-127h291v-152h-450zM299 768q-33 0 -57 24t-24 56q0 34 23.5 57.5t57.5 23.5q33 0 56.5 -23.5t23.5 -57.5q0 -32 -23.5 -56t-56.5 -24z" />
    <glyph glyph-name="edotaccent" unicode="&#x117;" horiz-adv-x="596" 
d="M297 -11q-116 0 -190.5 74t-74.5 188q0 112 75.5 186t189.5 74q55 0 103.5 -19t86 -55t58.5 -93t19 -129h-385q4 -41 36 -68.5t90 -27.5q33 0 60 13.5t36 33.5h158q-24 -79 -96 -128t-166 -49zM293 391q-43 0 -71.5 -22t-38.5 -58h214q-11 41 -40.5 60.5t-63.5 19.5z
M302 572q-33 0 -57 23.5t-24 55.5q0 34 23.5 57.5t57.5 23.5q33 0 56.5 -23.5t23.5 -57.5q0 -32 -23.5 -55.5t-56.5 -23.5z" />
    <glyph glyph-name="Eogonek" unicode="&#x118;" horiz-adv-x="571" 
d="M75 0v710h450v-152h-291v-127h231v-152h-231v-127h291v-152h-450zM417 -219q-53 0 -84 28.5t-31 74.5q0 68 64 116h159q-39 -15 -62 -36.5t-23 -45.5q0 -23 36 -23q31 0 49 14v-99q-39 -29 -108 -29z" />
    <glyph glyph-name="eogonek" unicode="&#x119;" horiz-adv-x="596" 
d="M401 166h158q-6 -18 -34 -68q-65 -115 -65 -169q0 -19 12 -31t33 -12q22 0 44 14v-90q-39 -29 -104 -29q-53 0 -84 29t-31 75q0 51 47 114q-39 -10 -80 -10q-116 0 -190.5 74t-74.5 188q0 112 75.5 186t189.5 74q55 0 103.5 -19t86 -55t58.5 -93t19 -129h-385
q4 -41 36 -68.5t90 -27.5q33 0 60 13.5t36 33.5zM293 391q-43 0 -71.5 -22t-38.5 -58h214q-11 41 -40.5 60.5t-63.5 19.5z" />
    <glyph glyph-name="Ecaron" unicode="&#x11a;" horiz-adv-x="571" 
d="M75 0v710h450v-152h-291v-127h231v-152h-231v-127h291v-152h-450zM299 762l-176 68v118l176 -68l176 68v-118z" />
    <glyph glyph-name="ecaron" unicode="&#x11b;" horiz-adv-x="596" 
d="M297 -11q-116 0 -190.5 74t-74.5 188q0 112 75.5 186t189.5 74q55 0 103.5 -19t86 -55t58.5 -93t19 -129h-385q4 -41 36 -68.5t90 -27.5q33 0 60 13.5t36 33.5h158q-24 -79 -96 -128t-166 -49zM293 391q-43 0 -71.5 -22t-38.5 -58h214q-11 41 -40.5 60.5t-63.5 19.5z
M302 541l-178 97v118l178 -97l178 97v-118z" />
    <glyph glyph-name="Gcircumflex" unicode="&#x11c;" horiz-adv-x="802" 
d="M411 -12q-163 0 -269 106t-106 261t106 261t267 106q111 0 204 -60t130 -162h-183q-53 68 -151 68q-96 0 -154.5 -61t-58.5 -152t59 -152t156 -61q157 0 184 139h-204v149h369q13 -109 -9.5 -195.5t-72 -139t-117.5 -80t-150 -27.5zM233 762v118l176 68l176 -68v-118
l-176 68z" />
    <glyph glyph-name="gcircumflex" unicode="&#x11d;" horiz-adv-x="615" 
d="M298 -219q-105 0 -171.5 54.5t-72.5 137.5h147q23 -67 101 -67q42 0 71 26.5t29 76.5v59q-18 -27 -54.5 -44t-81.5 -17q-96 0 -165 73.5t-69 178.5t69 178.5t165 73.5q45 0 81.5 -17t54.5 -44v50h151v-469q0 -67 -21.5 -117t-58 -78t-80.5 -41.5t-95 -13.5zM299 144
q47 0 81 32t34 83t-34 83t-81 32t-81 -32t-34 -83t34 -83t81 -32zM311 756l178 -97v-118l-178 97l-178 -97v118z" />
    <glyph glyph-name="Gbreve" unicode="&#x11e;" horiz-adv-x="802" 
d="M411 -12q-163 0 -269 106t-106 261t106 261t267 106q111 0 204 -60t130 -162h-183q-53 68 -151 68q-96 0 -154.5 -61t-58.5 -152t59 -152t156 -61q157 0 184 139h-204v149h369q13 -109 -9.5 -195.5t-72 -139t-117.5 -80t-150 -27.5zM409 747q-76 0 -127 49.5t-51 130.5
h86q0 -45 26 -69t66 -24t66 24t26 69h86q0 -81 -51 -130.5t-127 -49.5z" />
    <glyph glyph-name="gbreve" unicode="&#x11f;" horiz-adv-x="615" 
d="M298 -219q-105 0 -171.5 54.5t-72.5 137.5h147q23 -67 101 -67q42 0 71 26.5t29 76.5v59q-18 -27 -54.5 -44t-81.5 -17q-96 0 -165 73.5t-69 178.5t69 178.5t165 73.5q45 0 81.5 -17t54.5 -44v50h151v-469q0 -67 -21.5 -117t-58 -78t-80.5 -41.5t-95 -13.5zM299 144
q47 0 81 32t34 83t-34 83t-81 32t-81 -32t-34 -83t34 -83t81 -32zM311 552q-76 0 -127 49.5t-51 128.5v20h86v-20q0 -44 26 -68t66 -24t66 24t26 68v20h86v-20q0 -79 -51 -128.5t-127 -49.5z" />
    <glyph glyph-name="Gdotaccent" unicode="&#x120;" horiz-adv-x="802" 
d="M411 -12q-163 0 -269 106t-106 261t106 261t267 106q111 0 204 -60t130 -162h-183q-53 68 -151 68q-96 0 -154.5 -61t-58.5 -152t59 -152t156 -61q157 0 184 139h-204v149h369q13 -109 -9.5 -195.5t-72 -139t-117.5 -80t-150 -27.5zM409 768q-33 0 -57 24t-24 56
q0 34 23.5 57.5t57.5 23.5q33 0 56.5 -23.5t23.5 -57.5q0 -32 -23.5 -56t-56.5 -24z" />
    <glyph glyph-name="gdotaccent" unicode="&#x121;" horiz-adv-x="615" 
d="M298 -219q-105 0 -171.5 54.5t-72.5 137.5h147q23 -67 101 -67q42 0 71 26.5t29 76.5v59q-18 -27 -54.5 -44t-81.5 -17q-96 0 -165 73.5t-69 178.5t69 178.5t165 73.5q45 0 81.5 -17t54.5 -44v50h151v-469q0 -67 -21.5 -117t-58 -78t-80.5 -41.5t-95 -13.5zM299 144
q47 0 81 32t34 83t-34 83t-81 32t-81 -32t-34 -83t34 -83t81 -32zM311 572q-33 0 -57 23.5t-24 55.5q0 34 23.5 57.5t57.5 23.5q33 0 56.5 -23.5t23.5 -57.5q0 -32 -23.5 -55.5t-56.5 -23.5z" />
    <glyph glyph-name="uni0122" unicode="&#x122;" horiz-adv-x="802" 
d="M411 -12q-163 0 -269 106t-106 261t106 261t267 106q111 0 204 -60t130 -162h-183q-53 68 -151 68q-96 0 -154.5 -61t-58.5 -152t59 -152t156 -61q157 0 184 139h-204v149h369q13 -109 -9.5 -195.5t-72 -139t-117.5 -80t-150 -27.5zM334 -316l44 96q-21 9 -35 28.5
t-14 45.5q0 33 23 56t57 23q33 0 56.5 -23t23.5 -56q0 -27 -16 -52l-75 -118h-64z" />
    <glyph glyph-name="uni0123" unicode="&#x123;" horiz-adv-x="615" 
d="M298 -219q-105 0 -171.5 54.5t-72.5 137.5h147q23 -67 101 -67q42 0 71 26.5t29 76.5v59q-18 -27 -54.5 -44t-81.5 -17q-96 0 -165 73.5t-69 178.5t69 178.5t165 73.5q45 0 81.5 -17t54.5 -44v50h151v-469q0 -67 -21.5 -117t-58 -78t-80.5 -41.5t-95 -13.5zM299 144
q47 0 81 32t34 83t-34 83t-81 32t-81 -32t-34 -83t34 -83t81 -32zM311 572q-33 0 -56.5 23.5t-23.5 55.5q0 27 16 52l75 118h64l-44 -96q21 -9 35 -28.5t14 -45.5q0 -33 -23.5 -56t-56.5 -23z" />
    <glyph glyph-name="Hcircumflex" unicode="&#x124;" horiz-adv-x="754" 
d="M75 0v710h159v-278h286v278h159v-710h-159v281h-286v-281h-159zM201 762v118l176 68l176 -68v-118l-176 68z" />
    <glyph glyph-name="hcircumflex" unicode="&#x125;" horiz-adv-x="602" 
d="M213 0h-151v750h151v-301q43 62 139 62q91 0 142.5 -61t51.5 -161v-289h-151v263q0 111 -81 111q-45 0 -73 -33t-28 -98v-243zM157 762v118l176 68l176 -68v-118l-176 68z" />
    <glyph glyph-name="Hbar" unicode="&#x126;" horiz-adv-x="790" 
d="M93 0v710h159v-278h286v278h159v-710h-159v281h-286v-281h-159zM21 518v108h748v-108h-748z" />
    <glyph glyph-name="hbar" unicode="&#x127;" horiz-adv-x="602" 
d="M213 0h-151v750h151v-301q43 62 139 62q91 0 142.5 -61t51.5 -161v-289h-151v263q0 111 -81 111q-45 0 -73 -33t-28 -98v-243zM346 564h-343v96h343v-96z" />
    <glyph glyph-name="Itilde" unicode="&#x128;" horiz-adv-x="309" 
d="M75 0v710h159v-710h-159zM-38 776l4 28q8 55 42.5 86t78.5 31q35 0 78 -23.5t55 -23.5q19 0 28 11.5t16 36.5h83l-4 -28q-8 -55 -43 -86t-79 -31q-35 0 -78 23.5t-54 23.5q-19 0 -28.5 -11t-16.5 -37h-82z" />
    <glyph glyph-name="itilde" unicode="&#x129;" horiz-adv-x="275" 
d="M62 0v500h151v-500h-151zM-55 565l4 28q8 55 42.5 86t78.5 31q35 0 78 -23.5t55 -23.5q19 0 28 11.5t16 36.5h83l-4 -28q-8 -54 -43 -85.5t-78 -31.5q-35 0 -78 23.5t-55 23.5q-19 0 -28 -11.5t-16 -36.5h-83z" />
    <glyph glyph-name="Imacron" unicode="&#x12a;" horiz-adv-x="309" 
d="M75 0v710h159v-710h-159zM-19 787v104h348v-104h-348z" />
    <glyph glyph-name="imacron" unicode="&#x12b;" horiz-adv-x="275" 
d="M62 0v500h151v-500h-151zM-36 606v104h348v-104h-348z" />
    <glyph glyph-name="Ibreve" unicode="&#x12c;" horiz-adv-x="309" 
d="M75 0v710h159v-710h-159zM155 747q-76 0 -127 49.5t-51 130.5h86q0 -45 26 -69t66 -24t66 24t26 69h86q0 -81 -51 -130.5t-127 -49.5z" />
    <glyph glyph-name="ibreve" unicode="&#x12d;" horiz-adv-x="275" 
d="M62 0v500h151v-500h-151zM138 552q-76 0 -127 49.5t-51 128.5v20h86v-20q0 -44 26 -68t66 -24t66 24t26 68v20h86v-20q0 -79 -51 -128.5t-127 -49.5z" />
    <glyph glyph-name="Iogonek" unicode="&#x12e;" horiz-adv-x="309" 
d="M75 0v710h159v-710h-159zM126 -219q-53 0 -84 28.5t-31 74.5q0 68 64 116h159q-39 -15 -62 -36.5t-23 -45.5q0 -23 36 -23q31 0 49 14v-99q-39 -29 -108 -29z" />
    <glyph glyph-name="iogonek" unicode="&#x12f;" horiz-adv-x="275" 
d="M137 568q-38 0 -66 27.5t-28 66.5t28 66.5t66 27.5q40 0 67.5 -27.5t27.5 -66.5t-27.5 -66.5t-67.5 -27.5zM62 0v500h151v-500h-151zM109 -219q-53 0 -82 28.5t-29 75.5q0 67 64 115h151q-85 -33 -85 -86q0 -28 36 -28q31 0 49 14v-90q-39 -29 -104 -29z" />
    <glyph glyph-name="Idotaccent" unicode="&#x130;" horiz-adv-x="309" 
d="M75 0v710h159v-710h-159zM155 768q-33 0 -57 24t-24 56q0 34 23.5 57.5t57.5 23.5q33 0 56.5 -23.5t23.5 -57.5q0 -32 -23.5 -56t-56.5 -24z" />
    <glyph glyph-name="dotlessi" unicode="&#x131;" horiz-adv-x="275" 
d="M62 0v500h151v-500h-151z" />
    <glyph glyph-name="Jcircumflex" unicode="&#x134;" horiz-adv-x="552" 
d="M250 -12q-98 0 -164 55.5t-66 164.5h157q0 -35 20.5 -53.5t52.5 -18.5q31 0 52 18t21 50v506h159v-516q0 -102 -66 -154t-166 -52zM226 762v118l176 68l176 -68v-118l-176 68z" />
    <glyph glyph-name="jcircumflex" unicode="&#x135;" horiz-adv-x="283" 
d="M221 500v-530q0 -91 -56 -140t-139 -49q-40 0 -61 4v128q14 -2 25 -2q41 0 60.5 20t19.5 64v505h151zM147 756l178 -97v-118l-178 97l-178 -97v118z" />
    <glyph glyph-name="uni0136" unicode="&#x136;" horiz-adv-x="700" 
d="M522 0l-289 318v-318h-158v710h158v-297l241 297h195l-280 -341l337 -369h-204zM301 -316l44 96q-21 9 -35 28.5t-14 45.5q0 33 23 56t57 23q33 0 56.5 -23t23.5 -56q0 -27 -16 -52l-75 -118h-64z" />
    <glyph glyph-name="uni0137" unicode="&#x137;" horiz-adv-x="560" 
d="M399 0l-186 223v-223h-151v750h151v-429l146 179h179l-184 -226l228 -274h-183zM231 -316l44 96q-21 9 -35 28.5t-14 45.5q0 33 23 56t57 23q33 0 56.5 -23t23.5 -56q0 -27 -16 -52l-75 -118h-64z" />
    <glyph glyph-name="Lacute" unicode="&#x139;" horiz-adv-x="552" 
d="M75 0v710h159v-558h294v-152h-453zM110 770l70 157h166l-125 -157h-111z" />
    <glyph glyph-name="lacute" unicode="&#x13a;" horiz-adv-x="275" 
d="M62 0v750h151v-750h-151zM88 810l109 190h172l-171 -190h-110z" />
    <glyph glyph-name="uni013B" unicode="&#x13b;" horiz-adv-x="552" 
d="M75 0v710h159v-558h294v-152h-453zM227 -316l44 96q-21 9 -35 28.5t-14 45.5q0 33 23 56t57 23q33 0 56.5 -23t23.5 -56q0 -27 -16 -52l-75 -118h-64z" />
    <glyph glyph-name="uni013C" unicode="&#x13c;" horiz-adv-x="275" 
d="M62 0v750h151v-750h-151zM63 -316l44 96q-21 9 -35 28.5t-14 45.5q0 33 23 56t57 23q33 0 56.5 -23t23.5 -56q0 -27 -16 -52l-75 -118h-64z" />
    <glyph glyph-name="Lcaron" unicode="&#x13d;" horiz-adv-x="554" 
d="M75 0v710h159v-558h294v-152h-453zM296 590l20 160h151l-69 -160h-102z" />
    <glyph glyph-name="lcaron" unicode="&#x13e;" horiz-adv-x="275" 
d="M62 0v750h151v-750h-151zM229 590l20 160h151l-69 -160h-102z" />
    <glyph glyph-name="Ldot" unicode="&#x13f;" horiz-adv-x="560" 
d="M75 0v710h159v-558h294v-152h-453zM425 351q-34 0 -57.5 23.5t-23.5 56.5q0 34 23.5 57.5t57.5 23.5q33 0 56.5 -23.5t23.5 -57.5q0 -33 -23.5 -56.5t-56.5 -23.5z" />
    <glyph glyph-name="ldot" unicode="&#x140;" horiz-adv-x="410" 
d="M62 0v750h151v-750h-151zM343 293q-34 0 -57.5 23.5t-23.5 56.5q0 34 23.5 57.5t57.5 23.5q33 0 56.5 -23.5t23.5 -57.5q0 -33 -23.5 -56.5t-56.5 -23.5z" />
    <glyph glyph-name="Lslash" unicode="&#x141;" horiz-adv-x="583" 
d="M106 0v710h159v-558h294v-152h-453zM394 418l-360 -205v124l360 206v-125z" />
    <glyph glyph-name="lslash" unicode="&#x142;" horiz-adv-x="358" 
d="M104 0v750h151v-750h-151zM328 401l-297 -170v115l297 171v-116z" />
    <glyph glyph-name="Nacute" unicode="&#x143;" horiz-adv-x="792" 
d="M717 0h-137l-346 439v-439h-159v710h137l345 -439v439h160v-710zM348 770l70 157h166l-125 -157h-111z" />
    <glyph glyph-name="nacute" unicode="&#x144;" horiz-adv-x="602" 
d="M62 0v500h151v-51q43 62 139 62q91 0 142.5 -61t51.5 -161v-289h-151v263q0 111 -81 111q-45 0 -73 -33t-28 -98v-243h-151zM253 560l109 190h172l-171 -190h-110z" />
    <glyph glyph-name="uni0145" unicode="&#x145;" horiz-adv-x="792" 
d="M717 0h-137l-346 439v-439h-159v710h137l345 -439v439h160v-710zM319 -316l44 96q-21 9 -35 28.5t-14 45.5q0 33 23 56t57 23q33 0 56.5 -23t23.5 -56q0 -27 -16 -52l-75 -118h-64z" />
    <glyph glyph-name="uni0146" unicode="&#x146;" horiz-adv-x="602" 
d="M62 0v500h151v-51q43 62 139 62q91 0 142.5 -61t51.5 -161v-289h-151v263q0 111 -81 111q-45 0 -73 -33t-28 -98v-243h-151zM228 -316l44 96q-21 9 -35 28.5t-14 45.5q0 33 23 56t57 23q33 0 56.5 -23t23.5 -56q0 -27 -16 -52l-75 -118h-64z" />
    <glyph glyph-name="Ncaron" unicode="&#x147;" horiz-adv-x="792" 
d="M717 0h-137l-346 439v-439h-159v710h137l345 -439v439h160v-710zM396 762l-176 68v118l176 -68l176 68v-118z" />
    <glyph glyph-name="ncaron" unicode="&#x148;" horiz-adv-x="602" 
d="M62 0v500h151v-51q43 62 139 62q91 0 142.5 -61t51.5 -161v-289h-151v263q0 111 -81 111q-45 0 -73 -33t-28 -98v-243h-151zM303 541l-178 97v118l178 -97l178 97v-118z" />
    <glyph glyph-name="Eng" unicode="&#x14a;" horiz-adv-x="792" 
d="M717 710v-740q0 -92 -56.5 -140.5t-145.5 -48.5q-53 0 -89 11v146q27 -8 55 -8q42 0 59 19.5t17 64.5v15l-323 410v-439h-159v710h137l345 -439v439h160z" />
    <glyph glyph-name="eng" unicode="&#x14b;" horiz-adv-x="602" 
d="M62 0v500h151v-51q43 62 139 62q91 0 142.5 -61t51.5 -161v-315q0 -92 -56.5 -140.5t-144.5 -48.5q-39 0 -67 5v133q18 -2 31 -2q46 0 66 19.5t20 64.5v258q0 111 -81 111q-45 0 -73 -33t-28 -98v-243h-151z" />
    <glyph glyph-name="Omacron" unicode="&#x14c;" horiz-adv-x="804" 
d="M402 142q86 0 146 63t60 150t-60 150t-146 63t-146.5 -63t-60.5 -150t60.5 -150t146.5 -63zM402 -12q-152 0 -259.5 107.5t-107.5 259.5t107.5 259.5t259.5 107.5t259.5 -108t107.5 -259t-107.5 -259t-259.5 -108zM228 787v104h348v-104h-348z" />
    <glyph glyph-name="omacron" unicode="&#x14d;" horiz-adv-x="588" 
d="M294 -11q-109 0 -186 75.5t-77 185.5t77 185.5t186 75.5t186 -75.5t77 -185.5t-77 -185.5t-186 -75.5zM294 130q48 0 79.5 33t31.5 87t-31.5 87t-79.5 33t-79.5 -33t-31.5 -87t31.5 -87t79.5 -33zM120 606v104h348v-104h-348z" />
    <glyph glyph-name="Obreve" unicode="&#x14e;" horiz-adv-x="804" 
d="M402 142q86 0 146 63t60 150t-60 150t-146 63t-146.5 -63t-60.5 -150t60.5 -150t146.5 -63zM402 -12q-152 0 -259.5 107.5t-107.5 259.5t107.5 259.5t259.5 107.5t259.5 -108t107.5 -259t-107.5 -259t-259.5 -108zM402 747q-76 0 -127 49.5t-51 130.5h86q0 -45 26 -69
t66 -24t66 24t26 69h86q0 -81 -51 -130.5t-127 -49.5z" />
    <glyph glyph-name="obreve" unicode="&#x14f;" horiz-adv-x="588" 
d="M294 -11q-109 0 -186 75.5t-77 185.5t77 185.5t186 75.5t186 -75.5t77 -185.5t-77 -185.5t-186 -75.5zM294 130q48 0 79.5 33t31.5 87t-31.5 87t-79.5 33t-79.5 -33t-31.5 -87t31.5 -87t79.5 -33zM294 552q-76 0 -127 49.5t-51 128.5v20h86v-20q0 -44 26 -68t66 -24
t66 24t26 68v20h86v-20q0 -79 -51 -128.5t-127 -49.5z" />
    <glyph glyph-name="Ohungarumlaut" unicode="&#x150;" horiz-adv-x="804" 
d="M402 142q86 0 146 63t60 150t-60 150t-146 63t-146.5 -63t-60.5 -150t60.5 -150t146.5 -63zM402 -12q-152 0 -259.5 107.5t-107.5 259.5t107.5 259.5t259.5 107.5t259.5 -108t107.5 -259t-107.5 -259t-259.5 -108zM452 770l66 157h156l-127 -157h-95zM266 770l65 157h157
l-127 -157h-95z" />
    <glyph glyph-name="ohungarumlaut" unicode="&#x151;" horiz-adv-x="588" 
d="M294 -11q-109 0 -186 75.5t-77 185.5t77 185.5t186 75.5t186 -75.5t77 -185.5t-77 -185.5t-186 -75.5zM294 130q48 0 79.5 33t31.5 87t-31.5 87t-79.5 33t-79.5 -33t-31.5 -87t31.5 -87t79.5 -33zM329 560l66 190h156l-127 -190h-95zM143 560l65 190h157l-127 -190h-95z
" />
    <glyph glyph-name="OE" unicode="&#x152;" horiz-adv-x="1104" 
d="M402 142q86 0 146 63t60 150t-60 150t-146 63t-146.5 -63t-60.5 -150t60.5 -150t146.5 -63zM608 0v56q-72 -68 -206 -68q-152 0 -259.5 107.5t-107.5 259.5t107.5 259.5t259.5 107.5q134 0 206 -68v56h450v-152h-290v-127h230v-152h-230v-127h290v-152h-450z" />
    <glyph glyph-name="oe" unicode="&#x153;" horiz-adv-x="969" 
d="M294 -11q-109 0 -186 75.5t-77 185.5t77 185.5t186 75.5q107 0 185 -76q78 76 191 76q55 0 103.5 -19t86 -55t58.5 -93t19 -129h-385q4 -41 36 -68.5t90 -27.5q33 0 60 13.5t36 33.5h158q-24 -79 -96 -128t-166 -49q-118 0 -192 74q-76 -74 -184 -74zM294 130
q48 0 79.5 33t31.5 87t-31.5 87t-79.5 33t-79.5 -33t-31.5 -87t31.5 -87t79.5 -33zM666 391q-43 0 -71.5 -22t-38.5 -58h214q-11 41 -40.5 60.5t-63.5 19.5z" />
    <glyph glyph-name="Racute" unicode="&#x154;" horiz-adv-x="662" 
d="M75 0v710h280q98 0 159 -62t61 -152q0 -134 -139 -183l251 -313h-191l-237 293h-25v-293h-159zM234 428h102q36 0 58.5 19t22.5 49q0 32 -22.5 50t-58.5 18h-102v-136zM253 770l70 157h166l-125 -157h-111z" />
    <glyph glyph-name="racute" unicode="&#x155;" horiz-adv-x="403" 
d="M62 0v500h151v-75q12 34 45 57.5t74 23.5q26 0 49 -6v-153q-35 12 -67 12q-48 0 -74.5 -33.5t-26.5 -88.5v-237h-151zM171 560l109 190h172l-171 -190h-110z" />
    <glyph glyph-name="uni0156" unicode="&#x156;" horiz-adv-x="662" 
d="M75 0v710h280q98 0 159 -62t61 -152q0 -134 -139 -183l251 -313h-191l-237 293h-25v-293h-159zM234 428h102q36 0 58.5 19t22.5 49q0 32 -22.5 50t-58.5 18h-102v-136zM289 -316l44 96q-21 9 -35 28.5t-14 45.5q0 33 23 56t57 23q33 0 56.5 -23t23.5 -56q0 -27 -16 -52
l-75 -118h-64z" />
    <glyph glyph-name="uni0157" unicode="&#x157;" horiz-adv-x="403" 
d="M62 0v500h151v-75q12 34 45 57.5t74 23.5q26 0 49 -6v-153q-35 12 -67 12q-48 0 -74.5 -33.5t-26.5 -88.5v-237h-151zM62 -316l44 96q-21 9 -35 28.5t-14 45.5q0 33 23 56t57 23q33 0 56.5 -23t23.5 -56q0 -27 -16 -52l-75 -118h-64z" />
    <glyph glyph-name="Rcaron" unicode="&#x158;" horiz-adv-x="662" 
d="M75 0v710h280q98 0 159 -62t61 -152q0 -134 -139 -183l251 -313h-191l-237 293h-25v-293h-159zM234 428h102q36 0 58.5 19t22.5 49q0 32 -22.5 50t-58.5 18h-102v-136zM301 762l-176 68v118l176 -68l176 68v-118z" />
    <glyph glyph-name="rcaron" unicode="&#x159;" horiz-adv-x="403" 
d="M62 0v500h151v-75q12 34 45 57.5t74 23.5q26 0 49 -6v-153q-35 12 -67 12q-48 0 -74.5 -33.5t-26.5 -88.5v-237h-151zM221 541l-178 97v118l178 -97l178 97v-118z" />
    <glyph glyph-name="Sacute" unicode="&#x15a;" horiz-adv-x="602" 
d="M312 -12q-124 0 -200 72t-80 168h159q8 -44 40.5 -68.5t80.5 -24.5q41 0 66.5 17t25.5 46q0 51 -93 77l-69 18q-89 24 -140 78t-52 135q0 99 66.5 157.5t177.5 58.5q112 0 182 -67.5t74 -154.5h-158q-11 39 -38 57t-60 18q-37 0 -60 -15t-24 -43t20.5 -46t65.5 -30
l81 -21q89 -24 138.5 -79t49.5 -138q0 -92 -70 -153.5t-183 -61.5zM249 770l70 157h166l-125 -157h-111z" />
    <glyph glyph-name="sacute" unicode="&#x15b;" horiz-adv-x="510" 
d="M264 -11q-100 0 -164.5 49.5t-68.5 124.5h159q2 -29 24 -44.5t55 -15.5q56 0 56 32q0 16 -12.5 24.5t-44.5 17.5l-101 26q-126 33 -126 157q0 67 56 109t153 42q86 0 143.5 -42.5t63.5 -119.5h-152q-9 46 -58 46q-51 0 -51 -32q0 -28 51 -39l91 -24q75 -20 108 -58
t33 -99q0 -69 -60 -111.5t-155 -42.5zM205 560l109 190h172l-171 -190h-110z" />
    <glyph glyph-name="Scircumflex" unicode="&#x15c;" horiz-adv-x="602" 
d="M312 -12q-124 0 -200 72t-80 168h159q8 -44 40.5 -68.5t80.5 -24.5q41 0 66.5 17t25.5 46q0 51 -93 77l-69 18q-89 24 -140 78t-52 135q0 99 66.5 157.5t177.5 58.5q112 0 182 -67.5t74 -154.5h-158q-11 39 -38 57t-60 18q-37 0 -60 -15t-24 -43t20.5 -46t65.5 -30
l81 -21q89 -24 138.5 -79t49.5 -138q0 -92 -70 -153.5t-183 -61.5zM121 762v118l176 68l176 -68v-118l-176 68z" />
    <glyph glyph-name="scircumflex" unicode="&#x15d;" horiz-adv-x="510" 
d="M264 -11q-100 0 -164.5 49.5t-68.5 124.5h159q2 -29 24 -44.5t55 -15.5q56 0 56 32q0 16 -12.5 24.5t-44.5 17.5l-101 26q-126 33 -126 157q0 67 56 109t153 42q86 0 143.5 -42.5t63.5 -119.5h-152q-9 46 -58 46q-51 0 -51 -32q0 -28 51 -39l91 -24q75 -20 108 -58
t33 -99q0 -69 -60 -111.5t-155 -42.5zM255 756l178 -97v-118l-178 97l-178 -97v118z" />
    <glyph glyph-name="Scedilla" unicode="&#x15e;" horiz-adv-x="602" 
d="M312 -12q-124 0 -200 72t-80 168h159q8 -44 40.5 -68.5t80.5 -24.5q41 0 66.5 17t25.5 46q0 51 -93 77l-69 18q-89 24 -140 78t-52 135q0 99 66.5 157.5t177.5 58.5q112 0 182 -67.5t74 -154.5h-158q-11 39 -38 57t-60 18q-37 0 -60 -15t-24 -43t20.5 -46t65.5 -30
l81 -21q89 -24 138.5 -79t49.5 -138q0 -92 -70 -153.5t-183 -61.5zM188 -204v65q30 -17 76 -17q60 0 60 31q0 27 -43 27q-21 0 -40 -10l-36 19l56 92h64l-30 -50q30 7 49 7q37 0 61.5 -21t24.5 -58q0 -44 -42 -72t-96 -28q-64 0 -104 15z" />
    <glyph glyph-name="scedilla" unicode="&#x15f;" horiz-adv-x="510" 
d="M264 -11q-100 0 -164.5 49.5t-68.5 124.5h159q2 -29 24 -44.5t55 -15.5q56 0 56 32q0 16 -12.5 24.5t-44.5 17.5l-101 26q-126 33 -126 157q0 67 56 109t153 42q86 0 143.5 -42.5t63.5 -119.5h-152q-9 46 -58 46q-51 0 -51 -32q0 -28 51 -39l91 -24q75 -20 108 -58
t33 -99q0 -69 -60 -111.5t-155 -42.5zM129 -204v65q30 -17 76 -17q60 0 60 31q0 27 -43 27q-21 0 -40 -10l-36 19l56 92h64l-30 -50q30 7 49 7q37 0 61.5 -21t24.5 -58q0 -44 -42 -72t-96 -28q-64 0 -104 15z" />
    <glyph glyph-name="Scaron" unicode="&#x160;" horiz-adv-x="602" 
d="M312 -12q-124 0 -200 72t-80 168h159q8 -44 40.5 -68.5t80.5 -24.5q41 0 66.5 17t25.5 46q0 51 -93 77l-69 18q-89 24 -140 78t-52 135q0 99 66.5 157.5t177.5 58.5q112 0 182 -67.5t74 -154.5h-158q-11 39 -38 57t-60 18q-37 0 -60 -15t-24 -43t20.5 -46t65.5 -30
l81 -21q89 -24 138.5 -79t49.5 -138q0 -92 -70 -153.5t-183 -61.5zM297 762l-176 68v118l176 -68l176 68v-118z" />
    <glyph glyph-name="scaron" unicode="&#x161;" horiz-adv-x="510" 
d="M264 -11q-100 0 -164.5 49.5t-68.5 124.5h159q2 -29 24 -44.5t55 -15.5q56 0 56 32q0 16 -12.5 24.5t-44.5 17.5l-101 26q-126 33 -126 157q0 67 56 109t153 42q86 0 143.5 -42.5t63.5 -119.5h-152q-9 46 -58 46q-51 0 -51 -32q0 -28 51 -39l91 -24q75 -20 108 -58
t33 -99q0 -69 -60 -111.5t-155 -42.5zM255 541l-178 97v118l178 -97l178 97v-118z" />
    <glyph glyph-name="uni0162" unicode="&#x162;" horiz-adv-x="568" 
d="M203 0v558h-181v152h524v-152h-183v-558h-160zM209 -316l44 96q-21 9 -35 28.5t-14 45.5q0 33 23 56t57 23q33 0 56.5 -23t23.5 -56q0 -27 -16 -52l-75 -118h-64z" />
    <glyph glyph-name="uni0163" unicode="&#x163;" horiz-adv-x="440" 
d="M317 -6q-88 0 -144.5 48.5t-56.5 140.5v186h-100v131h100v139h151v-139h140v-131h-140v-155q0 -45 20 -65t65 -20q34 0 55 9v-134q-33 -10 -90 -10zM200 -316l44 96q-21 9 -35 28.5t-14 45.5q0 33 23 56t57 23q33 0 56.5 -23t23.5 -56q0 -27 -16 -52l-75 -118h-64z" />
    <glyph glyph-name="Tcaron" unicode="&#x164;" horiz-adv-x="568" 
d="M203 0v558h-181v152h524v-152h-183v-558h-160zM284 762l-176 68v118l176 -68l176 68v-118z" />
    <glyph glyph-name="tcaron" unicode="&#x165;" horiz-adv-x="440" 
d="M317 -6q-88 0 -144.5 48.5t-56.5 140.5v186h-100v131h100v139h151v-139h140v-131h-140v-155q0 -45 20 -65t65 -20q34 0 55 9v-134q-33 -10 -90 -10zM283 550l20 160h151l-69 -160h-102z" />
    <glyph glyph-name="Tbar" unicode="&#x166;" horiz-adv-x="592" 
d="M215 0v558h-181v152h524v-152h-183v-558h-160zM80 287v138h431v-138h-431z" />
    <glyph glyph-name="tbar" unicode="&#x167;" horiz-adv-x="450" 
d="M324 -6q-88 0 -144.5 48.5t-56.5 140.5v186h-100v131h100v139h151v-139h140v-131h-140v-155q0 -45 20 -65t65 -20q34 0 55 9v-134q-33 -10 -90 -10zM23 207v96h391v-96h-391z" />
    <glyph glyph-name="Utilde" unicode="&#x168;" horiz-adv-x="718" 
d="M359 -12q-129 0 -210.5 80.5t-81.5 212.5v429h159v-431q0 -63 36.5 -100t96.5 -37t96.5 37t36.5 100v431h159v-429q0 -132 -81.5 -212.5t-210.5 -80.5zM166 776l4 28q8 55 42.5 86t78.5 31q35 0 78 -23.5t55 -23.5q19 0 28 11.5t16 36.5h83l-4 -28q-8 -55 -43 -86
t-79 -31q-35 0 -78 23.5t-54 23.5q-19 0 -28.5 -11t-16.5 -37h-82z" />
    <glyph glyph-name="utilde" unicode="&#x169;" horiz-adv-x="591" 
d="M245 -11q-91 0 -140 61t-49 165v285h151v-259q0 -115 77 -115q94 0 94 131v243h151v-500h-151v51q-43 -62 -133 -62zM100 565l4 28q8 55 42.5 86t78.5 31q35 0 78 -23.5t55 -23.5q19 0 28 11.5t16 36.5h83l-4 -28q-8 -54 -43 -85.5t-78 -31.5q-35 0 -78 23.5t-55 23.5
q-19 0 -28 -11.5t-16 -36.5h-83z" />
    <glyph glyph-name="Umacron" unicode="&#x16a;" horiz-adv-x="718" 
d="M359 -12q-129 0 -210.5 80.5t-81.5 212.5v429h159v-431q0 -63 36.5 -100t96.5 -37t96.5 37t36.5 100v431h159v-429q0 -132 -81.5 -212.5t-210.5 -80.5zM185 787v104h348v-104h-348z" />
    <glyph glyph-name="umacron" unicode="&#x16b;" horiz-adv-x="591" 
d="M245 -11q-91 0 -140 61t-49 165v285h151v-259q0 -115 77 -115q94 0 94 131v243h151v-500h-151v51q-43 -62 -133 -62zM119 606v104h348v-104h-348z" />
    <glyph glyph-name="Ubreve" unicode="&#x16c;" horiz-adv-x="718" 
d="M359 -12q-129 0 -210.5 80.5t-81.5 212.5v429h159v-431q0 -63 36.5 -100t96.5 -37t96.5 37t36.5 100v431h159v-429q0 -132 -81.5 -212.5t-210.5 -80.5zM359 747q-76 0 -127 49.5t-51 130.5h86q0 -45 26 -69t66 -24t66 24t26 69h86q0 -81 -51 -130.5t-127 -49.5z" />
    <glyph glyph-name="ubreve" unicode="&#x16d;" horiz-adv-x="591" 
d="M245 -11q-91 0 -140 61t-49 165v285h151v-259q0 -115 77 -115q94 0 94 131v243h151v-500h-151v51q-43 -62 -133 -62zM293 552q-76 0 -127 49.5t-51 128.5v20h86v-20q0 -44 26 -68t66 -24t66 24t26 68v20h86v-20q0 -79 -51 -128.5t-127 -49.5z" />
    <glyph glyph-name="Uring" unicode="&#x16e;" horiz-adv-x="718" 
d="M359 -12q-129 0 -210.5 80.5t-81.5 212.5v429h159v-431q0 -63 36.5 -100t96.5 -37t96.5 37t36.5 100v431h159v-429q0 -132 -81.5 -212.5t-210.5 -80.5zM360 753q-50 0 -86 35.5t-36 84.5t36 84.5t86 35.5t86 -35.5t36 -84.5t-36 -84.5t-86 -35.5zM360 818q23 0 39.5 16
t16.5 39t-16.5 39t-39.5 16t-39.5 -16t-16.5 -39t16.5 -39t39.5 -16z" />
    <glyph glyph-name="uring" unicode="&#x16f;" horiz-adv-x="591" 
d="M245 -11q-91 0 -140 61t-49 165v285h151v-259q0 -115 77 -115q94 0 94 131v243h151v-500h-151v51q-43 -62 -133 -62zM294 543q-50 0 -86 35.5t-36 84.5t36 84.5t86 35.5t86 -35.5t36 -84.5t-36 -84.5t-86 -35.5zM294 608q23 0 39.5 16t16.5 39t-16.5 39t-39.5 16
t-39.5 -16t-16.5 -39t16.5 -39t39.5 -16z" />
    <glyph glyph-name="Uhungarumlaut" unicode="&#x170;" horiz-adv-x="718" 
d="M359 -12q-129 0 -210.5 80.5t-81.5 212.5v429h159v-431q0 -63 36.5 -100t96.5 -37t96.5 37t36.5 100v431h159v-429q0 -132 -81.5 -212.5t-210.5 -80.5zM409 770l66 157h156l-127 -157h-95zM223 770l65 157h157l-127 -157h-95z" />
    <glyph glyph-name="uhungarumlaut" unicode="&#x171;" horiz-adv-x="591" 
d="M245 -11q-91 0 -140 61t-49 165v285h151v-259q0 -115 77 -115q94 0 94 131v243h151v-500h-151v51q-43 -62 -133 -62zM328 560l66 190h156l-127 -190h-95zM142 560l65 190h157l-127 -190h-95z" />
    <glyph glyph-name="Uogonek" unicode="&#x172;" horiz-adv-x="718" 
d="M412 -219q-53 0 -84 28.5t-31 74.5q0 59 45 105q-125 6 -200 86t-75 206v429h159v-431q0 -63 36.5 -100t96.5 -37t96.5 37t36.5 100v431h159v-429q0 -143 -103 -233q-14 -12 -33 -28.5t-27.5 -23.5t-20 -17.5t-15.5 -16t-9 -13t-6.5 -13.5t-1.5 -13q0 -28 36 -28
q31 0 49 14v-99q-39 -29 -108 -29z" />
    <glyph glyph-name="uogonek" unicode="&#x173;" horiz-adv-x="591" 
d="M245 -11q-91 0 -140 61t-49 165v285h151v-259q0 -115 77 -115q94 0 94 131v243h151v-500h-151v51q-43 -62 -133 -62zM425 -219q-53 0 -82 28.5t-29 75.5q0 67 64 115h151q-85 -33 -85 -86q0 -28 36 -28q31 0 49 14v-90q-39 -29 -104 -29z" />
    <glyph glyph-name="Wcircumflex" unicode="&#x174;" horiz-adv-x="965" 
d="M634 0l-151 347l-151 -347h-151l-164 710h170l97 -450l199 462l200 -462l97 450h170l-165 -710h-151zM307 762v118l176 68l176 -68v-118l-176 68z" />
    <glyph glyph-name="wcircumflex" unicode="&#x175;" horiz-adv-x="810" 
d="M491 0l-86 264l-85 -264h-152l-165 500h162l87 -307l95 307h116l95 -307l87 307h162l-164 -500h-152zM407 756l178 -97v-118l-178 97l-178 -97v118z" />
    <glyph glyph-name="Ycircumflex" unicode="&#x176;" horiz-adv-x="694" 
d="M267 0v299l-259 411h185l153 -256l155 256h185l-259 -412v-298h-160zM171 762v118l176 68l176 -68v-118l-176 68z" />
    <glyph glyph-name="ycircumflex" unicode="&#x177;" horiz-adv-x="576" 
d="M267 -209h-163l104 238l-208 471h165l124 -309l123 309h166zM291 756l178 -97v-118l-178 97l-178 -97v118z" />
    <glyph glyph-name="Ydieresis" unicode="&#x178;" horiz-adv-x="694" 
d="M267 0v299l-259 411h185l153 -256l155 256h185l-259 -412v-298h-160zM229 768q-33 0 -57 24t-24 56q0 34 23.5 57.5t57.5 23.5q32 0 55.5 -24t23.5 -57q0 -32 -23.5 -56t-55.5 -24zM466 768q-33 0 -56.5 24t-23.5 56q0 34 23.5 57.5t56.5 23.5t56.5 -23.5t23.5 -57.5
q0 -32 -23.5 -56t-56.5 -24z" />
    <glyph glyph-name="Zacute" unicode="&#x179;" horiz-adv-x="626" 
d="M39 0v109l326 449h-321v152h537v-109l-327 -449h333v-152h-548zM265 770l70 157h166l-125 -157h-111z" />
    <glyph glyph-name="zacute" unicode="&#x17a;" horiz-adv-x="502" 
d="M41 0v118l219 246h-216v136h412v-119l-219 -245h227v-136h-423zM200 560l109 190h172l-171 -190h-110z" />
    <glyph glyph-name="Zdotaccent" unicode="&#x17b;" horiz-adv-x="626" 
d="M39 0v109l326 449h-321v152h537v-109l-327 -449h333v-152h-548zM313 768q-33 0 -57 24t-24 56q0 34 23.5 57.5t57.5 23.5q33 0 56.5 -23.5t23.5 -57.5q0 -32 -23.5 -56t-56.5 -24z" />
    <glyph glyph-name="zdotaccent" unicode="&#x17c;" horiz-adv-x="502" 
d="M41 0v118l219 246h-216v136h412v-119l-219 -245h227v-136h-423zM250 572q-33 0 -57 23.5t-24 55.5q0 34 23.5 57.5t57.5 23.5q33 0 56.5 -23.5t23.5 -57.5q0 -32 -23.5 -55.5t-56.5 -23.5z" />
    <glyph glyph-name="Zcaron" unicode="&#x17d;" horiz-adv-x="626" 
d="M39 0v109l326 449h-321v152h537v-109l-327 -449h333v-152h-548zM313 762l-176 68v118l176 -68l176 68v-118z" />
    <glyph glyph-name="zcaron" unicode="&#x17e;" horiz-adv-x="502" 
d="M41 0v118l219 246h-216v136h412v-119l-219 -245h227v-136h-423zM250 541l-178 97v118l178 -97l178 97v-118z" />
    <glyph glyph-name="uni018F" unicode="&#x18f;" horiz-adv-x="806" 
d="M403 -12q-158 0 -262.5 107t-104.5 260v52h569q-23 79 -76.5 120t-126.5 41q-107 0 -158 -68h-184q35 100 134 161t209 61q152 0 259.5 -106t107.5 -261q0 -153 -104.5 -260t-262.5 -107zM405 142q66 0 116.5 32t73.5 93h-382q54 -125 192 -125z" />
    <glyph glyph-name="uni0218" unicode="&#x218;" horiz-adv-x="602" 
d="M312 -12q-124 0 -200 72t-80 168h159q8 -44 40.5 -68.5t80.5 -24.5q41 0 66.5 17t25.5 46q0 51 -93 77l-69 18q-89 24 -140 78t-52 135q0 99 66.5 157.5t177.5 58.5q112 0 182 -67.5t74 -154.5h-158q-11 39 -38 57t-60 18q-37 0 -60 -15t-24 -43t20.5 -46t65.5 -30
l81 -21q89 -24 138.5 -79t49.5 -138q0 -92 -70 -153.5t-183 -61.5zM234 -316l44 96q-21 9 -35 28.5t-14 45.5q0 33 23 56t57 23q33 0 56.5 -23t23.5 -56q0 -27 -16 -52l-75 -118h-64z" />
    <glyph glyph-name="uni0219" unicode="&#x219;" horiz-adv-x="510" 
d="M264 -11q-100 0 -164.5 49.5t-68.5 124.5h159q2 -29 24 -44.5t55 -15.5q56 0 56 32q0 16 -12.5 24.5t-44.5 17.5l-101 26q-126 33 -126 157q0 67 56 109t153 42q86 0 143.5 -42.5t63.5 -119.5h-152q-9 46 -58 46q-51 0 -51 -32q0 -28 51 -39l91 -24q75 -20 108 -58
t33 -99q0 -69 -60 -111.5t-155 -42.5zM170 -316l44 96q-21 9 -35 28.5t-14 45.5q0 33 23 56t57 23q33 0 56.5 -23t23.5 -56q0 -27 -16 -52l-75 -118h-64z" />
    <glyph glyph-name="uni021A" unicode="&#x21a;" horiz-adv-x="568" 
d="M203 0v558h-181v152h524v-152h-183v-558h-160zM209 -316l44 96q-21 9 -35 28.5t-14 45.5q0 33 23 56t57 23q33 0 56.5 -23t23.5 -56q0 -27 -16 -52l-75 -118h-64z" />
    <glyph glyph-name="uni021B" unicode="&#x21b;" horiz-adv-x="440" 
d="M317 -6q-88 0 -144.5 48.5t-56.5 140.5v186h-100v131h100v139h151v-139h140v-131h-140v-155q0 -45 20 -65t65 -20q34 0 55 9v-134q-33 -10 -90 -10zM200 -316l44 96q-21 9 -35 28.5t-14 45.5q0 33 23 56t57 23q33 0 56.5 -23t23.5 -56q0 -27 -16 -52l-75 -118h-64z" />
    <glyph glyph-name="uni0232" unicode="&#x232;" horiz-adv-x="694" 
d="M267 0v299l-259 411h185l153 -256l155 256h185l-259 -412v-298h-160zM173 787v104h348v-104h-348z" />
    <glyph glyph-name="uni0233" unicode="&#x233;" horiz-adv-x="576" 
d="M267 -209h-163l104 238l-208 471h165l124 -309l123 309h166zM117 606v104h348v-104h-348z" />
    <glyph glyph-name="uni0237" unicode="&#x237;" horiz-adv-x="283" 
d="M221 500v-530q0 -91 -56 -140t-139 -49q-40 0 -61 4v128q14 -2 25 -2q41 0 60.5 20t19.5 64v505h151z" />
    <glyph glyph-name="uni0259" unicode="&#x259;" horiz-adv-x="597" 
d="M303 511q113 0 187 -74t74 -188q0 -117 -72.5 -188.5t-192.5 -71.5q-55 0 -103.5 19t-86 55t-58.5 93t-19 129h385q-4 41 -34.5 68.5t-81.5 27.5q-73 0 -106 -47h-158q24 79 97 128t169 49zM303 109q44 0 72 21.5t37 58.5h-214q11 -41 41 -60.5t64 -19.5z" />
    <glyph glyph-name="uni02BB" unicode="&#x2bb;" horiz-adv-x="282" 
d="M48 526l116 184h86l-74 -155q27 -10 46 -37t19 -61q0 -44 -31.5 -75.5t-75.5 -31.5t-75.5 31.5t-31.5 75.5q0 36 21 69z" />
    <glyph glyph-name="uni02BC" unicode="&#x2bc;" horiz-adv-x="287" 
d="M244 546l-115 -184h-87l75 154q-27 10 -46 37.5t-19 61.5q0 44 31.5 75.5t75.5 31.5t75.5 -31.5t31.5 -75.5q0 -35 -22 -69z" />
    <glyph glyph-name="circumflex" unicode="&#x2c6;" 
d="M0 756l178 -97v-118l-178 97l-178 -97v118z" />
    <glyph glyph-name="caron" unicode="&#x2c7;" 
d="M0 541l-178 97v118l178 -97l178 97v-118z" />
    <glyph glyph-name="breve" unicode="&#x2d8;" 
d="M0 552q-76 0 -127 49.5t-51 128.5v20h86v-20q0 -44 26 -68t66 -24t66 24t26 68v20h86v-20q0 -79 -51 -128.5t-127 -49.5z" />
    <glyph glyph-name="dotaccent" unicode="&#x2d9;" 
d="M0 572q-33 0 -57 23.5t-24 55.5q0 34 23.5 57.5t57.5 23.5q33 0 56.5 -23.5t23.5 -57.5q0 -32 -23.5 -55.5t-56.5 -23.5z" />
    <glyph glyph-name="ring" unicode="&#x2da;" 
d="M1 543q-50 0 -86 35.5t-36 84.5t36 84.5t86 35.5t86 -35.5t36 -84.5t-36 -84.5t-86 -35.5zM1 608q23 0 39.5 16t16.5 39t-16.5 39t-39.5 16t-39.5 -16t-16.5 -39t16.5 -39t39.5 -16z" />
    <glyph glyph-name="ogonek" unicode="&#x2db;" 
d="M3 -219q-53 0 -82 28.5t-29 75.5q0 67 64 115h151q-85 -33 -85 -86q0 -28 36 -28q31 0 49 14v-90q-39 -29 -104 -29z" />
    <glyph glyph-name="tilde" unicode="&#x2dc;" 
d="M-193 565l4 28q8 55 42.5 86t78.5 31q35 0 78 -23.5t55 -23.5q19 0 28 11.5t16 36.5h83l-4 -28q-8 -54 -43 -85.5t-78 -31.5q-35 0 -78 23.5t-55 23.5q-19 0 -28 -11.5t-16 -36.5h-83z" />
    <glyph glyph-name="hungarumlaut" unicode="&#x2dd;" 
d="M-18 560l66 190h156l-127 -190h-95zM-204 560l65 190h157l-127 -190h-95z" />
    <glyph glyph-name="uni0401" unicode="&#x401;" horiz-adv-x="571" 
d="M75 0v710h450v-152h-291v-127h231v-152h-231v-127h291v-152h-450zM181 768q-33 0 -57 24t-24 56q0 34 23.5 57.5t57.5 23.5q32 0 55.5 -24t23.5 -57q0 -32 -23.5 -56t-55.5 -24zM418 768q-33 0 -56.5 24t-23.5 56q0 34 23.5 57.5t56.5 23.5t56.5 -23.5t23.5 -57.5
q0 -32 -23.5 -56t-56.5 -24z" />
    <glyph glyph-name="uni0402" unicode="&#x402;" horiz-adv-x="778" 
d="M523 449q103 0 164 -63.5t61 -170.5q0 -76 -35 -129t-85.5 -75.5t-109.5 -22.5q-35 0 -77 8v142q28 -4 62 -4q88 0 88 81q0 37 -26 59.5t-73 22.5q-61 0 -98 -36.5t-37 -98.5v-162h-160v558h-175v152h546v-152h-211v-174q24 28 68.5 46.5t97.5 18.5z" />
    <glyph glyph-name="uni0403" unicode="&#x403;" horiz-adv-x="523" 
d="M500 710v-152h-265v-558h-160v710h425zM240 770l70 157h166l-125 -157h-111z" />
    <glyph glyph-name="uni0404" unicode="&#x404;" horiz-adv-x="777" 
d="M409 -12q-161 0 -267 106t-106 261t106 261t267 106q119 0 217.5 -70.5t127.5 -185.5h-173q-23 49 -70 75.5t-102 26.5q-76 0 -130 -39.5t-73 -104.5h286v-140h-286q21 -65 74 -103.5t129 -38.5q55 0 102 26.5t70 75.5h173q-29 -115 -127.5 -185.5t-217.5 -70.5z" />
    <glyph glyph-name="uni0405" unicode="&#x405;" horiz-adv-x="602" 
d="M312 -12q-124 0 -200 72t-80 168h159q8 -44 40.5 -68.5t80.5 -24.5q41 0 66.5 17t25.5 46q0 51 -93 77l-69 18q-89 24 -140 78t-52 135q0 99 66.5 157.5t177.5 58.5q112 0 182 -67.5t74 -154.5h-158q-11 39 -38 57t-60 18q-37 0 -60 -15t-24 -43t20.5 -46t65.5 -30
l81 -21q89 -24 138.5 -79t49.5 -138q0 -92 -70 -153.5t-183 -61.5z" />
    <glyph glyph-name="uni0406" unicode="&#x406;" horiz-adv-x="309" 
d="M75 0v710h159v-710h-159z" />
    <glyph glyph-name="uni0407" unicode="&#x407;" horiz-adv-x="309" 
d="M75 0v710h159v-710h-159zM59 782q-33 0 -56.5 23.5t-23.5 55.5q0 33 23.5 56.5t56.5 23.5q32 0 55.5 -23.5t23.5 -56.5q0 -32 -23.5 -55.5t-55.5 -23.5zM246 782q-32 0 -55.5 23.5t-23.5 55.5q0 33 23.5 56.5t55.5 23.5q33 0 56.5 -23.5t23.5 -56.5q0 -32 -23.5 -55.5
t-56.5 -23.5z" />
    <glyph glyph-name="uni0408" unicode="&#x408;" horiz-adv-x="552" 
d="M250 -12q-98 0 -164 55.5t-66 164.5h157q0 -35 20.5 -53.5t52.5 -18.5q31 0 52 18t21 50v506h159v-516q0 -102 -66 -154t-166 -52z" />
    <glyph glyph-name="uni0409" unicode="&#x409;" horiz-adv-x="1048" 
d="M864 217q0 64 -90 64h-112v-131h112q90 0 90 67zM145 710h517v-278h114q111 0 177 -58.5t66 -152.5q0 -93 -69.5 -157t-173.5 -64h-274v558h-197v-315q0 -123 -55.5 -189t-158.5 -66q-36 0 -71 5v147q16 -3 48 -3q39 0 58 26t19 98v449z" />
    <glyph glyph-name="uni040A" unicode="&#x40a;" horiz-adv-x="1045" 
d="M75 0v710h160v-278h275v278h160v-278h104q111 0 177 -58.5t66 -152.5q0 -93 -69.5 -157t-173.5 -64h-264v281h-275v-281h-160zM772 281h-102v-131h102q90 0 90 67q0 64 -90 64z" />
    <glyph glyph-name="uni040B" unicode="&#x40b;" horiz-adv-x="788" 
d="M197 558h-175v152h546v-152h-211v-174q60 65 162 65q99 0 163 -63.5t64 -166.5v-219h-160v177q0 62 -29 91t-78 29t-85.5 -38t-36.5 -107v-152h-160v558z" />
    <glyph glyph-name="uni040C" unicode="&#x40c;" horiz-adv-x="700" 
d="M522 0l-289 318v-318h-158v710h158v-297l241 297h195l-280 -341l337 -369h-204zM304 770l70 157h166l-125 -157h-111z" />
    <glyph glyph-name="uni040E" unicode="&#x40e;" horiz-adv-x="731" 
d="M131 -5v148q25 -4 66 -4q64 0 94 39l-275 532h182l184 -356l175 356h182l-264 -529q-52 -103 -111 -148t-144 -45q-48 0 -89 7zM379 747q-76 0 -127 49.5t-51 130.5h96q0 -42 22 -67.5t60 -25.5t60 25.5t22 67.5h96q0 -81 -51 -130.5t-127 -49.5z" />
    <glyph glyph-name="uni040F" unicode="&#x40f;" horiz-adv-x="724" 
d="M434 0v-148h-143v148h-216v710h160v-558h254v558h160v-710h-215z" />
    <glyph glyph-name="uni0410" unicode="&#x410;" horiz-adv-x="750" 
d="M-1 0l304 710h144l304 -710h-166l-63 150h-294l-63 -150h-166zM375 501l-90 -213h179z" />
    <glyph glyph-name="uni0411" unicode="&#x411;" horiz-adv-x="640" 
d="M235 452h135q105 0 174 -64t69 -162t-69 -162t-174 -64h-295v710h478v-152h-318v-106zM458 226q0 37 -25 58.5t-65 21.5h-133v-159h133q40 0 65 21t25 58z" />
    <glyph glyph-name="uni0412" unicode="&#x412;" horiz-adv-x="635" 
d="M75 0v710h267q87 0 149 -61.5t62 -149.5q0 -71 -51 -122q46 -24 73.5 -68t27.5 -100q0 -88 -62 -148.5t-154 -60.5h-312zM234 146h140q32 0 53 20.5t21 50.5t-21.5 50.5t-53.5 20.5h-139v-142zM234 423h90q32 0 53 20t21 50t-21 51t-53 21h-90v-142z" />
    <glyph glyph-name="uni0413" unicode="&#x413;" horiz-adv-x="523" 
d="M500 710v-152h-265v-558h-160v710h425z" />
    <glyph glyph-name="uni0414" unicode="&#x414;" horiz-adv-x="779" 
d="M606 -148v148h-435v-148h-143v300h12q90 0 90 190v368h527v-558h92v-300h-143zM290 558v-229q0 -109 -36 -177h243v406h-207z" />
    <glyph glyph-name="uni0415" unicode="&#x415;" horiz-adv-x="571" 
d="M75 0v710h450v-152h-291v-127h231v-152h-231v-127h291v-152h-450z" />
    <glyph glyph-name="uni0416" unicode="&#x416;" horiz-adv-x="1035" 
d="M858 0l-261 307v-307h-160v306l-260 -306h-196l304 361l-273 349h187l238 -307v307h160v-308l239 308h187l-274 -349l305 -361h-196z" />
    <glyph glyph-name="uni0417" unicode="&#x417;" horiz-adv-x="592" 
d="M206 509h-158q21 109 91.5 161t162.5 52q101 0 165 -51.5t64 -136.5q0 -96 -67 -153q91 -58 91 -170q0 -102 -72.5 -162.5t-179.5 -60.5q-108 0 -189 62t-92 173h159q24 -85 120 -85q49 0 74 23t25 62q0 34 -23 54.5t-63 20.5h-85v134h75q35 0 54 19.5t19 52.5
q0 32 -20.5 52t-57.5 20q-69 0 -93 -67z" />
    <glyph glyph-name="uni0418" unicode="&#x418;" horiz-adv-x="792" 
d="M212 0h-137v710h160v-439l345 439h137v-710h-159v439z" />
    <glyph glyph-name="uni0419" unicode="&#x419;" horiz-adv-x="792" 
d="M212 0h-137v710h160v-439l345 439h137v-710h-159v439zM406 747q-76 0 -127 49.5t-51 130.5h96q0 -42 22 -67.5t60 -25.5t60 25.5t22 67.5h96q0 -81 -51 -130.5t-127 -49.5z" />
    <glyph glyph-name="uni041A" unicode="&#x41a;" horiz-adv-x="700" 
d="M522 0l-289 318v-318h-158v710h158v-297l241 297h195l-280 -341l337 -369h-204z" />
    <glyph glyph-name="uni041B" unicode="&#x41b;" horiz-adv-x="747" 
d="M145 261v449h527v-710h-160v558h-207v-316q0 -121 -55.5 -187t-158.5 -67q-47 2 -71 5v147q15 -3 48 -3q39 0 58 26.5t19 97.5z" />
    <glyph glyph-name="uni041C" unicode="&#x41c;" horiz-adv-x="884" 
d="M75 710h145l221 -306l223 306h145v-710h-160v437l-207 -286l-208 287v-438h-159v710z" />
    <glyph glyph-name="uni041D" unicode="&#x41d;" horiz-adv-x="754" 
d="M75 0v710h159v-278h286v278h159v-710h-159v281h-286v-281h-159z" />
    <glyph glyph-name="uni041E" unicode="&#x41e;" horiz-adv-x="804" 
d="M402 142q86 0 146 63t60 150t-60 150t-146 63t-146.5 -63t-60.5 -150t60.5 -150t146.5 -63zM402 -12q-152 0 -259.5 107.5t-107.5 259.5t107.5 259.5t259.5 107.5t259.5 -108t107.5 -259t-107.5 -259t-259.5 -108z" />
    <glyph glyph-name="uni041F" unicode="&#x41f;" horiz-adv-x="749" 
d="M514 0v558h-279v-558h-160v710h599v-710h-160z" />
    <glyph glyph-name="uni0420" unicode="&#x420;" horiz-adv-x="593" 
d="M566 467q0 -103 -71.5 -172.5t-178.5 -69.5h-82v-225h-159v710h241q107 0 178.5 -70t71.5 -173zM412 467q0 40 -27.5 66.5t-70.5 26.5h-80v-186h80q42 0 70 27t28 66z" />
    <glyph glyph-name="uni0421" unicode="&#x421;" horiz-adv-x="778" 
d="M409 -12q-161 0 -267 106t-106 261t106 261t267 106q119 0 217.5 -70.5t127.5 -185.5h-173q-23 49 -70 75.5t-102 26.5q-96 0 -154.5 -61t-58.5 -152t58.5 -152t154.5 -61q55 0 102 26.5t70 75.5h173q-29 -115 -127.5 -185.5t-217.5 -70.5z" />
    <glyph glyph-name="uni0422" unicode="&#x422;" horiz-adv-x="568" 
d="M203 0v558h-181v152h524v-152h-183v-558h-160z" />
    <glyph glyph-name="uni0423" unicode="&#x423;" horiz-adv-x="731" 
d="M131 -5v148q25 -4 66 -4q64 0 94 39l-275 532h182l184 -356l175 356h182l-264 -529q-52 -103 -111 -148t-144 -45q-48 0 -89 7z" />
    <glyph glyph-name="uni0424" unicode="&#x424;" horiz-adv-x="906" 
d="M533 -30h-160v87q-157 0 -248 78.5t-91 223.5q0 143 91.5 222t247.5 79v80h160v-80q156 0 247.5 -79t91.5 -222q0 -145 -91 -223.5t-248 -78.5v-87zM533 517v-316q178 0 178 159q0 157 -178 157zM373 201v316q-178 0 -178 -157q0 -159 178 -159z" />
    <glyph glyph-name="uni0425" unicode="&#x425;" horiz-adv-x="704" 
d="M177 0h-186l266 359l-250 351h184l161 -228l161 228h184l-249 -351l265 -359h-185l-176 235z" />
    <glyph glyph-name="uni0426" unicode="&#x426;" horiz-adv-x="772" 
d="M649 152h93v-300h-143v148h-524v710h160v-558h254v558h160v-558z" />
    <glyph glyph-name="uni0427" unicode="&#x427;" horiz-adv-x="687" 
d="M612 0h-160v304q-60 -66 -167 -66q-103 0 -172.5 65.5t-69.5 168.5v238h160v-195q0 -123 115 -123q60 0 97 37.5t37 112.5v168h160v-710z" />
    <glyph glyph-name="uni0428" unicode="&#x428;" horiz-adv-x="976" 
d="M75 0v710h160v-558h173v558h160v-558h173v558h160v-710h-826z" />
    <glyph glyph-name="uni0429" unicode="&#x429;" horiz-adv-x="1024" 
d="M851 -148v148h-776v710h160v-558h173v558h160v-558h173v558h160v-558h93v-300h-143z" />
    <glyph glyph-name="uni042A" unicode="&#x42a;" horiz-adv-x="740" 
d="M354 462h114q105 0 174 -65t69 -166q0 -100 -69.5 -165.5t-173.5 -65.5h-274v558h-172v152h332v-248zM354 147h112q41 0 65.5 21.5t24.5 62.5t-25 62.5t-65 21.5h-112v-168z" />
    <glyph glyph-name="uni042B" unicode="&#x42b;" horiz-adv-x="913" 
d="M679 0v710h159v-710h-159zM235 462h114q105 0 174 -65t69 -166q0 -100 -69.5 -165.5t-173.5 -65.5h-274v710h160v-248zM235 147h112q41 0 65.5 21.5t24.5 62.5t-24.5 62.5t-65.5 21.5h-112v-168z" />
    <glyph glyph-name="uni042C" unicode="&#x42c;" horiz-adv-x="621" 
d="M235 462h114q105 0 174 -65t69 -166q0 -100 -69.5 -165.5t-173.5 -65.5h-274v710h160v-248zM235 147h112q41 0 65.5 21.5t24.5 62.5t-24.5 62.5t-65.5 21.5h-112v-168z" />
    <glyph glyph-name="uni042D" unicode="&#x42d;" horiz-adv-x="777" 
d="M368 -12q-119 0 -217.5 70.5t-127.5 185.5h173q23 -49 70 -75.5t102 -26.5q76 0 129 38.5t74 103.5h-286v140h286q-19 65 -73 104.5t-130 39.5q-55 0 -102 -26.5t-70 -75.5h-173q29 115 127.5 185.5t217.5 70.5q161 0 267 -106t106 -261t-106 -261t-267 -106z" />
    <glyph glyph-name="uni042E" unicode="&#x42e;" horiz-adv-x="1080" 
d="M75 0v710h160v-281h102q24 130 120 211.5t230 81.5q153 0 254.5 -104t101.5 -263t-101.5 -263t-254.5 -104q-134 0 -230 81t-120 212h-102v-281h-160zM882 355q0 94 -54.5 153.5t-140.5 59.5t-140.5 -59.5t-54.5 -153.5t54.5 -153.5t140.5 -59.5t140.5 59.5t54.5 153.5z
" />
    <glyph glyph-name="uni042F" unicode="&#x42f;" horiz-adv-x="653" 
d="M418 0v234h-41l-210 -234h-191l236 268q-59 30 -93.5 83t-34.5 121q0 104 66.5 171t176.5 67h251v-710h-160zM238 472q0 -42 25.5 -67.5t64.5 -25.5h90v186h-90q-39 0 -64.5 -25.5t-25.5 -67.5z" />
    <glyph glyph-name="uni0430" unicode="&#x430;" horiz-adv-x="613" 
d="M264 -11q-97 0 -164.5 77t-67.5 184t67.5 184t164.5 77q86 0 136 -61v50h151v-500h-151v50q-50 -61 -136 -61zM298 126q51 0 82.5 35t31.5 89t-31.5 89t-82.5 35t-82.5 -35t-31.5 -89t31.5 -89t82.5 -35z" />
    <glyph glyph-name="uni0431" unicode="&#x431;" horiz-adv-x="601" 
d="M306 -11q-128 0 -194.5 82t-66.5 231v23q0 191 77 280.5t230 117.5l172 31v-143l-139 -25q-82 -15 -128 -49t-55 -98q54 46 133 46q108 0 170.5 -67t62.5 -168q0 -110 -76 -185.5t-186 -75.5zM305 130q49 0 80 30t31 86q0 44 -31 76t-80 32t-79.5 -32t-30.5 -76
q0 -56 30.5 -86t79.5 -30z" />
    <glyph glyph-name="uni0432" unicode="&#x432;" horiz-adv-x="559" 
d="M62 0v500h245q94 0 142 -46.5t48 -107.5q0 -45 -28 -80q60 -46 60 -112q0 -62 -45.5 -108t-138.5 -46h-283zM213 122h121q19 0 32 11.5t13 31.5t-13 31t-32 11h-121v-85zM213 306h91q43 0 43 40t-43 40h-91v-80z" />
    <glyph glyph-name="uni0433" unicode="&#x433;" horiz-adv-x="433" 
d="M62 0v500h353v-131h-202v-369h-151z" />
    <glyph glyph-name="uni0434" unicode="&#x434;" horiz-adv-x="660" 
d="M28 131h13q70 0 70 120v249h439v-369h82v-253h-134v122h-336v-122h-134v253zM262 369v-124q0 -73 -23 -114h160v238h-137z" />
    <glyph glyph-name="uni0435" unicode="&#x435;" horiz-adv-x="596" 
d="M297 -11q-116 0 -190.5 74t-74.5 188q0 112 75.5 186t189.5 74q55 0 103.5 -19t86 -55t58.5 -93t19 -129h-385q4 -41 36 -68.5t90 -27.5q33 0 60 13.5t36 33.5h158q-24 -79 -96 -128t-166 -49zM293 391q-43 0 -71.5 -22t-38.5 -58h214q-11 41 -40.5 60.5t-63.5 19.5z" />
    <glyph glyph-name="uni0436" unicode="&#x436;" horiz-adv-x="836" 
d="M664 0l-170 194v-194h-151v195l-171 -195h-185l224 254l-191 246h173l150 -197v197h151v-196l149 196h173l-191 -246l224 -254h-185z" />
    <glyph glyph-name="uni0437" unicode="&#x437;" horiz-adv-x="509" 
d="M259 -11q-87 0 -154 43t-84 131h156q7 -25 28.5 -38.5t52.5 -12.5q67 1 67 49q0 45 -55 45h-61v100h55q23 0 36.5 11.5t13.5 31.5t-14.5 33t-44.5 13q-56 0 -70 -46h-152q17 85 80.5 123.5t146.5 38.5q98 0 147.5 -47.5t49.5 -102.5q0 -64 -43 -97q63 -39 63 -115
q0 -63 -57 -111.5t-161 -48.5z" />
    <glyph glyph-name="uni0438" unicode="&#x438;" horiz-adv-x="618" 
d="M197 0h-135v500h151v-276l208 276h135v-500h-150v275z" />
    <glyph glyph-name="uni0439" unicode="&#x439;" horiz-adv-x="618" 
d="M197 0h-135v500h151v-276l208 276h135v-500h-150v275zM318 552q-76 0 -127 49.5t-51 128.5v20h96v-20q0 -44 23 -68t59 -24t59 24t23 68v20h96v-20q0 -79 -51 -128.5t-127 -49.5z" />
    <glyph glyph-name="uni043A" unicode="&#x43a;" horiz-adv-x="559" 
d="M387 0l-174 194v-194h-151v500h151v-197l155 197h177l-198 -247l231 -253h-191z" />
    <glyph glyph-name="uni043B" unicode="&#x43b;" horiz-adv-x="617" 
d="M89 -11q-46 0 -70 5v128q22 -2 35 -2q32 0 47 18t15 66v296h439v-500h-151v369h-137v-181q0 -99 -52 -149t-126 -50z" />
    <glyph glyph-name="uni043C" unicode="&#x43c;" horiz-adv-x="694" 
d="M62 500h126l159 -197l159 197h126v-500h-151v269l-134 -165l-134 165v-269h-151v500z" />
    <glyph glyph-name="uni043D" unicode="&#x43d;" horiz-adv-x="614" 
d="M62 0v500h151v-184h188v184h151v-500h-151v185h-188v-185h-151z" />
    <glyph glyph-name="uni043E" unicode="&#x43e;" horiz-adv-x="588" 
d="M294 -11q-109 0 -186 75.5t-77 185.5t77 185.5t186 75.5t186 -75.5t77 -185.5t-77 -185.5t-186 -75.5zM294 130q48 0 79.5 33t31.5 87t-31.5 87t-79.5 33t-79.5 -33t-31.5 -87t31.5 -87t79.5 -33z" />
    <glyph glyph-name="uni043F" unicode="&#x43f;" horiz-adv-x="604" 
d="M62 0v500h480v-500h-151v369h-178v-369h-151z" />
    <glyph glyph-name="uni0440" unicode="&#x440;" horiz-adv-x="613" 
d="M213 -209h-151v709h151v-50q16 24 53 42.5t83 18.5q97 0 164.5 -77t67.5 -184t-67.5 -184t-164.5 -77q-46 0 -83 18.5t-53 42.5v-259zM315 126q51 0 82.5 35t31.5 89t-31.5 89t-82.5 35t-82.5 -35t-31.5 -89t31.5 -89t82.5 -35z" />
    <glyph glyph-name="uni0441" unicode="&#x441;" horiz-adv-x="578" 
d="M295 -11q-113 0 -188 75.5t-75 185.5t75 185.5t188 75.5q103 0 170 -57t88 -149h-156q-33 70 -102 70q-49 0 -80 -33.5t-31 -91.5t31 -91.5t80 -33.5q69 0 102 70h156q-21 -92 -88 -149t-170 -57z" />
    <glyph glyph-name="uni0442" unicode="&#x442;" horiz-adv-x="463" 
d="M151 0v369h-133v131h427v-131h-143v-369h-151z" />
    <glyph glyph-name="uni0443" unicode="&#x443;" horiz-adv-x="576" 
d="M578 500l-244 -556q-37 -84 -87 -123t-127 -39q-44 0 -69 4v128q30 -2 49 -2q55 0 86 68l22 49l-208 471h165l129 -295l118 295h166z" />
    <glyph glyph-name="uni0444" unicode="&#x444;" horiz-adv-x="773" 
d="M462 -209h-151v198h-12q-124 0 -195.5 76t-71.5 185t71.5 185t195.5 76h12v239h151v-239h12q124 0 195.5 -76t71.5 -185t-71.5 -185t-195.5 -76h-12v-198zM474 373h-12v-246h12q52 0 83.5 35.5t31.5 87.5t-31.5 87.5t-83.5 35.5zM311 127v246h-12q-52 0 -83.5 -35.5
t-31.5 -87.5t31.5 -87.5t83.5 -35.5h12z" />
    <glyph glyph-name="uni0445" unicode="&#x445;" horiz-adv-x="577" 
d="M395 0l-106 136l-106 -136h-181l192 242l-190 258h178l106 -146l106 146h180l-190 -258l191 -242h-180z" />
    <glyph glyph-name="uni0446" unicode="&#x446;" horiz-adv-x="652" 
d="M627 131v-253h-134v122h-431v500h151v-369h179v369h151v-369h84z" />
    <glyph glyph-name="uni0447" unicode="&#x447;" horiz-adv-x="569" 
d="M507 0h-151v194q-16 -20 -52.5 -34t-82.5 -14q-82 0 -134.5 50t-52.5 150v154h151v-136q0 -86 80 -86q38 0 64.5 25t26.5 78v119h151v-500z" />
    <glyph glyph-name="uni0448" unicode="&#x448;" horiz-adv-x="837" 
d="M62 0v500h151v-369h130v369h151v-369h130v369h151v-500h-713z" />
    <glyph glyph-name="uni0449" unicode="&#x449;" horiz-adv-x="886" 
d="M859 131v-253h-134v122h-663v500h151v-369h130v369h151v-369h130v369h151v-369h84z" />
    <glyph glyph-name="uni044A" unicode="&#x44a;" horiz-adv-x="587" 
d="M140 0v369h-121v131h272v-140h88q39 0 71 -11.5t52.5 -30t34.5 -42.5t20 -47.5t6 -46.5q0 -29 -10 -59.5t-30.5 -58.5t-58 -46t-85.5 -18h-239zM291 232v-104h69q62 0 62 53q0 51 -62 51h-69z" />
    <glyph glyph-name="uni044B" unicode="&#x44b;" horiz-adv-x="763" 
d="M550 0v500h151v-500h-151zM62 0v500h151v-140h88q39 0 71 -11.5t52.5 -30t34.5 -42.5t20 -47.5t6 -46.5q0 -29 -10 -59.5t-30.5 -58.5t-58 -46t-85.5 -18h-239zM213 232v-104h69q62 0 62 53q0 51 -62 51h-69z" />
    <glyph glyph-name="uni044C" unicode="&#x44c;" horiz-adv-x="509" 
d="M62 0v500h151v-140h88q39 0 71 -11.5t52.5 -30t34.5 -42.5t20 -47.5t6 -46.5q0 -29 -10 -59.5t-30.5 -58.5t-58 -46t-85.5 -18h-239zM213 232v-104h69q62 0 62 53q0 51 -62 51h-69z" />
    <glyph glyph-name="uni044D" unicode="&#x44d;" horiz-adv-x="579" 
d="M284 -11q-103 0 -170 57t-88 149h156q33 -70 102 -70q39 0 67 22t39 61h-150v96h146q-27 71 -102 71q-69 0 -102 -70h-156q21 92 88 149t170 57q113 0 188 -75.5t75 -185.5t-75 -185.5t-188 -75.5z" />
    <glyph glyph-name="uni044E" unicode="&#x44e;" horiz-adv-x="825" 
d="M537 -11q-91 0 -159 55t-89 140h-76v-184h-151v500h151v-185h75q21 86 89 141t160 55q109 0 182.5 -76t73.5 -185t-73.5 -185t-182.5 -76zM537 130q47 0 75.5 33t28.5 87t-28.5 87t-75.5 33q-48 0 -76 -32.5t-28 -86.5t28.5 -87.5t75.5 -33.5z" />
    <glyph glyph-name="uni044F" unicode="&#x44f;" horiz-adv-x="546" 
d="M-13 0l165 190q-83 46 -83 139q0 76 49 123.5t135 47.5h231v-500h-151v151h-43l-135 -151h-168zM262 271h71v109h-72q-51 0 -51 -58q0 -23 15.5 -37t36.5 -14z" />
    <glyph glyph-name="uni0451" unicode="&#x451;" horiz-adv-x="596" 
d="M297 -11q-116 0 -190.5 74t-74.5 188q0 112 75.5 186t189.5 74q55 0 103.5 -19t86 -55t58.5 -93t19 -129h-385q4 -41 36 -68.5t90 -27.5q33 0 60 13.5t36 33.5h158q-24 -79 -96 -128t-166 -49zM293 391q-43 0 -71.5 -22t-38.5 -58h214q-11 41 -40.5 60.5t-63.5 19.5z
M179 572q-33 0 -57 23.5t-24 55.5q0 34 23.5 57.5t57.5 23.5q32 0 55.5 -24t23.5 -57q0 -32 -23.5 -55.5t-55.5 -23.5zM416 572q-33 0 -56.5 23.5t-23.5 55.5q0 34 23.5 57.5t56.5 23.5t56.5 -23.5t23.5 -57.5q0 -32 -23.5 -55.5t-56.5 -23.5z" />
    <glyph glyph-name="uni0452" unicode="&#x452;" horiz-adv-x="602" 
d="M351 -219q-40 0 -61 4v128q14 -2 25 -2q41 0 60.5 20t19.5 64v268q0 111 -81 111q-45 0 -73 -33t-28 -98v-243h-151v575h-91v96h91v79h151v-79h164v-96h-164v-126q43 62 139 62q91 0 142.5 -61t51.5 -161v-319q0 -91 -56 -140t-139 -49z" />
    <glyph glyph-name="uni0453" unicode="&#x453;" horiz-adv-x="433" 
d="M62 0v500h353v-131h-202v-369h-151zM188 560l109 190h172l-171 -190h-110z" />
    <glyph glyph-name="uni0454" unicode="&#x454;" horiz-adv-x="579" 
d="M295 -11q-113 0 -188 75.5t-75 185.5t75 185.5t188 75.5q103 0 170 -57t88 -149h-156q-33 70 -102 70q-75 0 -102 -71h146v-96h-150q11 -39 39 -61t67 -22q69 0 102 70h156q-21 -92 -88 -149t-170 -57z" />
    <glyph glyph-name="uni0455" unicode="&#x455;" horiz-adv-x="510" 
d="M264 -11q-100 0 -164.5 49.5t-68.5 124.5h159q2 -29 24 -44.5t55 -15.5q56 0 56 32q0 16 -12.5 24.5t-44.5 17.5l-101 26q-126 33 -126 157q0 67 56 109t153 42q86 0 143.5 -42.5t63.5 -119.5h-152q-9 46 -58 46q-51 0 -51 -32q0 -28 51 -39l91 -24q75 -20 108 -58
t33 -99q0 -69 -60 -111.5t-155 -42.5z" />
    <glyph glyph-name="uni0456" unicode="&#x456;" horiz-adv-x="275" 
d="M137 568q-38 0 -66 27.5t-28 66.5t28 66.5t66 27.5q40 0 67.5 -27.5t27.5 -66.5t-27.5 -66.5t-67.5 -27.5zM62 0v500h151v-500h-151z" />
    <glyph glyph-name="uni0457" unicode="&#x457;" horiz-adv-x="275" 
d="M62 0v500h151v-500h-151zM44 572q-33 0 -56.5 23.5t-23.5 55.5q0 33 23.5 56.5t56.5 23.5q32 0 55.5 -23.5t23.5 -56.5q0 -32 -23.5 -55.5t-55.5 -23.5zM231 572q-32 0 -55.5 23.5t-23.5 55.5q0 33 23.5 56.5t55.5 23.5q33 0 56.5 -23.5t23.5 -56.5q0 -32 -23.5 -55.5
t-56.5 -23.5z" />
    <glyph glyph-name="uni0458" unicode="&#x458;" horiz-adv-x="283" 
d="M221 500v-530q0 -91 -56 -140t-139 -49q-40 0 -61 4v128q14 -2 25 -2q41 0 60.5 20t19.5 64v505h151zM145 568q-38 0 -66 27.5t-28 66.5t28 66.5t66 27.5q40 0 67.5 -27.5t27.5 -66.5t-27.5 -66.5t-67.5 -27.5z" />
    <glyph glyph-name="uni0459" unicode="&#x459;" horiz-adv-x="838" 
d="M553 191v-66h82q38 0 38 32q0 34 -38 34h-82zM116 500h437v-184h98q82 0 122.5 -47t40.5 -107q0 -27 -9 -54t-27 -52t-51 -40.5t-76 -15.5h-249v369h-135v-181q0 -99 -52 -149t-126 -50q-46 0 -70 5v128q22 -2 35 -2q32 0 47 18t15 66v296z" />
    <glyph glyph-name="uni045A" unicode="&#x45a;" horiz-adv-x="827" 
d="M662 157q0 34 -38 34h-82v-66h82q38 0 38 32zM803 162q0 -27 -9 -54t-27 -52t-51 -40.5t-76 -15.5h-249v185h-178v-185h-151v500h151v-184h178v184h151v-184h98q82 0 122.5 -47t40.5 -107z" />
    <glyph glyph-name="uni045B" unicode="&#x45b;" horiz-adv-x="602" 
d="M62 575h-91v96h91v79h151v-79h164v-96h-164v-126q43 62 139 62q91 0 142.5 -61t51.5 -161v-289h-151v263q0 111 -81 111q-45 0 -73 -33t-28 -98v-243h-151v575z" />
    <glyph glyph-name="uni045C" unicode="&#x45c;" horiz-adv-x="559" 
d="M387 0l-174 194v-194h-151v500h151v-197l155 197h177l-198 -247l231 -253h-191zM251 560l109 190h172l-171 -190h-110z" />
    <glyph glyph-name="uni045E" unicode="&#x45e;" horiz-adv-x="576" 
d="M578 500l-244 -556q-37 -84 -87 -123t-127 -39q-44 0 -69 4v128q30 -2 49 -2q55 0 86 68l22 49l-208 471h165l129 -295l118 295h166zM289 552q-76 0 -127 49.5t-51 128.5v20h96v-20q0 -44 23 -68t59 -24t59 24t23 68v20h96v-20q0 -79 -51 -128.5t-127 -49.5z" />
    <glyph glyph-name="uni045F" unicode="&#x45f;" horiz-adv-x="604" 
d="M542 0h-173v-122h-134v122h-173v500h151v-368h178v368h151v-500z" />
    <glyph glyph-name="uni0462" unicode="&#x462;" horiz-adv-x="762" 
d="M369 442h114q105 0 174 -62t69 -159q0 -96 -69 -158.5t-174 -62.5h-274v511h-180v140h180v59h160v-59h216v-140h-216v-69zM369 147h112q41 0 65.5 18.5t24.5 55.5t-24.5 55.5t-65.5 18.5h-112v-148z" />
    <glyph glyph-name="uni0463" unicode="&#x463;" horiz-adv-x="565" 
d="M16 404v96h95v250h151v-250h161v-96h-161v-44h88q39 0 71 -11.5t52.5 -30t34.5 -42.5t20 -47.5t6 -46.5q0 -29 -10 -59.5t-30.5 -58.5t-58 -46t-85.5 -18h-239v404h-95zM331 232h-69v-104h69q62 0 62 53q0 51 -62 51z" />
    <glyph glyph-name="uni0472" unicode="&#x472;" horiz-adv-x="804" 
d="M402 142q86 0 146 63t60 150t-60 150t-146 63t-146.5 -63t-60.5 -150t60.5 -150t146.5 -63zM402 -12q-152 0 -259.5 107.5t-107.5 259.5t107.5 259.5t259.5 107.5t259.5 -108t107.5 -259t-107.5 -259t-259.5 -108zM492 408q69 0 121 36v-138q-52 -36 -121 -36
q-34 0 -93.5 18t-88.5 18q-69 0 -121 -36v138q52 36 121 36q44 0 99 -18t83 -18z" />
    <glyph glyph-name="uni0473" unicode="&#x473;" horiz-adv-x="588" 
d="M294 -11q-109 0 -186 75.5t-77 185.5t77 185.5t186 75.5t186 -75.5t77 -185.5t-77 -185.5t-186 -75.5zM294 130q48 0 79.5 33t31.5 87t-31.5 87t-79.5 33t-79.5 -33t-31.5 -87t31.5 -87t79.5 -33zM107 297v-92h374v92h-374z" />
    <glyph glyph-name="uni0474" unicode="&#x474;" horiz-adv-x="793" 
d="M174 710l189 -474l122 307q39 99 87.5 139t122.5 40q45 0 79 -10v-149q-33 5 -57.5 4t-45 -20t-36.5 -61l-200 -486h-143l-291 710h173z" />
    <glyph glyph-name="uni0475" unicode="&#x475;" horiz-adv-x="610" 
d="M-1 500h167l122 -304l59 152q38 92 80 127.5t109 35.5q34 0 61 -9v-129q-40 5 -61 -6t-38 -48l-140 -319h-140z" />
    <glyph glyph-name="uni0490" unicode="&#x490;" horiz-adv-x="523" 
d="M500 710v-152h-265v-558h-160v710h425zM500 710h-143v148h143v-148z" />
    <glyph glyph-name="uni0491" unicode="&#x491;" horiz-adv-x="433" 
d="M62 0v500h353v-131h-202v-369h-151zM415 500h-134v122h134v-122z" />
    <glyph glyph-name="uni0492" unicode="&#x492;" horiz-adv-x="558" 
d="M534 710v-152h-265v-558h-160v710h425zM20 285v140h407v-140h-407z" />
    <glyph glyph-name="uni0493" unicode="&#x493;" horiz-adv-x="470" 
d="M99 0v500h353v-131h-202v-369h-151zM350 189h-330v96h330v-96z" />
    <glyph glyph-name="uni0496" unicode="&#x496;" horiz-adv-x="1063" 
d="M858 0l-261 307v-307h-160v306l-260 -306h-196l304 361l-273 349h187l238 -307v307h160v-308l239 308h187l-274 -349l305 -361h-196zM913 -148v148h-23v152h166v-300h-143z" />
    <glyph glyph-name="uni0497" unicode="&#x497;" horiz-adv-x="858" 
d="M664 0l-170 194v-194h-151v195l-171 -195h-185l224 254l-191 246h173l150 -197v197h151v-196l149 196h173l-191 -246l224 -254h-185zM716 -122v122h-22v131h156v-253h-134z" />
    <glyph glyph-name="uni049A" unicode="&#x49a;" horiz-adv-x="730" 
d="M522 0l-289 318v-318h-158v710h158v-297l241 297h195l-280 -341l337 -369h-204zM584 -148v148h-23v152h166v-300h-143z" />
    <glyph glyph-name="uni049B" unicode="&#x49b;" horiz-adv-x="583" 
d="M387 0l-174 194v-194h-151v500h151v-197l155 197h177l-198 -247l231 -253h-191zM447 -122v122h-22v131h156v-253h-134z" />
    <glyph glyph-name="uni04A2" unicode="&#x4a2;" horiz-adv-x="803" 
d="M75 0v710h159v-278h286v278h159v-710h-159v281h-286v-281h-159zM630 -148v148h-23v152h166v-300h-143z" />
    <glyph glyph-name="uni04A3" unicode="&#x4a3;" horiz-adv-x="663" 
d="M62 0v500h151v-184h188v184h151v-500h-151v185h-188v-185h-151zM503 -122v122h-22v131h156v-253h-134z" />
    <glyph glyph-name="uni04AE" unicode="&#x4ae;" horiz-adv-x="694" 
d="M267 0v299l-259 411h185l153 -256l155 256h185l-259 -412v-298h-160z" />
    <glyph glyph-name="uni04AF" unicode="&#x4af;" horiz-adv-x="580" 
d="M214 -209v209l-215 500h168l123 -315l123 315h168l-216 -500v-209h-151z" />
    <glyph glyph-name="uni04B0" unicode="&#x4b0;" horiz-adv-x="685" 
d="M263 0v299l-259 411h185l153 -256l155 256h185l-259 -412v-298h-160zM566 298v-140h-448v140h448z" />
    <glyph glyph-name="uni04B1" unicode="&#x4b1;" horiz-adv-x="580" 
d="M214 -209v209l-215 500h168l123 -315l123 315h168l-216 -500v-209h-151zM88 -96v96h402v-96h-402z" />
    <glyph glyph-name="uni04B2" unicode="&#x4b2;" horiz-adv-x="750" 
d="M177 0h-186l266 359l-250 351h184l161 -228l161 228h184l-249 -351l265 -359h-185l-176 235zM600 -148v148h-23v152h166v-300h-143z" />
    <glyph glyph-name="uni04B3" unicode="&#x4b3;" horiz-adv-x="598" 
d="M395 0l-106 136l-106 -136h-181l192 242l-190 258h178l106 -146l106 146h180l-190 -258l191 -242h-180zM448 -122v122h-22v131h156v-253h-134z" />
    <glyph glyph-name="uni04B6" unicode="&#x4b6;" horiz-adv-x="736" 
d="M612 0h-160v304q-60 -66 -167 -66q-103 0 -172.5 65.5t-69.5 168.5v238h160v-195q0 -123 115 -123q60 0 97 37.5t37 112.5v168h160v-710zM563 -148v148h-23v152h166v-300h-143z" />
    <glyph glyph-name="uni04B7" unicode="&#x4b7;" horiz-adv-x="618" 
d="M507 0h-151v194q-16 -20 -52.5 -34t-82.5 -14q-82 0 -134.5 50t-52.5 150v154h151v-136q0 -86 80 -86q38 0 64.5 25t26.5 78v119h151v-500zM458 -122v122h-22v131h156v-253h-134z" />
    <glyph glyph-name="uni04BA" unicode="&#x4ba;" horiz-adv-x="688" 
d="M75 710h160v-304q60 66 167 66q103 0 172.5 -65.5t69.5 -168.5v-238h-160v195q0 123 -115 123q-60 0 -97 -37.5t-37 -112.5v-168h-160v710z" />
    <glyph glyph-name="uni04BB" unicode="&#x4bb;" horiz-adv-x="602" 
d="M213 0h-151v750h151v-301q43 62 139 62q91 0 142.5 -61t51.5 -161v-289h-151v263q0 111 -81 111q-45 0 -73 -33t-28 -98v-243z" />
    <glyph glyph-name="uni04C0" unicode="&#x4c0;" horiz-adv-x="309" 
d="M75 0v710h159v-710h-159z" />
    <glyph glyph-name="uni04CF" unicode="&#x4cf;" horiz-adv-x="275" 
d="M62 0v750h151v-750h-151z" />
    <glyph glyph-name="uni04D8" unicode="&#x4d8;" horiz-adv-x="805" 
d="M402 -12q-158 0 -262.5 107t-104.5 260v52h569q-23 79 -76.5 120t-126.5 41q-107 0 -158 -68h-184q35 100 134 161t209 61q152 0 259.5 -106t107.5 -261q0 -153 -104.5 -260t-262.5 -107zM404 142q66 0 116.5 32t73.5 93h-382q54 -125 192 -125z" />
    <glyph glyph-name="uni04D9" unicode="&#x4d9;" horiz-adv-x="596" 
d="M299 511q116 0 190.5 -74t74.5 -188q0 -112 -75.5 -186t-189.5 -74q-55 0 -103.5 19t-86 55t-58.5 93t-19 129h385q-6 42 -37.5 69t-88.5 27q-33 0 -60 -13.5t-36 -33.5h-158q24 79 96 128t166 49zM303 109q44 0 72 21.5t37 58.5h-214q11 -41 41 -60.5t64 -19.5z" />
    <glyph glyph-name="uni04E2" unicode="&#x4e2;" horiz-adv-x="792" 
d="M212 0h-137v710h160v-439l345 439h137v-710h-159v439zM232 787v104h348v-104h-348z" />
    <glyph glyph-name="uni04E3" unicode="&#x4e3;" horiz-adv-x="618" 
d="M197 0h-135v500h151v-276l208 276h135v-500h-150v275zM144 606v104h348v-104h-348z" />
    <glyph glyph-name="uni04E8" unicode="&#x4e8;" horiz-adv-x="804" 
d="M402 142q86 0 146 63t60 150t-60 150t-146 63t-146.5 -63t-60.5 -150t60.5 -150t146.5 -63zM402 -12q-152 0 -259.5 107.5t-107.5 259.5t107.5 259.5t259.5 107.5t259.5 -108t107.5 -259t-107.5 -259t-259.5 -108zM109 424v-140h584v140h-584z" />
    <glyph glyph-name="uni04E9" unicode="&#x4e9;" horiz-adv-x="588" 
d="M294 -11q-109 0 -186 75.5t-77 185.5t77 185.5t186 75.5t186 -75.5t77 -185.5t-77 -185.5t-186 -75.5zM294 130q48 0 79.5 33t31.5 87t-31.5 87t-79.5 33t-79.5 -33t-31.5 -87t31.5 -87t79.5 -33zM107 297v-92h374v92h-374z" />
    <glyph glyph-name="uni04EE" unicode="&#x4ee;" horiz-adv-x="731" 
d="M131 -5v148q25 -4 66 -4q64 0 94 39l-275 532h182l184 -356l175 356h182l-264 -529q-52 -103 -111 -148t-144 -45q-48 0 -89 7zM205 787v104h348v-104h-348z" />
    <glyph glyph-name="uni04EF" unicode="&#x4ef;" horiz-adv-x="576" 
d="M578 500l-244 -556q-37 -84 -87 -123t-127 -39q-44 0 -69 4v128q30 -2 49 -2q55 0 86 68l22 49l-208 471h165l129 -295l118 295h166zM115 606v104h348v-104h-348z" />
    <glyph glyph-name="Wgrave" unicode="&#x1e80;" horiz-adv-x="965" 
d="M634 0l-151 347l-151 -347h-151l-164 710h170l97 -450l199 462l200 -462l97 450h170l-165 -710h-151zM531 770h-111l-125 157h166z" />
    <glyph glyph-name="wgrave" unicode="&#x1e81;" horiz-adv-x="810" 
d="M491 0l-86 264l-85 -264h-152l-165 500h162l87 -307l95 307h116l95 -307l87 307h162l-164 -500h-152zM352 560l-171 190h172l110 -190h-111z" />
    <glyph glyph-name="Wacute" unicode="&#x1e82;" horiz-adv-x="965" 
d="M634 0l-151 347l-151 -347h-151l-164 710h170l97 -450l199 462l200 -462l97 450h170l-165 -710h-151zM435 770l70 157h166l-125 -157h-111z" />
    <glyph glyph-name="wacute" unicode="&#x1e83;" horiz-adv-x="810" 
d="M491 0l-86 264l-85 -264h-152l-165 500h162l87 -307l95 307h116l95 -307l87 307h162l-164 -500h-152zM357 560l109 190h172l-171 -190h-110z" />
    <glyph glyph-name="Wdieresis" unicode="&#x1e84;" horiz-adv-x="965" 
d="M634 0l-151 347l-151 -347h-151l-164 710h170l97 -450l199 462l200 -462l97 450h170l-165 -710h-151zM365 768q-33 0 -57 24t-24 56q0 34 23.5 57.5t57.5 23.5q32 0 55.5 -24t23.5 -57q0 -32 -23.5 -56t-55.5 -24zM602 768q-33 0 -56.5 24t-23.5 56q0 34 23.5 57.5
t56.5 23.5t56.5 -23.5t23.5 -57.5q0 -32 -23.5 -56t-56.5 -24z" />
    <glyph glyph-name="wdieresis" unicode="&#x1e85;" horiz-adv-x="810" 
d="M491 0l-86 264l-85 -264h-152l-165 500h162l87 -307l95 307h116l95 -307l87 307h162l-164 -500h-152zM289 572q-33 0 -57 23.5t-24 55.5q0 34 23.5 57.5t57.5 23.5q32 0 55.5 -24t23.5 -57q0 -32 -23.5 -55.5t-55.5 -23.5zM526 572q-33 0 -56.5 23.5t-23.5 55.5
q0 34 23.5 57.5t56.5 23.5t56.5 -23.5t23.5 -57.5q0 -32 -23.5 -55.5t-56.5 -23.5z" />
    <glyph glyph-name="uni1E9E" unicode="&#x1e9e;" horiz-adv-x="652" 
d="M75 0v710h496v-108l-91 -143q134 -55 134 -211q0 -115 -72.5 -181.5t-188.5 -66.5h-48v152h43q45 0 75 25t30 71t-30 71t-75 25h-43v108l72 113h-143v-565h-159z" />
    <glyph glyph-name="uni1ECA" unicode="&#x1eca;" horiz-adv-x="309" 
d="M75 0v710h159v-710h-159zM155 -227q-34 0 -57.5 23.5t-23.5 56.5t23.5 56.5t57.5 23.5q33 0 56.5 -23.5t23.5 -56.5t-23.5 -56.5t-56.5 -23.5z" />
    <glyph glyph-name="uni1ECB" unicode="&#x1ecb;" horiz-adv-x="275" 
d="M137 568q-38 0 -66 27.5t-28 66.5t28 66.5t66 27.5q40 0 67.5 -27.5t27.5 -66.5t-27.5 -66.5t-67.5 -27.5zM62 0v500h151v-500h-151zM138 -227q-34 0 -57.5 23.5t-23.5 56.5t23.5 56.5t57.5 23.5q33 0 56.5 -23.5t23.5 -56.5t-23.5 -56.5t-56.5 -23.5z" />
    <glyph glyph-name="uni1ECC" unicode="&#x1ecc;" horiz-adv-x="804" 
d="M402 142q86 0 146 63t60 150t-60 150t-146 63t-146.5 -63t-60.5 -150t60.5 -150t146.5 -63zM402 -12q-152 0 -259.5 107.5t-107.5 259.5t107.5 259.5t259.5 107.5t259.5 -108t107.5 -259t-107.5 -259t-259.5 -108zM402 -227q-34 0 -57.5 23.5t-23.5 56.5t23.5 56.5
t57.5 23.5q33 0 56.5 -23.5t23.5 -56.5t-23.5 -56.5t-56.5 -23.5z" />
    <glyph glyph-name="uni1ECD" unicode="&#x1ecd;" horiz-adv-x="588" 
d="M294 -11q-109 0 -186 75.5t-77 185.5t77 185.5t186 75.5t186 -75.5t77 -185.5t-77 -185.5t-186 -75.5zM294 130q48 0 79.5 33t31.5 87t-31.5 87t-79.5 33t-79.5 -33t-31.5 -87t31.5 -87t79.5 -33zM294 -227q-34 0 -57.5 23.5t-23.5 56.5t23.5 56.5t57.5 23.5
q33 0 56.5 -23.5t23.5 -56.5t-23.5 -56.5t-56.5 -23.5z" />
    <glyph glyph-name="uni1EE4" unicode="&#x1ee4;" horiz-adv-x="718" 
d="M359 -12q-129 0 -210.5 80.5t-81.5 212.5v429h159v-431q0 -63 36.5 -100t96.5 -37t96.5 37t36.5 100v431h159v-429q0 -132 -81.5 -212.5t-210.5 -80.5zM359 -227q-34 0 -57.5 23.5t-23.5 56.5t23.5 56.5t57.5 23.5q33 0 56.5 -23.5t23.5 -56.5t-23.5 -56.5t-56.5 -23.5z
" />
    <glyph glyph-name="uni1EE5" unicode="&#x1ee5;" horiz-adv-x="591" 
d="M245 -11q-91 0 -140 61t-49 165v285h151v-259q0 -115 77 -115q94 0 94 131v243h151v-500h-151v51q-43 -62 -133 -62zM300 -227q-34 0 -57.5 23.5t-23.5 56.5t23.5 56.5t57.5 23.5q33 0 56.5 -23.5t23.5 -56.5t-23.5 -56.5t-56.5 -23.5z" />
    <glyph glyph-name="Ygrave" unicode="&#x1ef2;" horiz-adv-x="694" 
d="M267 0v299l-259 411h185l153 -256l155 256h185l-259 -412v-298h-160zM395 770h-111l-125 157h166z" />
    <glyph glyph-name="ygrave" unicode="&#x1ef3;" horiz-adv-x="576" 
d="M267 -209h-163l104 238l-208 471h165l124 -309l123 309h166zM236 560l-171 190h172l110 -190h-111z" />
    <glyph glyph-name="uni2007" unicode="&#x2007;" horiz-adv-x="590" 
 />
    <glyph glyph-name="uni2008" unicode="&#x2008;" horiz-adv-x="286" 
 />
    <glyph glyph-name="uni2009" unicode="&#x2009;" horiz-adv-x="125" 
 />
    <glyph glyph-name="uni200B" unicode="&#x200b;" 
 />
    <glyph glyph-name="endash" unicode="&#x2013;" horiz-adv-x="593" 
d="M55 208v144h483v-144h-483z" />
    <glyph glyph-name="emdash" unicode="&#x2014;" horiz-adv-x="949" 
d="M55 208v144h839v-144h-839z" />
    <glyph glyph-name="quoteleft" unicode="&#x2018;" horiz-adv-x="282" 
d="M48 526l116 184h86l-74 -155q27 -10 46 -37t19 -61q0 -44 -31.5 -75.5t-75.5 -31.5t-75.5 31.5t-31.5 75.5q0 36 21 69z" />
    <glyph glyph-name="quoteright" unicode="&#x2019;" horiz-adv-x="287" 
d="M244 546l-115 -184h-87l75 154q-27 10 -46 37.5t-19 61.5q0 44 31.5 75.5t75.5 31.5t75.5 -31.5t31.5 -75.5q0 -35 -22 -69z" />
    <glyph glyph-name="quotesinglbase" unicode="&#x201a;" horiz-adv-x="289" 
d="M229 30l-115 -185h-87l75 155q-27 10 -46 37.5t-19 61.5q0 44 31.5 75.5t75.5 31.5t75.5 -31.5t31.5 -75.5q0 -30 -22 -69z" />
    <glyph glyph-name="quotedblleft" unicode="&#x201c;" horiz-adv-x="524" 
d="M48 526l116 184h86l-74 -155q27 -10 46 -37t19 -61q0 -44 -31.5 -75.5t-75.5 -31.5t-75.5 31.5t-31.5 75.5q0 36 21 69zM290 526l116 184h86l-74 -155q27 -10 46 -37t19 -61q0 -44 -31.5 -75.5t-75.5 -31.5t-75.5 31.5t-31.5 75.5q0 36 21 69z" />
    <glyph glyph-name="quotedblright" unicode="&#x201d;" horiz-adv-x="529" 
d="M244 546l-115 -184h-87l75 154q-27 10 -46 37.5t-19 61.5q0 44 31.5 75.5t75.5 31.5t75.5 -31.5t31.5 -75.5q0 -35 -22 -69zM486 546l-115 -184h-87l75 154q-27 10 -46 37.5t-19 61.5q0 44 31.5 75.5t75.5 31.5t75.5 -31.5t31.5 -75.5q0 -35 -22 -69z" />
    <glyph glyph-name="quotedblbase" unicode="&#x201e;" horiz-adv-x="531" 
d="M229 30l-115 -185h-87l75 155q-27 10 -46 37.5t-19 61.5q0 44 31.5 75.5t75.5 31.5t75.5 -31.5t31.5 -75.5q0 -30 -22 -69zM471 30l-115 -185h-87l75 155q-27 10 -46 37.5t-19 61.5q0 44 31.5 75.5t75.5 31.5t75.5 -31.5t31.5 -75.5q0 -30 -22 -69z" />
    <glyph glyph-name="dagger" unicode="&#x2020;" horiz-adv-x="520" 
d="M197 -98v480h-171v118h171v210h126v-210h171v-118h-171v-480h-126z" />
    <glyph glyph-name="daggerdbl" unicode="&#x2021;" horiz-adv-x="544" 
d="M506 112h-171v-210h-126v210h-171v118h171v152h-171v118h171v210h126v-210h171v-118h-171v-152h171v-118z" />
    <glyph glyph-name="bullet" unicode="&#x2022;" horiz-adv-x="395" 
d="M197 166q-56 0 -96 39.5t-40 96.5t40 96.5t96 39.5q57 0 97 -39.5t40 -96.5t-40 -96.5t-97 -39.5z" />
    <glyph glyph-name="ellipsis" unicode="&#x2026;" horiz-adv-x="822" 
d="M411 -8q-44 0 -75.5 31.5t-31.5 75.5t31.5 75.5t75.5 31.5t75.5 -31.5t31.5 -75.5t-31.5 -75.5t-75.5 -31.5zM685 -8q-44 0 -75.5 31.5t-31.5 75.5t31.5 75.5t75.5 31.5t75.5 -31.5t31.5 -75.5t-31.5 -75.5t-75.5 -31.5zM138 -8q-44 0 -75.5 31.5t-31.5 75.5t31.5 75.5
t75.5 31.5t75.5 -31.5t31.5 -75.5t-31.5 -75.5t-75.5 -31.5z" />
    <glyph glyph-name="perthousand" unicode="&#x2030;" horiz-adv-x="1395" 
d="M1171 -8q-82 0 -139.5 58t-57.5 139q0 82 57.5 139.5t139.5 57.5q81 0 139 -57.5t58 -139.5q0 -81 -58 -139t-139 -58zM1171 118q29 0 49 21t20 50t-20 50t-49 21t-49.5 -21t-20.5 -50t20.5 -50t49.5 -21zM341 0h-155l450 710h155zM753 -8q-82 0 -139.5 58t-57.5 139
q0 82 57.5 139.5t139.5 57.5q81 0 139 -57.5t58 -139.5q0 -81 -58 -139t-139 -58zM753 118q29 0 49 21t20 50t-20 50t-49 21t-49.5 -21t-20.5 -50t20.5 -50t49.5 -21zM224 324q-82 0 -139.5 58t-57.5 139q0 82 57.5 139.5t139.5 57.5q81 0 139 -57.5t58 -139.5
q0 -81 -58 -139t-139 -58zM224 450q29 0 49 21t20 50t-20 50t-49 21q-30 0 -50 -20.5t-20 -50.5t20 -50.5t50 -20.5z" />
    <glyph glyph-name="guilsinglleft" unicode="&#x2039;" horiz-adv-x="327" 
d="M25 250l141 217h131l-116 -217l116 -217h-131z" />
    <glyph glyph-name="guilsinglright" unicode="&#x203a;" horiz-adv-x="327" 
d="M161 467l141 -217l-141 -217h-131l116 217l-116 217h131z" />
    <glyph glyph-name="fraction" unicode="&#x2044;" horiz-adv-x="180" 
d="M-94 0h-128l500 710h128z" />
    <glyph glyph-name="uni2060" unicode="&#x2060;" horiz-adv-x="216" 
 />
    <glyph glyph-name="uni2070" unicode="&#x2070;" horiz-adv-x="389" 
d="M195 403q-74 0 -120.5 50t-46.5 126v94q0 76 46.5 126t120.5 50q73 0 119.5 -50t46.5 -126v-94q0 -76 -46.5 -126t-119.5 -50zM195 507q27 0 44 19.5t17 52.5v94q0 34 -16.5 53t-44.5 19t-45 -18.5t-17 -53.5v-94q0 -33 17 -52.5t45 -19.5z" />
    <glyph glyph-name="uni2074" unicode="&#x2074;" horiz-adv-x="396" 
d="M219 410v86h-205v85l215 261h95v-251h54v-95h-54v-86h-105zM140 591h79v96z" />
    <glyph glyph-name="uni2075" unicode="&#x2075;" horiz-adv-x="350" 
d="M183 403q-66 0 -114.5 38t-50.5 100h108q12 -34 52 -34q21 0 34.5 13.5t13.5 35.5q0 20 -14 34t-34 14q-43 0 -55 -45l-93 28l48 255h219v-102h-138l-10 -51q21 9 49 9q62 0 97.5 -41t35.5 -108q0 -64 -41 -105t-107 -41z" />
    <glyph glyph-name="uni2076" unicode="&#x2076;" horiz-adv-x="338" 
d="M167 403q-70 0 -112 42.5t-42 101.5q0 25 7 46.5t14 33.5t31 48l108 167h128l-97 -150q47 -7 82 -42t35 -95q0 -66 -41.5 -109t-112.5 -43zM167 504q21 0 34.5 14.5t13.5 35.5t-13.5 35.5t-34.5 14.5q-22 0 -35.5 -14.5t-13.5 -35.5q0 -22 13 -36t36 -14z" />
    <glyph glyph-name="uni2077" unicode="&#x2077;" horiz-adv-x="349" 
d="M144 410h-120l190 330h-188v102h313v-92z" />
    <glyph glyph-name="uni2078" unicode="&#x2078;" horiz-adv-x="364" 
d="M182 403q-67 0 -113 40t-46 99q0 63 51 99q-33 34 -33 89q0 48 38.5 83.5t102.5 35.5q63 0 101.5 -35.5t38.5 -83.5q0 -55 -33 -89q52 -36 52 -99q0 -59 -46 -99t-113 -40zM182 499q23 0 36.5 15t13.5 34t-13.5 33.5t-36.5 14.5t-37 -14.5t-14 -33.5t14 -34t37 -15z
M182 677q18 0 30.5 11t12.5 29t-12.5 29.5t-30.5 11.5t-30.5 -11.5t-12.5 -29.5t12.5 -29t30.5 -11z" />
    <glyph glyph-name="uni2079" unicode="&#x2079;" horiz-adv-x="338" 
d="M37 410l97 150q-47 7 -82 42t-35 95q0 66 41.5 109t112.5 43q70 0 112 -42.5t42 -101.5q0 -13 -2 -24.5t-3.5 -19.5t-7.5 -19.5t-9.5 -17.5t-14 -22t-15.5 -25l-108 -167h-128zM171 648q22 0 35.5 14.5t13.5 35.5q0 22 -13 36t-36 14q-21 0 -34.5 -14.5t-13.5 -35.5
t13.5 -35.5t34.5 -14.5z" />
    <glyph glyph-name="uni2080" unicode="&#x2080;" horiz-adv-x="389" 
d="M195 -121q-74 0 -120.5 50t-46.5 126v94q0 76 46.5 126t120.5 50q73 0 119.5 -50t46.5 -126v-94q0 -76 -46.5 -126t-119.5 -50zM195 -17q27 0 44 19.5t17 52.5v94q0 34 -16.5 53t-44.5 19t-45 -18.5t-17 -53.5v-94q0 -33 17 -52.5t45 -19.5z" />
    <glyph glyph-name="uni2081" unicode="&#x2081;" horiz-adv-x="247" 
d="M100 -114v328h-97l73 104h129v-432h-105z" />
    <glyph glyph-name="uni2082" unicode="&#x2082;" horiz-adv-x="356" 
d="M327 -10v-104h-304v34q0 29 9.5 54.5t18.5 40.5t33.5 36t33.5 27t41 27q61 40 61 78q0 16 -11 27t-30 11q-23 0 -36 -14t-12 -30h-105q0 64 44.5 106t112.5 42q59 0 100.5 -36.5t41.5 -101.5q0 -39 -13.5 -70t-30 -48t-41.5 -35q-2 -1 -30 -18.5t-35 -25.5h152z" />
    <glyph glyph-name="uni2083" unicode="&#x2083;" horiz-adv-x="364" 
d="M184 -121q-65 0 -113 39t-52 114h104q7 -49 62 -49q23 0 36.5 11t13.5 28q0 18 -15 30t-39 12h-40v82h33q48 0 48 39q0 16 -11 26t-29 10q-22 0 -36 -13.5t-13 -30.5h-105q0 68 47 108t108 40q71 0 108 -37.5t37 -92.5q0 -52 -41 -93q22 -10 37.5 -34t15.5 -58
q0 -58 -43 -94.5t-113 -36.5z" />
    <glyph glyph-name="uni2084" unicode="&#x2084;" horiz-adv-x="396" 
d="M219 -114v86h-205v85l215 261h95v-251h54v-95h-54v-86h-105zM140 67h79v96z" />
    <glyph glyph-name="uni2085" unicode="&#x2085;" horiz-adv-x="350" 
d="M183 -121q-66 0 -114.5 38t-50.5 100h108q12 -34 52 -34q21 0 34.5 13.5t13.5 35.5q0 20 -14 34t-34 14q-43 0 -55 -45l-93 28l48 255h219v-102h-138l-10 -51q21 9 49 9q62 0 97.5 -41t35.5 -108q0 -64 -41 -105t-107 -41z" />
    <glyph glyph-name="uni2086" unicode="&#x2086;" horiz-adv-x="338" 
d="M167 -121q-70 0 -112 42.5t-42 101.5q0 25 7 46.5t14 33.5t31 48l108 167h128l-97 -150q47 -7 82 -42t35 -95q0 -66 -41.5 -109t-112.5 -43zM167 -20q21 0 34.5 14.5t13.5 35.5t-13.5 35.5t-34.5 14.5q-22 0 -35.5 -14.5t-13.5 -35.5q0 -22 13 -36t36 -14z" />
    <glyph glyph-name="uni2087" unicode="&#x2087;" horiz-adv-x="349" 
d="M144 -114h-120l190 330h-188v102h313v-92z" />
    <glyph glyph-name="uni2088" unicode="&#x2088;" horiz-adv-x="364" 
d="M182 -121q-67 0 -113 40t-46 99q0 63 51 99q-33 34 -33 89q0 48 38.5 83.5t102.5 35.5q63 0 101.5 -35.5t38.5 -83.5q0 -55 -33 -89q52 -36 52 -99q0 -59 -46 -99t-113 -40zM182 -25q23 0 36.5 15t13.5 34t-13.5 33.5t-36.5 14.5t-37 -14.5t-14 -33.5t14 -34t37 -15z
M182 153q18 0 30.5 11t12.5 29t-12.5 29.5t-30.5 11.5t-30.5 -11.5t-12.5 -29.5t12.5 -29t30.5 -11z" />
    <glyph glyph-name="uni2089" unicode="&#x2089;" horiz-adv-x="338" 
d="M37 -114l97 150q-47 7 -82 42t-35 95q0 66 41.5 109t112.5 43q70 0 112 -42.5t42 -101.5q0 -13 -2 -24.5t-3.5 -19.5t-7.5 -19.5t-9.5 -17.5t-14 -22t-15.5 -25l-108 -167h-128zM171 124q22 0 35.5 14.5t13.5 35.5q0 22 -13 36t-36 14q-21 0 -34.5 -14.5t-13.5 -35.5
t13.5 -35.5t34.5 -14.5z" />
    <glyph glyph-name="Euro" unicode="&#x20ac;" horiz-adv-x="840" 
d="M101 389h-75l20 57h64q30 122 129 199t231 77q115 0 203 -58t130 -164h-174q-57 73 -158 73q-71 0 -123.5 -34.5t-77.5 -92.5h339l-18 -57h-337q-2 -22 -2 -34q0 -26 2 -33h316l-18 -57h-283q25 -59 77 -93.5t125 -34.5q101 0 158 73h174q-42 -106 -130 -164t-203 -58
q-133 0 -231.5 76.5t-128.5 200.5h-84l20 57h55q-1 11 -1 33q0 23 1 34z" />
    <glyph glyph-name="uni20B4" unicode="&#x20b4;" horiz-adv-x="634" 
d="M38 279v58h554v-58h-343q-32 -24 -32 -68q0 -37 25.5 -59t75.5 -22q48 0 81 24t39 73h150q-10 -108 -81.5 -173.5t-186.5 -65.5q-111 0 -182.5 55.5t-71.5 138.5q0 64 30 97h-58zM38 388v58h339q29 23 29 63q0 33 -21.5 52t-57.5 19q-78 0 -105 -80h-150q18 104 89 163
t175 59q94 0 157 -52.5t63 -136.5q0 -53 -21 -87h57v-58h-554z" />
    <glyph glyph-name="uni20B8" unicode="&#x20b8;" horiz-adv-x="584" 
d="M216 0v452h-186v149h524v-149h-187v-452h-151zM30 652v58h524v-58h-524z" />
    <glyph glyph-name="uni20BD" unicode="&#x20bd;" horiz-adv-x="620" 
d="M48 248v145h85v317h216q106 0 174.5 -64t68.5 -168t-68.5 -167t-174.5 -63h-65v-66h150v-58h-150v-124h-151v124h-85v58h85v66h-85zM284 393h64q41 0 65.5 22t24.5 63q0 43 -24.5 64.5t-65.5 21.5h-64v-171z" />
    <glyph glyph-name="uni2116" unicode="&#x2116;" horiz-adv-x="1098" 
d="M717 0h-137l-346 439v-439h-159v710h137l345 -439v439h160v-710zM908 405q-63 0 -108.5 46t-45.5 109t45.5 109t108.5 46t109 -46t46 -109t-46 -109t-109 -46zM759 263v96h299v-96h-299zM909 501q24 0 41 17.5t17 41.5t-17 41.5t-41 17.5t-41 -17.5t-17 -41.5t17 -41.5
t41 -17.5z" />
    <glyph glyph-name="uni2117" unicode="&#x2117;" horiz-adv-x="803" 
d="M401 -12q-151 0 -258.5 108t-107.5 259t107.5 259t258.5 108t259 -108t108 -259t-108 -259t-259 -108zM401 76q115 0 197 82t82 197t-82 197t-197 82t-196.5 -82t-81.5 -197t81.5 -197t196.5 -82zM558 412q0 -54 -37.5 -91t-93.5 -37h-40v-115h-88v371h128q56 0 93.5 -37
t37.5 -91zM474 412q0 20 -14 33t-34 13h-39v-92h39q20 0 34 13.5t14 32.5z" />
    <glyph glyph-name="trademark" unicode="&#x2122;" horiz-adv-x="804" 
d="M387 354v356h107l69 -113l69 113h107v-356h-109v166l-67 -106l-67 106v-166h-109zM124 354v243h-93v113h301v-113h-93v-243h-115z" />
    <glyph glyph-name="uni2150" unicode="&#x2150;" horiz-adv-x="866" 
d="M100 278v328h-97l73 104h129v-432h-105zM196 0h-128l500 710h128zM661 1h-120l190 330h-188v102h313v-92z" />
    <glyph glyph-name="uni2151" unicode="&#x2151;" horiz-adv-x="808" 
d="M100 278v328h-97l73 104h129v-432h-105zM196 0h-128l500 710h128zM507 1l97 150q-47 7 -82 42t-35 95q0 66 41.5 109t112.5 43q70 0 112 -42.5t42 -101.5q0 -13 -2 -24.5t-3.5 -19.5t-7.5 -19.5t-9.5 -17.5t-14 -22t-15.5 -25l-108 -167h-128zM641 239q22 0 35.5 14.5
t13.5 35.5q0 22 -13 36t-36 14q-21 0 -34.5 -14.5t-13.5 -35.5t13.5 -35.5t34.5 -14.5z" />
    <glyph glyph-name="uni2152" unicode="&#x2152;" horiz-adv-x="1106" 
d="M100 278v328h-97l73 104h129v-432h-105zM196 0h-128l500 710h128zM570 1v328h-97l73 104h129v-432h-105zM912 -6q-74 0 -120.5 50t-46.5 126v94q0 76 46.5 126t120.5 50q73 0 119.5 -50t46.5 -126v-94q0 -76 -46.5 -126t-119.5 -50zM912 98q27 0 44 19.5t17 52.5v94
q0 34 -16.5 53t-44.5 19t-45 -18.5t-17 -53.5v-94q0 -33 17 -52.5t45 -19.5z" />
    <glyph glyph-name="onethird" unicode="&#x2153;" horiz-adv-x="834" 
d="M100 278v328h-97l73 104h129v-432h-105zM196 0h-128l500 710h128zM654 -6q-65 0 -113 39t-52 114h104q7 -49 62 -49q23 0 36.5 11t13.5 28q0 18 -15 30t-39 12h-40v82h33q48 0 48 39q0 16 -11 26t-29 10q-22 0 -36 -13.5t-13 -30.5h-105q0 68 47 108t108 40
q71 0 108 -37.5t37 -92.5q0 -52 -41 -93q22 -10 37.5 -34t15.5 -58q0 -58 -43 -94.5t-113 -36.5z" />
    <glyph glyph-name="twothirds" unicode="&#x2154;" horiz-adv-x="927" 
d="M327 382v-104h-304v34q0 29 9.5 54.5t18.5 40.5t33.5 36t33.5 27t41 27q61 40 61 78q0 16 -11 27t-30 11q-23 0 -36 -14t-12 -30h-105q0 64 44.5 106t112.5 42q59 0 100.5 -36.5t41.5 -101.5q0 -39 -13.5 -70t-30 -48t-41.5 -35q-2 -1 -30 -18.5t-35 -25.5h152zM289 0
h-128l500 710h128zM747 -6q-65 0 -113 39t-52 114h104q7 -49 62 -49q23 0 36.5 11t13.5 28q0 18 -15 30t-39 12h-40v82h33q48 0 48 39q0 16 -11 26t-29 10q-22 0 -36 -13.5t-13 -30.5h-105q0 68 47 108t108 40q71 0 108 -37.5t37 -92.5q0 -52 -41 -93q22 -10 37.5 -34
t15.5 -58q0 -58 -43 -94.5t-113 -36.5z" />
    <glyph glyph-name="uni2155" unicode="&#x2155;" horiz-adv-x="820" 
d="M100 278v328h-97l73 104h129v-432h-105zM196 0h-128l500 710h128zM652 -6q-66 0 -114.5 38t-50.5 100h108q12 -34 52 -34q21 0 34.5 13.5t13.5 35.5q0 20 -14 34t-34 14q-43 0 -55 -45l-93 28l48 255h219v-102h-138l-10 -51q21 9 49 9q62 0 97.5 -41t35.5 -108
q0 -64 -41 -105t-107 -41z" />
    <glyph glyph-name="uni2156" unicode="&#x2156;" horiz-adv-x="913" 
d="M327 382v-104h-304v34q0 29 9.5 54.5t18.5 40.5t33.5 36t33.5 27t41 27q61 40 61 78q0 16 -11 27t-30 11q-23 0 -36 -14t-12 -30h-105q0 64 44.5 106t112.5 42q59 0 100.5 -36.5t41.5 -101.5q0 -39 -13.5 -70t-30 -48t-41.5 -35q-2 -1 -30 -18.5t-35 -25.5h152zM289 0
h-128l500 710h128zM745 -6q-66 0 -114.5 38t-50.5 100h108q12 -34 52 -34q21 0 34.5 13.5t13.5 35.5q0 20 -14 34t-34 14q-43 0 -55 -45l-93 28l48 255h219v-102h-138l-10 -51q21 9 49 9q62 0 97.5 -41t35.5 -108q0 -64 -41 -105t-107 -41z" />
    <glyph glyph-name="uni2157" unicode="&#x2157;" horiz-adv-x="894" 
d="M184 271q-65 0 -113 39t-52 114h104q7 -49 62 -49q23 0 36.5 11t13.5 28q0 18 -15 30t-39 12h-40v82h33q48 0 48 39q0 16 -11 26t-29 10q-22 0 -36 -13.5t-13 -30.5h-105q0 68 47 108t108 40q71 0 108 -37.5t37 -92.5q0 -52 -41 -93q22 -10 37.5 -34t15.5 -58
q0 -58 -43 -94.5t-113 -36.5zM270 0h-128l500 710h128zM726 -6q-66 0 -114.5 38t-50.5 100h108q12 -34 52 -34q21 0 34.5 13.5t13.5 35.5q0 20 -14 34t-34 14q-43 0 -55 -45l-93 28l48 255h219v-102h-138l-10 -51q21 9 49 9q62 0 97.5 -41t35.5 -108q0 -64 -41 -105
t-107 -41z" />
    <glyph glyph-name="uni2158" unicode="&#x2158;" horiz-adv-x="926" 
d="M219 278v86h-205v85l215 261h95v-251h54v-95h-54v-86h-105zM140 459h79v96zM302 0h-128l500 710h128zM758 -6q-66 0 -114.5 38t-50.5 100h108q12 -34 52 -34q21 0 34.5 13.5t13.5 35.5q0 20 -14 34t-34 14q-43 0 -55 -45l-93 28l48 255h219v-102h-138l-10 -51q21 9 49 9
q62 0 97.5 -41t35.5 -108q0 -64 -41 -105t-107 -41z" />
    <glyph glyph-name="uni2159" unicode="&#x2159;" horiz-adv-x="779" 
d="M100 278v328h-97l73 104h129v-432h-105zM196 0h-128l500 710h128zM608 -6q-70 0 -112 42.5t-42 101.5q0 25 7 46.5t14 33.5t31 48l108 167h128l-97 -150q47 -7 82 -42t35 -95q0 -66 -41.5 -109t-112.5 -43zM608 95q21 0 34.5 14.5t13.5 35.5t-13.5 35.5t-34.5 14.5
q-22 0 -35.5 -14.5t-13.5 -35.5q0 -22 13 -36t36 -14z" />
    <glyph glyph-name="uni215A" unicode="&#x215a;" horiz-adv-x="839" 
d="M183 271q-66 0 -114.5 38t-50.5 100h108q12 -34 52 -34q21 0 34.5 13.5t13.5 35.5q0 20 -14 34t-34 14q-43 0 -55 -45l-93 28l48 255h219v-102h-138l-10 -51q21 9 49 9q62 0 97.5 -41t35.5 -108q0 -64 -41 -105t-107 -41zM256 0h-128l500 710h128zM668 -6
q-70 0 -112 42.5t-42 101.5q0 25 7 46.5t14 33.5t31 48l108 167h128l-97 -150q47 -7 82 -42t35 -95q0 -66 -41.5 -109t-112.5 -43zM668 95q21 0 34.5 14.5t13.5 35.5t-13.5 35.5t-34.5 14.5q-22 0 -35.5 -14.5t-13.5 -35.5q0 -22 13 -36t36 -14z" />
    <glyph glyph-name="oneeighth" unicode="&#x215b;" horiz-adv-x="834" 
d="M100 278v328h-97l73 104h129v-432h-105zM196 0h-128l500 710h128zM652 -6q-67 0 -113 40t-46 99q0 63 51 99q-33 34 -33 89q0 48 38.5 83.5t102.5 35.5q63 0 101.5 -35.5t38.5 -83.5q0 -55 -33 -89q52 -36 52 -99q0 -59 -46 -99t-113 -40zM652 90q23 0 36.5 15t13.5 34
t-13.5 33.5t-36.5 14.5t-37 -14.5t-14 -33.5t14 -34t37 -15zM652 268q18 0 30.5 11t12.5 29t-12.5 29.5t-30.5 11.5t-30.5 -11.5t-12.5 -29.5t12.5 -29t30.5 -11z" />
    <glyph glyph-name="threeeighths" unicode="&#x215c;" horiz-adv-x="908" 
d="M184 271q-65 0 -113 39t-52 114h104q7 -49 62 -49q23 0 36.5 11t13.5 28q0 18 -15 30t-39 12h-40v82h33q48 0 48 39q0 16 -11 26t-29 10q-22 0 -36 -13.5t-13 -30.5h-105q0 68 47 108t108 40q71 0 108 -37.5t37 -92.5q0 -52 -41 -93q22 -10 37.5 -34t15.5 -58
q0 -58 -43 -94.5t-113 -36.5zM270 0h-128l500 710h128zM726 -6q-67 0 -113 40t-46 99q0 63 51 99q-33 34 -33 89q0 48 38.5 83.5t102.5 35.5q63 0 101.5 -35.5t38.5 -83.5q0 -55 -33 -89q52 -36 52 -99q0 -59 -46 -99t-113 -40zM726 90q23 0 36.5 15t13.5 34t-13.5 33.5
t-36.5 14.5t-37 -14.5t-14 -33.5t14 -34t37 -15zM726 268q18 0 30.5 11t12.5 29t-12.5 29.5t-30.5 11.5t-30.5 -11.5t-12.5 -29.5t12.5 -29t30.5 -11z" />
    <glyph glyph-name="fiveeighths" unicode="&#x215d;" horiz-adv-x="894" 
d="M183 271q-66 0 -114.5 38t-50.5 100h108q12 -34 52 -34q21 0 34.5 13.5t13.5 35.5q0 20 -14 34t-34 14q-43 0 -55 -45l-93 28l48 255h219v-102h-138l-10 -51q21 9 49 9q62 0 97.5 -41t35.5 -108q0 -64 -41 -105t-107 -41zM256 0h-128l500 710h128zM712 -6q-67 0 -113 40
t-46 99q0 63 51 99q-33 34 -33 89q0 48 38.5 83.5t102.5 35.5q63 0 101.5 -35.5t38.5 -83.5q0 -55 -33 -89q52 -36 52 -99q0 -59 -46 -99t-113 -40zM712 90q23 0 36.5 15t13.5 34t-13.5 33.5t-36.5 14.5t-37 -14.5t-14 -33.5t14 -34t37 -15zM712 268q18 0 30.5 11t12.5 29
t-12.5 29.5t-30.5 11.5t-30.5 -11.5t-12.5 -29.5t12.5 -29t30.5 -11z" />
    <glyph glyph-name="seveneighths" unicode="&#x215e;" horiz-adv-x="833" 
d="M144 278h-120l190 330h-188v102h313v-92zM195 0h-128l500 710h128zM651 -6q-67 0 -113 40t-46 99q0 63 51 99q-33 34 -33 89q0 48 38.5 83.5t102.5 35.5q63 0 101.5 -35.5t38.5 -83.5q0 -55 -33 -89q52 -36 52 -99q0 -59 -46 -99t-113 -40zM651 90q23 0 36.5 15t13.5 34
t-13.5 33.5t-36.5 14.5t-37 -14.5t-14 -33.5t14 -34t37 -15zM651 268q18 0 30.5 11t12.5 29t-12.5 29.5t-30.5 11.5t-30.5 -11.5t-12.5 -29.5t12.5 -29t30.5 -11z" />
    <glyph glyph-name="uni215F" unicode="&#x215f;" horiz-adv-x="470" 
d="M100 278v328h-97l73 104h129v-432h-105zM196 0h-128l500 710h128z" />
    <glyph glyph-name="arrowleft" unicode="&#x2190;" horiz-adv-x="816" 
d="M345 -57l-306 306l306 306l83 -86l-160 -160h491v-120h-491l160 -160z" />
    <glyph glyph-name="arrowup" unicode="&#x2191;" horiz-adv-x="694" 
d="M287 0v493l-160 -161l-86 84l306 306l306 -306l-86 -84l-160 161v-493h-120z" />
    <glyph glyph-name="arrowright" unicode="&#x2192;" horiz-adv-x="816" 
d="M471 -57l-83 85l160 161h-491v120h491l-160 160l83 86l306 -306z" />
    <glyph glyph-name="arrowdown" unicode="&#x2193;" horiz-adv-x="690" 
d="M651 294l-306 -306l-306 306l86 84l160 -161v493h120v-493l160 161z" />
    <glyph glyph-name="uni2196" unicode="&#x2196;" horiz-adv-x="719" 
d="M676 72l-84 -84l-381 380v-229h-120v433h433v-121h-228z" />
    <glyph glyph-name="uni2197" unicode="&#x2197;" horiz-adv-x="719" 
d="M127 -12l-84 84l380 379h-228v121h433v-433h-120v229z" />
    <glyph glyph-name="uni2198" unicode="&#x2198;" horiz-adv-x="714" 
d="M196 0v121h228l-380 379l84 84l381 -380v229h120v-433h-433z" />
    <glyph glyph-name="uni2199" unicode="&#x2199;" horiz-adv-x="714" 
d="M205 204l381 380l84 -84l-380 -379h228v-121h-433v433h120v-229z" />
    <glyph glyph-name="uni21B0" unicode="&#x21b0;" horiz-adv-x="837" 
d="M759 -209h-121v398h-370l160 -161l-83 -85l-306 306l306 306l83 -86l-160 -160h491v-518z" />
    <glyph glyph-name="uni21B1" unicode="&#x21b1;" horiz-adv-x="837" 
d="M78 -209v518h491l-160 160l83 86l306 -306l-306 -306l-83 85l160 161h-370v-398h-121z" />
    <glyph glyph-name="uni21B2" unicode="&#x21b2;" horiz-adv-x="847" 
d="M345 -57l-306 306l306 306l83 -85l-160 -161h370v401h121v-521h-491l160 -160z" />
    <glyph glyph-name="uni21B3" unicode="&#x21b3;" horiz-adv-x="847" 
d="M808 249l-306 -306l-83 86l160 160h-491v521h121v-401h370l-160 161l83 85z" />
    <glyph glyph-name="minus" unicode="&#x2212;" horiz-adv-x="536" 
d="M58 224v131h420v-131h-420z" />
    <glyph glyph-name="uniF6D1" unicode="&#xf6d1;" 
d="M0 747q-76 0 -127 49.5t-51 130.5h96q0 -42 22 -67.5t60 -25.5t60 25.5t22 67.5h96q0 -81 -51 -130.5t-127 -49.5z" />
    <glyph glyph-name="uniF6D4" unicode="&#xf6d4;" 
d="M0 552q-76 0 -127 49.5t-51 128.5v20h96v-20q0 -44 23 -68t59 -24t59 24t23 68v20h96v-20q0 -79 -51 -128.5t-127 -49.5z" />
    <glyph glyph-name="f_f" unicode="&#xfb00;" horiz-adv-x="807" 
d="M118 0v369h-100v131h100v67q0 92 56.5 140.5t144.5 48.5q54 0 90 -11v-133q-8 8 -54 8t-66 -19.5t-20 -64.5v-36h106v-131h-106v-369h-151zM501 0v369h-79v131h79v67q0 92 56.5 140.5t144.5 48.5q54 0 90 -11v-133q-18 8 -55 8q-45 0 -65 -19.5t-20 -64.5v-36h140v-131
h-140v-369h-151z" />
    <glyph glyph-name="fi" unicode="&#xfb01;" horiz-adv-x="699" 
d="M118 0v369h-100v131h100v55q0 92 57.5 146.5t143.5 54.5q54 0 90 -11v-133q-21 9 -54 9q-46 0 -66 -20t-20 -65v-36h140v-131h-140v-369h-151zM561 568q-38 0 -66 27.5t-28 66.5t28 66.5t66 27.5q40 0 67.5 -27.5t27.5 -66.5t-27.5 -66.5t-67.5 -27.5zM486 0v500h151
v-500h-151z" />
    <glyph glyph-name="fl" unicode="&#xfb02;" horiz-adv-x="699" 
d="M118 0v369h-100v131h100v55q0 92 57.5 146.5t143.5 54.5q54 0 90 -11v-133q-21 9 -54 9q-46 0 -66 -20t-20 -65v-36h140v-131h-140v-369h-151zM486 0v750h151v-750h-151z" />
    <glyph glyph-name="f_f_i" unicode="&#xfb03;" horiz-adv-x="1082" 
d="M944 568q-38 0 -66 27.5t-28 66.5t28 66.5t66 27.5q40 0 67.5 -27.5t27.5 -66.5t-27.5 -66.5t-67.5 -27.5zM869 0v500h151v-500h-151zM118 0v369h-100v131h100v67q0 92 56.5 140.5t144.5 48.5q54 0 90 -11v-133q-8 8 -54 8t-66 -19.5t-20 -64.5v-36h106v-131h-106v-369
h-151zM501 0v369h-79v131h79v67q0 92 56.5 140.5t144.5 48.5q54 0 90 -11v-133q-18 8 -55 8q-45 0 -65 -19.5t-20 -64.5v-36h140v-131h-140v-369h-151z" />
    <glyph glyph-name="f_f_l" unicode="&#xfb04;" horiz-adv-x="1082" 
d="M869 0v750h151v-750h-151zM118 0v369h-100v131h100v67q0 92 56.5 140.5t144.5 48.5q54 0 90 -11v-133q-8 8 -54 8t-66 -19.5t-20 -64.5v-36h106v-131h-106v-369h-151zM501 0v369h-79v131h79v67q0 92 56.5 140.5t144.5 48.5q54 0 90 -11v-133q-18 8 -55 8q-45 0 -65 -19.5
t-20 -64.5v-36h140v-131h-140v-369h-151z" />
    <glyph glyph-name="uniFEFF" unicode="&#xfeff;" 
 />
    <glyph glyph-name="NULL" 
 />
    <glyph glyph-name="CR" horiz-adv-x="225" 
 />
    <glyph glyph-name="L_periodcentered" horiz-adv-x="560" 
d="M75 0v710h159v-558h294v-152h-453zM425 351q-34 0 -57.5 23.5t-23.5 56.5q0 34 23.5 57.5t57.5 23.5q33 0 56.5 -23.5t23.5 -57.5q0 -33 -23.5 -56.5t-56.5 -23.5z" />
    <glyph glyph-name="l_periodcentered" horiz-adv-x="410" 
d="M62 0v750h151v-750h-151zM343 293q-34 0 -57.5 23.5t-23.5 56.5q0 34 23.5 57.5t57.5 23.5q33 0 56.5 -23.5t23.5 -57.5q0 -33 -23.5 -56.5t-56.5 -23.5z" />
    <glyph glyph-name="_358" horiz-adv-x="535" 
d="M234 675l129 48l-131 -252l233 10l-415 -492l242 402l-205 -12zM455 465q5 0 5 -5q0 4 4 5q-4 0 -4 5t5 5t5 -5t-4 -5q3 -1 4 -4q0 4 5 4t5 -5t-4 -5q4 -1 4 -5q0 -5 -4 -5q3 -1 4 -4q0 4 5 4t5 -5t-4 -5q4 -1 4 -5q0 -5 -5 -5t-5 4q-1 -4 -4 -4q4 -1 4 -5q0 -5 -5 -5
t-5 4q-1 -4 -4 -4q4 -1 4 -5q0 -5 -5 -5t-5 4q-1 -4 -4 -4q4 -1 4 -5q0 -5 -5 -5t-5 4q-1 -4 -4 -4q4 -1 4 -5q0 -5 -5 -5t-5 4q-1 -4 -4 -4q4 -1 4 -5q0 -5 -5 -5t-5 4q-1 -4 -4 -4q4 -1 4 -5q0 -5 -5 -5t-5 4q-1 -4 -4 -4q4 -1 4 -5q0 -5 -4 -5q4 -1 4 -5q0 -5 -5 -5t-5 4
q-1 -4 -4 -4q4 -1 4 -5q0 -5 -5 -5t-5 4q-1 -4 -4 -4q4 -1 4 -5q0 -5 -5 -5t-5 4q-1 -4 -4 -4q4 -1 4 -5q0 -5 -5 -5t-5 4q-1 -4 -4 -4q4 -1 4 -5q0 -5 -5 -5t-5 4q-1 -4 -4 -4q4 -1 4 -5q0 -5 -5 -5t-5 4q-1 -4 -4 -4q4 -1 4 -5q0 -5 -5 -5t-5 4q-1 -4 -4 -4q4 -1 4 -5
q0 -5 -5 -5t-5 4q-1 -4 -4 -4q4 -1 4 -5q0 -5 -5 -5t-5 4q-1 -4 -4 -4q4 -1 4 -5q0 -5 -5 -5t-5 4q-1 -4 -4 -4q4 -1 4 -5q0 -5 -5 -5t-5 4q-1 -4 -4 -4q4 -1 4 -5q0 -5 -5 -5t-5 4q-1 -4 -4 -4q4 -1 4 -5q0 -5 -5 -5t-5 4q-1 -4 -4 -4q4 -1 4 -5q0 -5 -4 -5q4 -1 4 -5
q0 -5 -5 -5t-5 4q-1 -4 -4 -4q4 -1 4 -5q0 -5 -5 -5t-5 4q-1 -4 -4 -4q4 -1 4 -5q0 -5 -5 -5t-5 4q-1 -4 -4 -4q4 -1 4 -5q0 -5 -5 -5t-5 4q-1 -4 -4 -4q4 -1 4 -5q0 -5 -5 -5t-5 4q-1 -4 -4 -4q4 -1 4 -5q0 -5 -5 -5t-5 4q-1 -4 -4 -4q4 -1 4 -5q0 -5 -5 -5t-5 4
q-1 -4 -4 -4q4 -1 4 -5q0 -5 -5 -5t-5 4q-1 -4 -4 -4q4 -1 4 -5q0 -5 -5 -5t-5 4q-1 -4 -4 -4q4 -1 4 -5q0 -5 -5 -5t-5 4q-1 -4 -4 -4q4 -1 4 -5q0 -5 -5 -5t-5 4q-1 -4 -4 -4q4 -1 4 -5q0 -5 -4 -5q4 -1 4 -5q0 -5 -5 -5t-5 4q-1 -4 -4 -4q4 -1 4 -5q0 -5 -5 -5t-5 4
q-1 -4 -4 -4q4 -1 4 -5q0 -5 -5 -5t-5 4q-1 -4 -4 -4q4 -1 4 -5q0 -5 -5 -5t-5 4q-1 -4 -4 -4q4 -1 4 -5q0 -5 -5 -5t-5 4q-1 -4 -4 -4q4 -1 4 -5q0 -5 -5 -5t-5 4q-1 -4 -4 -4q4 -1 4 -5q0 -5 -5 -5t-5 4q-1 -4 -4 -4q4 -1 4 -5q0 -5 -5 -5t-5 4q-1 -4 -4 -4q4 -1 4 -5
q0 -5 -5 -5t-5 4q-1 -4 -4 -4q4 -1 4 -5q0 -5 -5 -5t-5 4q-1 -3 -4 -4q4 0 4 -5t-5 -5t-5 4q-1 -3 -4 -4q4 0 4 -5t-5 -5t-5 5t4 5q-4 1 -4 5q0 5 5 5t5 -5q0 5 4 5q-4 1 -4 5t4 5q-4 0 -4 5t5 5t5 -5q0 4 4 5q-4 0 -4 5t5 5q4 0 5 -4q0 3 4 4q-4 0 -4 5t5 5q4 0 5 -4
q0 3 4 4q-4 0 -4 5t5 5q4 0 5 -4q0 3 4 4q-4 0 -4 5t5 5t5 -5q0 4 4 5q-4 0 -4 5t5 5t5 -5q0 4 4 5q-4 0 -4 5q0 4 4 5q-4 0 -4 5t5 5t5 -5q0 4 4 5q-4 0 -4 5t5 5q4 0 5 -4q0 3 4 4q-4 0 -4 5t5 5q4 0 5 -4q0 3 4 4q-4 0 -4 5t5 5t5 -5q0 4 4 5q-4 0 -4 5t5 5t5 -5q0 4 4 5
q-4 0 -4 5q0 4 4 5q-4 0 -4 5t5 5q4 0 5 -4q0 3 4 4q-4 0 -4 5t5 5t5 -5q0 4 4 5q-4 0 -4 5t5 5t5 -5q0 4 4 5q-4 0 -4 5t5 5t5 -5q0 4 4 5q-4 0 -4 5t5 5t5 -5q0 4 4 5q-4 0 -4 5q0 4 4 5q-4 0 -4 5t5 5t5 -5q0 4 4 5q-4 0 -4 5t5 5q4 0 5 -4q0 3 4 4q-4 0 -4 5t5 5t5 -5
q0 4 4 5q-4 0 -4 5t5 5t5 -5q0 4 4 5q-4 0 -4 5t5 5t5 -5q0 4 4 5q-4 0 -4 5t5 5t5 -5q0 4 4 5q-4 0 -4 5q0 4 4 5q-4 0 -4 5t5 5t5 -5q0 4 4 5q-4 0 -4 5t5 5q4 0 5 -4q0 3 4 4q-4 0 -4 5t5 5t5 -5q0 4 4 5q-4 0 -4 5t5 5q4 0 5 -4q0 3 4 4q-4 0 -4 5t5 5q4 0 5 -4q0 3 4 4
q-4 0 -4 5q0 4 4 5q-4 0 -4 5t5 5t5 -5q0 4 4 5q-4 0 -4 5t5 5t5 -5q0 4 4 5q-4 0 -4 5t5 5t5 -5q0 4 4 5q-4 0 -4 5t5 5t5 -5q0 4 4 5q-4 0 -4 5t5 5t5 -5q0 4 4 5q-4 0 -4 5q0 4 4 5q-4 0 -4 5t5 5t5 -5q0 4 4 5q-4 0 -4 5t5 5q4 0 5 -4q0 3 4 4q-4 0 -4 5t5 5q4 0 5 -4
q0 3 4 4q-4 0 -4 5t5 5q4 0 5 -4q0 3 4 4q-4 0 -4 5t5 5t5 -5q0 4 4 5q-4 0 -4 5t5 5q4 0 5 -4q0 3 4 4q-4 0 -4 5q0 4 4 5q-4 0 -4 5t5 5zM355 695q4 0 5 -4q0 3 4 4q-4 0 -4 5q0 4 4 5q-4 0 -4 5t5 5t5 -5t-4 -5q3 -1 4 -4q0 4 5 4t5 -5t-4 -5q3 -1 4 -4q0 4 5 4t5 -5
t-4 -5q4 -1 4 -5q0 -5 -5 -5t-5 4q-1 -4 -4 -4q4 -1 4 -5q0 -5 -4 -5q4 -1 4 -5q0 -5 -5 -5t-5 4q-1 -4 -4 -4q4 -1 4 -5q0 -5 -5 -5t-5 4q-1 -4 -4 -4q4 -1 4 -5q0 -5 -4 -5q4 -1 4 -5q0 -5 -5 -5t-5 4q-1 -4 -4 -4q4 -1 4 -5q0 -5 -4 -5q4 -1 4 -5q0 -5 -5 -5t-5 4
q-1 -4 -4 -4q4 -1 4 -5q0 -5 -4 -5q4 -1 4 -5q0 -5 -5 -5t-5 4q-1 -4 -4 -4q4 -1 4 -5q0 -5 -5 -5t-5 4q-1 -4 -4 -4q4 -1 4 -5q0 -5 -4 -5q4 -1 4 -5q0 -5 -5 -5t-5 4q-1 -4 -4 -4q4 -1 4 -5q0 -5 -4 -5q4 -1 4 -5q0 -5 -5 -5t-5 4q-1 -4 -4 -4q4 -1 4 -5q0 -5 -4 -5
q4 -1 4 -5q0 -5 -5 -5t-5 4q-1 -4 -4 -4q4 -1 4 -5q0 -5 -4 -5q4 -1 4 -5q0 -5 -5 -5t-5 4q-1 -4 -4 -4q4 -1 4 -5q0 -5 -4 -5q4 -1 4 -5q0 -5 -5 -5t-5 4q-1 -4 -5 -4q-5 0 -5 4q-1 -4 -5 -4q-5 0 -5 4q-1 -4 -5 -4q-5 0 -5 5t5 5q4 0 5 -4q0 3 4 4q-4 0 -4 5q0 4 4 5
q-4 0 -4 5t5 5q4 0 5 -4q0 3 4 4q-4 0 -4 5q0 4 4 5q-4 0 -4 5t5 5t5 -5q0 4 4 5q-4 0 -4 5q0 4 4 5q-4 0 -4 5t5 5q4 0 5 -4q0 3 4 4q-4 0 -4 5q0 4 4 5q-4 0 -4 5t5 5t5 -5q0 4 4 5q-4 0 -4 5q0 4 4 5q-4 0 -4 5t5 5q4 0 5 -4q0 3 4 4q-4 0 -4 5q0 4 4 5q-4 0 -4 5t5 5
t5 -5q0 4 4 5q-4 0 -4 5t5 5q4 0 5 -4q0 3 4 4q-4 0 -4 5q0 4 4 5q-4 0 -4 5t5 5q4 0 5 -4q0 3 4 4q-4 0 -4 5q0 4 4 5q-4 0 -4 5t5 5q4 0 5 -4q0 3 4 4q-4 0 -4 5q0 4 4 5q-4 0 -4 5t5 5t5 -5q0 4 4 5q-4 0 -4 5q0 4 4 5q-4 0 -4 5t5 5zM275 385q5 0 5 -5t-5 -5t-5 4
q-1 -4 -4 -4q4 -1 4 -5q0 -5 -4 -5q4 -1 4 -5q0 -5 -5 -5t-5 4q-1 -4 -5 -4q-5 0 -5 4q-1 -4 -5 -4q-5 0 -5 4q-1 -4 -5 -4q-5 0 -5 4q-1 -4 -5 -4q-5 0 -5 4q-1 -4 -5 -4q-5 0 -5 4q-1 -4 -5 -4q-5 0 -5 4q-1 -4 -5 -4q-5 0 -5 4q-1 -4 -4 -4q4 -1 4 -5q0 -5 -5 -5t-5 4
q-1 -4 -5 -4q-5 0 -5 4q-1 -4 -5 -4q-5 0 -5 4q-1 -4 -5 -4q-5 0 -5 4q-1 -4 -5 -4q-5 0 -5 4q-1 -4 -5 -4q-5 0 -5 4q-1 -4 -5 -4q-5 0 -5 4q-1 -4 -5 -4q-5 0 -5 4q-1 -4 -5 -4q-5 0 -5 5q0 4 4 5q-4 0 -4 4q-1 -4 -5 -4q-5 0 -5 5q0 4 4 5q-4 0 -4 5t5 5t5 -5q0 5 5 5
t5 -5q0 5 5 5q4 0 5 -4q0 4 5 4t5 -5q0 5 5 5q4 0 5 -4q0 4 5 4t5 -5q0 5 5 5t5 -5q0 5 5 5t5 -5q0 5 5 5t5 -5q0 5 5 5t5 -5q0 4 4 5q-4 0 -4 5t5 5q4 0 5 -4q0 4 5 4t5 -5q0 5 5 5q4 0 5 -4q0 4 5 4t5 -5q0 5 5 5t5 -5q0 5 5 5q4 0 5 -4q0 4 5 4q4 0 5 -4q0 4 5 4
q4 0 5 -4q0 4 5 4zM110 39q-1 -4 -4 -4q4 -1 4 -5q0 4 4 5q-4 0 -4 4zM120 49q-1 -4 -4 -4q4 -1 4 -5q0 4 4 5q-4 0 -4 4zM130 59q-1 -4 -4 -4q4 -1 4 -5q0 4 4 5q-4 0 -4 4zM140 69q-1 -4 -4 -4q3 -1 4 -4q0 3 4 4q-4 0 -4 4zM140 79q-1 -4 -4 -4q3 -1 4 -4q0 3 4 4
q-4 0 -4 4zM154 75q-4 0 -4 4q-1 -4 -4 -4q3 -1 4 -4q0 3 4 4zM160 89q-1 -4 -4 -4q3 -1 4 -4q0 3 4 4q-4 0 -4 4zM154 85q-4 0 -4 4q-1 -4 -4 -4q3 -1 4 -4q0 3 4 4zM170 99q-1 -4 -4 -4q4 -1 4 -5q0 4 4 5q-4 0 -4 4zM160 99q-1 -4 -4 -4q3 -1 4 -4q0 3 4 4q-4 0 -4 4z
M170 109q-1 -4 -4 -4q4 -1 4 -5q0 4 4 5q-4 0 -4 4zM180 119q-1 -4 -4 -4q4 -1 4 -5q0 4 4 5q-4 0 -4 4zM190 129q-1 -4 -4 -4q3 -1 4 -4q0 3 4 4q-4 0 -4 4zM260 369q-1 -4 -4 -4q3 -1 4 -4q0 3 4 4q-4 0 -4 4zM250 369q-1 -4 -4 -4q4 -1 4 -5q0 4 4 5q-4 0 -4 4zM240 369
q-1 -4 -4 -4q4 -1 4 -5q0 4 4 5q-4 0 -4 4zM230 369q-1 -4 -4 -4q4 -1 4 -5q0 4 4 5q-4 0 -4 4zM220 369q-1 -4 -4 -4q4 -1 4 -5q0 4 4 5q-4 0 -4 4zM260 379q-1 -4 -4 -4q3 -1 4 -4q0 3 4 4q-4 0 -4 4zM250 379q-1 -4 -4 -4q3 -1 4 -4q0 3 4 4q-4 0 -4 4zM240 379
q-1 -4 -4 -4q4 -1 4 -5q0 4 4 5q-4 0 -4 4zM230 379q-1 -4 -4 -4q3 -1 4 -4q0 3 4 4q-4 0 -4 4zM220 379q-1 -4 -4 -4q3 -1 4 -4q0 3 4 4q-4 0 -4 4zM180 359q-1 -4 -4 -4q3 -1 4 -4q0 3 4 4q-4 0 -4 4zM170 359q-1 -4 -4 -4q4 -1 4 -5q0 4 4 5q-4 0 -4 4zM160 359
q-1 -4 -4 -4q4 -1 4 -5q0 4 4 5q-4 0 -4 4zM210 369q-1 -4 -4 -4q4 -1 4 -5q0 4 4 5q-4 0 -4 4zM200 369q-1 -4 -4 -4q3 -1 4 -4q0 3 4 4q-4 0 -4 4zM190 369q-1 -4 -4 -4q4 -1 4 -5q0 4 4 5q-4 0 -4 4zM180 369q-1 -4 -4 -4q4 -1 4 -5q0 4 4 5q-4 0 -4 4zM170 369
q-1 -4 -4 -4q4 -1 4 -5q0 4 4 5q-4 0 -4 4zM160 369q-1 -4 -4 -4q4 -1 4 -5q0 4 4 5q-4 0 -4 4zM210 379q-1 -4 -4 -4q4 -1 4 -5q0 4 4 5q-4 0 -4 4zM200 379q-1 -4 -4 -4q3 -1 4 -4q0 3 4 4q-4 0 -4 4zM150 359q-1 -4 -4 -4q4 -1 4 -5q0 4 4 5q-4 0 -4 4zM140 359
q-1 -4 -4 -4q4 -1 4 -5q0 4 4 5q-4 0 -4 4zM130 359q-1 -4 -4 -4q4 -1 4 -5q0 4 4 5q-4 0 -4 4zM120 359q-1 -4 -4 -4q4 -1 4 -5q0 4 4 5q-4 0 -4 4zM110 359q-1 -4 -4 -4q4 -1 4 -5q0 4 4 5q-4 0 -4 4zM150 369q-1 -4 -4 -4q4 -1 4 -5q0 4 4 5q-4 0 -4 4zM140 369
q-1 -4 -4 -4q4 -1 4 -5q0 4 4 5q-4 0 -4 4zM130 369q-1 -4 -4 -4q4 -1 4 -5q0 4 4 5q-4 0 -4 4zM120 369q-1 -4 -4 -4q4 -1 4 -5q0 4 4 5q-4 0 -4 4zM110 369q-1 -4 -4 -4q4 -1 4 -5q0 4 4 5q-4 0 -4 4zM100 369q-1 -4 -4 -4q4 -1 4 -5q0 4 4 5q-4 0 -4 4zM410 369
q-1 -4 -4 -4q4 -1 4 -5q0 4 4 5q-4 0 -4 4zM200 139q-1 -4 -4 -4q4 -1 4 -5q0 4 4 5q-4 0 -4 4zM194 135q-4 0 -4 4q-1 -4 -4 -4q4 -1 4 -5q0 4 4 5zM210 149q-1 -4 -4 -4q4 -1 4 -5q0 4 4 5q-4 0 -4 4zM200 149q-1 -4 -4 -4q3 -1 4 -4q0 3 4 4q-4 0 -4 4zM220 159
q-1 -4 -4 -4q4 -1 4 -5q0 4 4 5q-4 0 -4 4zM210 159q-1 -4 -4 -4q4 -1 4 -5q0 4 4 5q-4 0 -4 4zM230 169q-1 -4 -4 -4q4 -1 4 -5q0 4 4 5q-4 0 -4 4zM220 169q-1 -4 -4 -4q4 -1 4 -5q0 4 4 5q-4 0 -4 4zM240 179q-1 -4 -4 -4q4 -1 4 -5q0 4 4 5q-4 0 -4 4zM230 179
q-1 -4 -4 -4q4 -1 4 -5q0 4 4 5q-4 0 -4 4zM240 189q-1 -4 -4 -4q4 -1 4 -5q0 4 4 5q-4 0 -4 4zM240 199q-1 -4 -4 -4q4 -1 4 -5q0 4 4 5q-4 0 -4 4zM254 185q-4 0 -4 4q-1 -4 -4 -4q3 -1 4 -4q0 3 4 4zM260 199q-1 -4 -4 -4q4 -1 4 -5q0 4 4 5q-4 0 -4 4zM254 195
q-4 0 -4 4q-1 -4 -4 -4q4 -1 4 -5q0 4 4 5zM270 209q-1 -4 -4 -4q4 -1 4 -5q0 4 4 5q-4 0 -4 4zM260 209q-1 -4 -4 -4q4 -1 4 -5q0 4 4 5q-4 0 -4 4zM254 205q-4 0 -4 4q-1 -4 -4 -4q4 -1 4 -5q0 4 4 5zM280 219q-1 -4 -4 -4q3 -1 4 -4q0 3 4 4q-4 0 -4 4zM270 219
q-1 -4 -4 -4q4 -1 4 -5q0 4 4 5q-4 0 -4 4zM260 219q-1 -4 -4 -4q3 -1 4 -4q0 3 4 4q-4 0 -4 4zM280 229q-1 -4 -4 -4q4 -1 4 -5q0 4 4 5q-4 0 -4 4zM270 229q-1 -4 -4 -4q3 -1 4 -4q0 3 4 4q-4 0 -4 4zM290 239q-1 -4 -4 -4q3 -1 4 -4q0 3 4 4q-4 0 -4 4zM280 239
q-1 -4 -4 -4q4 -1 4 -5q0 4 4 5q-4 0 -4 4zM300 249q-1 -4 -4 -4q4 -1 4 -5q0 4 4 5q-4 0 -4 4zM290 249q-1 -4 -4 -4q4 -1 4 -5q0 4 4 5q-4 0 -4 4zM300 259q-1 -4 -4 -4q4 -1 4 -5q0 4 4 5q-4 0 -4 4zM300 269q-1 -4 -4 -4q3 -1 4 -4q0 3 4 4q-4 0 -4 4zM314 255
q-4 0 -4 4q-1 -4 -4 -4q4 -1 4 -5q0 4 4 5zM320 269q-1 -4 -4 -4q4 -1 4 -5q0 4 4 5q-4 0 -4 4zM314 265q-4 0 -4 4q-1 -4 -4 -4q4 -1 4 -5q0 4 4 5zM330 279q-1 -4 -4 -4q3 -1 4 -4q0 3 4 4q-4 0 -4 4zM320 279q-1 -4 -4 -4q3 -1 4 -4q0 3 4 4q-4 0 -4 4zM314 275
q-4 0 -4 4q-1 -4 -4 -4q3 -1 4 -4q0 3 4 4zM340 289q-1 -4 -4 -4q4 -1 4 -5q0 4 4 5q-4 0 -4 4zM330 289q-1 -4 -4 -4q4 -1 4 -5q0 4 4 5q-4 0 -4 4zM320 289q-1 -4 -4 -4q4 -1 4 -5q0 4 4 5q-4 0 -4 4zM350 299q-1 -4 -4 -4q4 -1 4 -5q0 4 4 5q-4 0 -4 4zM340 299
q-1 -4 -4 -4q3 -1 4 -4q0 3 4 4q-4 0 -4 4zM330 299q-1 -4 -4 -4q4 -1 4 -5q0 4 4 5q-4 0 -4 4zM360 309q-1 -4 -4 -4q4 -1 4 -5q0 4 4 5q-4 0 -4 4zM350 309q-1 -4 -4 -4q3 -1 4 -4q0 3 4 4q-4 0 -4 4zM340 309q-1 -4 -4 -4q4 -1 4 -5q0 4 4 5q-4 0 -4 4zM270 489
q-1 -4 -4 -4q3 -1 4 -4q0 3 4 4q-4 0 -4 4zM260 489q-1 -4 -4 -4q3 -1 4 -4q0 3 4 4q-4 0 -4 4zM270 499q-1 -4 -4 -4q4 -1 4 -5q0 4 4 5q-4 0 -4 4zM260 499q-1 -4 -4 -4q3 -1 4 -4q0 3 4 4q-4 0 -4 4zM280 509q-1 -4 -4 -4q3 -1 4 -4q0 3 4 4q-4 0 -4 4zM270 509
q-1 -4 -4 -4q4 -1 4 -5q0 4 4 5q-4 0 -4 4zM280 519q-1 -4 -4 -4q4 -1 4 -5q0 4 4 5q-4 0 -4 4zM270 519q-1 -4 -4 -4q4 -1 4 -5q0 4 4 5q-4 0 -4 4zM280 529q-1 -4 -4 -4q4 -1 4 -5q0 4 4 5q-4 0 -4 4zM280 539q-1 -4 -4 -4q4 -1 4 -5q0 4 4 5q-4 0 -4 4zM360 319
q-1 -4 -4 -4q4 -1 4 -5q0 4 4 5q-4 0 -4 4zM350 319q-1 -4 -4 -4q3 -1 4 -4q0 3 4 4q-4 0 -4 4zM360 329q-1 -4 -4 -4q4 -1 4 -5q0 4 4 5q-4 0 -4 4zM350 329q-1 -4 -4 -4q4 -1 4 -5q0 4 4 5q-4 0 -4 4zM360 339q-1 -4 -4 -4q3 -1 4 -4q0 3 4 4q-4 0 -4 4zM374 315
q-4 0 -4 4q-1 -4 -4 -4q3 -1 4 -4q0 3 4 4zM380 329q-1 -4 -4 -4q3 -1 4 -4q0 3 4 4q-4 0 -4 4zM374 325q-4 0 -4 4q-1 -4 -4 -4q4 -1 4 -5q0 4 4 5zM390 339q-1 -4 -4 -4q4 -1 4 -5q0 4 4 5q-4 0 -4 4zM380 339q-1 -4 -4 -4q4 -1 4 -5q0 4 4 5q-4 0 -4 4zM374 335
q-4 0 -4 4q-1 -4 -4 -4q3 -1 4 -4q0 3 4 4zM400 349q-1 -4 -4 -4q4 -1 4 -5q0 4 4 5q-4 0 -4 4zM390 349q-1 -4 -4 -4q3 -1 4 -4q0 3 4 4q-4 0 -4 4zM380 349q-1 -4 -4 -4q4 -1 4 -5q0 4 4 5q-4 0 -4 4zM374 345q-4 0 -4 4q-1 -4 -4 -4q4 -1 4 -5q0 4 4 5zM410 359
q-1 -4 -4 -4q4 -1 4 -5q0 4 4 5q-4 0 -4 4zM400 359q-1 -4 -4 -4q3 -1 4 -4q0 3 4 4q-4 0 -4 4zM390 359q-1 -4 -4 -4q3 -1 4 -4q0 3 4 4q-4 0 -4 4zM380 359q-1 -4 -4 -4q3 -1 4 -4q0 3 4 4q-4 0 -4 4zM300 549q-1 -4 -4 -4q3 -1 4 -4q0 3 4 4q-4 0 -4 4zM400 369
q-1 -4 -4 -4q4 -1 4 -5q0 4 4 5q-4 0 -4 4zM390 369q-1 -4 -4 -4q3 -1 4 -4q0 3 4 4q-4 0 -4 4zM420 379q-1 -4 -4 -4q3 -1 4 -4q0 3 4 4q-4 0 -4 4zM410 379q-1 -4 -4 -4q3 -1 4 -4q0 3 4 4q-4 0 -4 4zM400 379q-1 -4 -4 -4q4 -1 4 -5q0 4 4 5q-4 0 -4 4zM420 389
q-1 -4 -4 -4q4 -1 4 -5q0 4 4 5q-4 0 -4 4zM410 389q-1 -4 -4 -4q4 -1 4 -5q0 4 4 5q-4 0 -4 4zM400 389q-1 -4 -4 -4q3 -1 4 -4q0 3 4 4q-4 0 -4 4zM420 399q-1 -4 -4 -4q4 -1 4 -5q0 4 4 5q-4 0 -4 4zM410 399q-1 -4 -4 -4q4 -1 4 -5q0 4 4 5q-4 0 -4 4zM420 409
q-1 -4 -4 -4q4 -1 4 -5q0 4 4 5q-4 0 -4 4zM434 385q-4 0 -4 4q-1 -4 -4 -4q4 -1 4 -5q0 4 4 5zM440 399q-1 -4 -4 -4q4 -1 4 -5q0 4 4 5q-4 0 -4 4zM434 395q-4 0 -4 4q-1 -4 -4 -4q3 -1 4 -4q0 3 4 4zM450 409q-1 -4 -4 -4q4 -1 4 -5q0 4 4 5q-4 0 -4 4zM440 409
q-1 -4 -4 -4q3 -1 4 -4q0 3 4 4q-4 0 -4 4zM434 405q-4 0 -4 4q-1 -4 -4 -4q4 -1 4 -5q0 4 4 5zM460 419q-1 -4 -4 -4q4 -1 4 -5q0 4 4 5q-4 0 -4 4zM450 419q-1 -4 -4 -4q3 -1 4 -4q0 3 4 4q-4 0 -4 4zM440 419q-1 -4 -4 -4q4 -1 4 -5q0 4 4 5q-4 0 -4 4zM434 415
q-4 0 -4 4q-1 -4 -4 -4q3 -1 4 -4q0 3 4 4zM470 429q-1 -4 -4 -4q3 -1 4 -4q0 3 4 4q-4 0 -4 4zM460 429q-1 -4 -4 -4q4 -1 4 -5q0 4 4 5q-4 0 -4 4zM450 429q-1 -4 -4 -4q3 -1 4 -4q0 3 4 4q-4 0 -4 4zM440 429q-1 -4 -4 -4q3 -1 4 -4q0 3 4 4q-4 0 -4 4zM480 439
q-1 -4 -4 -4q3 -1 4 -4q0 3 4 4q-4 0 -4 4zM470 439q-1 -4 -4 -4q3 -1 4 -4q0 3 4 4q-4 0 -4 4zM460 439q-1 -4 -4 -4q4 -1 4 -5q0 4 4 5q-4 0 -4 4zM450 439q-1 -4 -4 -4q3 -1 4 -4q0 3 4 4q-4 0 -4 4zM470 449q-1 -4 -4 -4q3 -1 4 -4q0 3 4 4q-4 0 -4 4zM460 449
q-1 -4 -4 -4q3 -1 4 -4q0 3 4 4q-4 0 -4 4zM470 459q-1 -4 -4 -4q4 -1 4 -5q0 4 4 5q-4 0 -4 4zM460 459q-1 -4 -4 -4q4 -1 4 -5q0 4 4 5q-4 0 -4 4zM340 629q-1 -4 -4 -4q3 -1 4 -4q0 3 4 4q-4 0 -4 4zM294 525q-4 0 -4 4q-1 -4 -4 -4q4 -1 4 -5q0 4 4 5zM294 535
q-4 0 -4 4q-1 -4 -4 -4q4 -1 4 -5q0 4 4 5zM330 629q-1 -4 -4 -4q3 -1 4 -4q0 3 4 4q-4 0 -4 4zM294 545q-4 0 -4 4q-1 -4 -4 -4q4 -1 4 -5q0 4 4 5zM300 559q-1 -4 -4 -4q3 -1 4 -4q0 3 4 4q-4 0 -4 4zM294 555q-4 0 -4 4q-1 -4 -4 -4q4 -1 4 -5q0 4 4 5zM310 569
q-1 -4 -4 -4q4 -1 4 -5q0 4 4 5q-4 0 -4 4zM300 569q-1 -4 -4 -4q4 -1 4 -5q0 4 4 5q-4 0 -4 4zM310 579q-1 -4 -4 -4q4 -1 4 -5q0 4 4 5q-4 0 -4 4zM300 579q-1 -4 -4 -4q3 -1 4 -4q0 3 4 4q-4 0 -4 4zM320 589q-1 -4 -4 -4q4 -1 4 -5q0 4 4 5q-4 0 -4 4zM310 589
q-1 -4 -4 -4q4 -1 4 -5q0 4 4 5q-4 0 -4 4zM330 599q-1 -4 -4 -4q3 -1 4 -4q0 3 4 4q-4 0 -4 4zM320 599q-1 -4 -4 -4q4 -1 4 -5q0 4 4 5q-4 0 -4 4zM310 599q-1 -4 -4 -4q4 -1 4 -5q0 4 4 5q-4 0 -4 4zM330 609q-1 -4 -4 -4q3 -1 4 -4q0 3 4 4q-4 0 -4 4zM320 609
q-1 -4 -4 -4q4 -1 4 -5q0 4 4 5q-4 0 -4 4zM340 619q-1 -4 -4 -4q4 -1 4 -5q0 4 4 5q-4 0 -4 4zM330 619q-1 -4 -4 -4q4 -1 4 -5q0 4 4 5q-4 0 -4 4zM354 665q-4 0 -4 4q-1 -4 -4 -4q4 -1 4 -5q0 4 4 5zM360 689q-1 -4 -4 -4q4 -1 4 -5q0 4 4 5q-4 0 -4 4zM340 639
q-1 -4 -4 -4q3 -1 4 -4q0 3 4 4q-4 0 -4 4zM340 649q-1 -4 -4 -4q4 -1 4 -5q0 4 4 5q-4 0 -4 4zM354 635q-4 0 -4 4q-1 -4 -4 -4q3 -1 4 -4q0 3 4 4zM354 645q-4 0 -4 4q-1 -4 -4 -4q4 -1 4 -5q0 4 4 5zM360 659q-1 -4 -4 -4q3 -1 4 -4q0 3 4 4q-4 0 -4 4zM354 655
q-4 0 -4 4q-1 -4 -4 -4q4 -1 4 -5q0 4 4 5zM370 669q-1 -4 -4 -4q3 -1 4 -4q0 3 4 4q-4 0 -4 4zM360 669q-1 -4 -4 -4q4 -1 4 -5q0 4 4 5q-4 0 -4 4zM80 9q-1 -4 -4 -4q4 -1 4 -5q0 4 4 5q-4 0 -4 4zM370 679q-1 -4 -4 -4q4 -1 4 -5q0 4 4 5q-4 0 -4 4zM360 679q-1 -4 -4 -4
q4 -1 4 -5q0 4 4 5q-4 0 -4 4zM380 689q-1 -4 -4 -4q4 -1 4 -5q0 4 4 5q-4 0 -4 4zM370 689q-1 -4 -4 -4q3 -1 4 -4q0 3 4 4q-4 0 -4 4zM94 15q-4 0 -4 4q-1 -4 -4 -4q4 -1 4 -5q0 4 4 5zM370 699q-1 -4 -4 -4q4 -1 4 -5q0 4 4 5q-4 0 -4 4zM100 29q-1 -4 -4 -4q4 -1 4 -5
q0 4 4 5q-4 0 -4 4z" />
    <glyph glyph-name="_379" 
d="M0 568q-38 0 -66 27.5t-28 66.5t28 66.5t66 27.5q40 0 67.5 -27.5t27.5 -66.5t-27.5 -66.5t-67.5 -27.5z" />
    <glyph glyph-name="_384" 
d="M0 -80q-34 0 -57.5 23.5t-23.5 56.5q0 34 23.5 57.5t57.5 23.5q33 0 56.5 -23.5t23.5 -57.5q0 -33 -23.5 -56.5t-56.5 -23.5z" />
    <glyph glyph-name="_385" 
d="M0 -227q-34 0 -57.5 23.5t-23.5 56.5t23.5 56.5t57.5 23.5q33 0 56.5 -23.5t23.5 -56.5t-23.5 -56.5t-56.5 -23.5z" />
    <glyph glyph-name="_387" 
d="M-75 -316l44 96q-21 9 -35 28.5t-14 45.5q0 33 23 56t57 23q33 0 56.5 -23t23.5 -56q0 -27 -16 -52l-75 -118h-64z" />
    <glyph glyph-name="_391" 
d="M-85 550l20 160h151l-69 -160h-102z" />
    <glyph glyph-name="_392" 
d="M0 572q-33 0 -56.5 23.5t-23.5 55.5q0 27 16 52l75 118h64l-44 -96q21 -9 35 -28.5t14 -45.5q0 -33 -23 -56t-57 -23z" />
    <glyph glyph-name="_393" 
d="M-94 572q-33 0 -56.5 23.5t-23.5 55.5q0 33 23.5 56.5t56.5 23.5q32 0 55.5 -23.5t23.5 -56.5q0 -32 -23.5 -55.5t-55.5 -23.5zM93 572q-32 0 -55.5 23.5t-23.5 55.5q0 33 23.5 56.5t55.5 23.5q33 0 56.5 -23.5t23.5 -56.5q0 -32 -23.5 -55.5t-56.5 -23.5z" />
    <glyph glyph-name="_394" 
d="M261 462l-475 -473l-47 49l475 473z" />
    <glyph glyph-name="_395" 
d="M172 564h-343v96h343v-96z" />
    <glyph glyph-name="_396" 
d="M172 564h-343v96h343v-96z" />
    <glyph glyph-name="_397" 
d="M149 401l-297 -170v115l297 171v-116z" />
    <glyph glyph-name="_398" 
d="M-195 207v96h391v-96h-391z" />
    <glyph glyph-name="zero.zero" horiz-adv-x="633" 
d="M317 -11q-119 0 -194 80t-75 204v165q0 124 75 204t194 80q118 0 193 -80t75 -204v-165q0 -124 -75 -204t-193 -80zM317 138q53 0 85 36t32 99v87l-231 -130q11 -45 41 -68.5t73 -23.5zM199 438v-87l230 130q-11 44 -40.5 68t-71.5 24q-54 0 -86 -36t-32 -99z" />
    <glyph glyph-name="one.onum" horiz-adv-x="354" 
d="M138 0v428h-134l105 132h180v-560h-151z" />
    <glyph glyph-name="two.onum" horiz-adv-x="504" 
d="M456 132v-132h-416v44q0 24 5 45.5t11 37.5t20 34.5t22.5 28.5t29.5 26.5t29.5 22.5t33.5 23t31 21q80 56 80 104q0 20 -13 35.5t-37 15.5q-29 0 -44.5 -18.5t-13.5 -40.5h-150q0 84 61 137.5t154 53.5q79 0 136.5 -48t57.5 -131q0 -70 -30.5 -115.5t-82.5 -82.5
q-2 -2 -14.5 -10.5t-24 -16.5t-24 -18t-18.5 -16h197z" />
    <glyph glyph-name="three.onum" horiz-adv-x="533" 
d="M271 -78q-94 0 -165.5 57.5t-75.5 159.5h149q10 -85 89 -85q32 0 52 19.5t21 49.5q1 34 -21 55t-57 21h-56v107h45q31 0 51 18.5t21 47.5q1 30 -16.5 48t-44.5 18q-31 0 -50.5 -22.5t-19.5 -55.5h-151q0 95 68.5 152.5t160.5 57.5q95 0 150 -53.5t55 -131.5
q0 -42 -18 -77.5t-43 -57.5q31 -17 54.5 -53.5t23.5 -85.5q0 -82 -63 -135.5t-159 -53.5z" />
    <glyph glyph-name="four.onum" horiz-adv-x="564" 
d="M305 -68v136h-289v108l303 384h137v-370h76v-122h-76v-136h-151zM195 190h110v152z" />
    <glyph glyph-name="five.onum" horiz-adv-x="516" 
d="M261 -78q-92 0 -161 55.5t-73 140.5h157q5 -28 26.5 -46t50.5 -18q34 0 52.5 23.5t18.5 63.5q0 41 -19.5 63.5t-52.5 22.5q-26 0 -49.5 -16t-36.5 -49l-129 36l73 362h316v-130h-201l-21 -102q33 20 82 20q81 0 135 -57.5t54 -149.5q0 -104 -58.5 -161.5t-163.5 -57.5z
" />
    <glyph glyph-name="six.onum" horiz-adv-x="532" 
d="M265 -11q-102 0 -166.5 60t-64.5 145q0 13 0.5 24t3.5 22.5t4 18.5t7 19.5t8 17t11 19.5t11 18t14 21.5t15 22.5l170 250h181l-146 -215q72 -9 127.5 -64.5t55.5 -139.5q0 -94 -64 -156.5t-167 -62.5zM186 206q0 -39 21.5 -63.5t57.5 -24.5t57.5 24.5t21.5 63.5
t-21.5 63.5t-57.5 24.5t-57.5 -24.5t-21.5 -63.5z" />
    <glyph glyph-name="seven.onum" horiz-adv-x="493" 
d="M194 -68h-171l274 498h-265v130h444v-116z" />
    <glyph glyph-name="eight.onum" horiz-adv-x="558" 
d="M279 -11q-97 0 -169 58t-72 146q0 96 82 146q-57 48 -57 126q0 75 60.5 123.5t155.5 48.5q94 0 154.5 -49t60.5 -123q0 -77 -58 -126q84 -51 84 -146q0 -87 -72.5 -145.5t-168.5 -58.5zM279 112q36 0 60 24t24 60t-24 60t-60 24q-38 0 -61.5 -24t-23.5 -60t23.5 -60
t61.5 -24zM279 385q30 0 49.5 19t19.5 48t-19.5 48t-49.5 19q-32 0 -51 -18.5t-19 -48.5t19 -48.5t51 -18.5z" />
    <glyph glyph-name="nine.onum" horiz-adv-x="532" 
d="M267 570q102 0 166.5 -60t64.5 -145q0 -13 -0.5 -24t-3.5 -22.5t-4 -18.5t-7 -19.5t-8 -17t-11 -19.5t-11 -18t-14 -21.5t-15 -22.5l-170 -250h-181l146 215q-72 9 -127.5 63.5t-55.5 140.5q0 94 64 156.5t167 62.5zM346 353q0 39 -21.5 63.5t-57.5 24.5t-57.5 -24.5
t-21.5 -63.5t21.5 -63.5t57.5 -24.5t57.5 24.5t21.5 63.5z" />
    <glyph glyph-name="zero.onum" horiz-adv-x="548" 
d="M274 -9q-101 0 -164.5 64t-63.5 164v123q0 100 63.5 164t164.5 64t164.5 -64t63.5 -164v-123q0 -100 -63.5 -164t-164.5 -64zM274 123q35 0 56 25.5t21 70.5v123q0 45 -20.5 70t-56.5 25t-56.5 -25t-20.5 -70v-123q0 -45 21 -70.5t56 -25.5z" />
    <glyph glyph-name="zero.onum_zero" horiz-adv-x="548" 
d="M274 -9q-101 0 -164.5 64t-63.5 164v123q0 100 63.5 164t164.5 64t164.5 -64t63.5 -164v-123q0 -100 -63.5 -164t-164.5 -64zM274 123q35 0 56 25.5t21 70.5v43l-149 -84q16 -55 72 -55zM197 342v-43l148 84q-17 54 -71 54q-36 0 -56.5 -25t-20.5 -70z" />
    <glyph glyph-name="one.tnum" horiz-adv-x="590" 
d="M54 0v141h173v420h-149l108 149h192v-569h173v-141h-497z" />
    <glyph glyph-name="two.tnum" horiz-adv-x="590" 
d="M535 149v-149h-490v51q0 29 6 56.5t14 48t25 42.5t29 36t36 33.5t37 29t41 29t39 27.5q107 76 107 136q0 37 -21.5 60.5t-62.5 23.5q-43 0 -69.5 -26t-26.5 -63h-151q0 104 71.5 171t180.5 67q96 0 163 -58.5t67 -163.5q0 -61 -21 -109t-49 -77t-76 -65
q-2 -1 -39.5 -25.5t-57.5 -41.5t-29 -33h277z" />
    <glyph glyph-name="three.tnum" horiz-adv-x="590" 
d="M299 -11q-107 0 -185 64.5t-82 180.5h150q5 -48 36 -72t81 -24q44 0 70.5 21.5t27.5 56.5q1 38 -28 62t-77 24h-62v121h54q91 0 93 77q1 32 -22 52.5t-59 20.5q-44 0 -72 -26t-27 -63h-151q0 108 75.5 173t174.5 65q109 0 171 -60.5t62 -148.5q0 -48 -21.5 -88.5
t-52.5 -64.5q40 -20 67 -60t27 -97q0 -94 -69.5 -154t-180.5 -60z" />
    <glyph glyph-name="four.tnum" horiz-adv-x="590" 
d="M348 0v154h-347v122l362 434h136v-418h91v-138h-91v-154h-151zM185 292h163v195z" />
    <glyph glyph-name="five.tnum" horiz-adv-x="590" 
d="M294 -11q-101 0 -177 62.5t-80 158.5h156q8 -32 36 -52t65 -20q47 0 73 27t26 71q0 42 -28 70t-70 28q-39 0 -66 -20.5t-39 -53.5l-131 41l82 409h349v-146h-233l-24 -113q35 19 91 19q100 0 160 -68t60 -177q0 -110 -67.5 -173t-182.5 -63z" />
    <glyph glyph-name="six.tnum" horiz-adv-x="590" 
d="M293 -11q-114 0 -182 70t-68 178q0 34 11 65.5t24.5 53t48.5 72.5l198 282h186l-174 -248q81 -7 143.5 -67.5t62.5 -158.5q0 -107 -68 -177t-182 -70zM293 134q42 0 70 29t28 71t-28 71t-70 29q-44 0 -71 -28.5t-27 -71.5t27 -71.5t71 -28.5z" />
    <glyph glyph-name="seven.tnum" horiz-adv-x="590" 
d="M227 0h-171l318 564h-324v146h503v-131z" />
    <glyph glyph-name="eight.tnum" horiz-adv-x="590" 
d="M296 -11q-110 0 -183 65t-73 165q0 113 85 167q-57 54 -57 141q0 85 62.5 140t165.5 55t165.5 -55t62.5 -140q0 -86 -58 -141q86 -55 86 -167q0 -100 -73.5 -165t-182.5 -65zM296 128q45 0 72.5 28.5t27.5 66.5t-27.5 66.5t-72.5 28.5q-46 0 -73 -28.5t-27 -66.5
t27 -66.5t73 -28.5zM296 437q35 0 58.5 21.5t23.5 54.5t-23.5 54.5t-58.5 21.5t-58.5 -21.5t-23.5 -54.5t23.5 -54.5t58.5 -21.5z" />
    <glyph glyph-name="nine.tnum" horiz-adv-x="590" 
d="M78 0l174 248q-81 7 -143 67.5t-62 159.5q0 107 68 177t182 70t182 -70t68 -178q0 -48 -18 -85t-66 -106l-199 -283h-186zM297 377q44 0 71 28.5t27 71.5t-27 71.5t-71 28.5q-42 0 -70 -29t-28 -71t28 -71t70 -29z" />
    <glyph glyph-name="zero.tnum" horiz-adv-x="590" 
d="M296 -11q-119 0 -194 80t-75 204v165q0 124 75 204t194 80q118 0 193 -80t75 -204v-165q0 -124 -75 -204t-193 -80zM296 138q53 0 85 36t32 99v165q0 63 -32 99t-85 36q-54 0 -86 -36t-32 -99v-165q0 -63 32 -99t86 -36z" />
    <glyph glyph-name="zero.tnum_zero" horiz-adv-x="590" 
d="M295 -11q-119 0 -194 80t-75 204v165q0 124 75 204t194 80q118 0 193 -80t75 -204v-165q0 -124 -75 -204t-193 -80zM295 138q53 0 85 36t32 99v87l-231 -130q11 -45 41 -68.5t73 -23.5zM177 438v-87l230 130q-11 44 -40.5 68t-71.5 24q-54 0 -86 -36t-32 -99z" />
    <glyph glyph-name="uni2070.zero" horiz-adv-x="389" 
d="M195 403q-74 0 -120.5 50t-46.5 126v94q0 76 46.5 126t120.5 50q73 0 119.5 -50t46.5 -126v-94q0 -76 -46.5 -126t-119.5 -50zM195 507q27 0 44 19.5t17 52.5v39l-120 -64q11 -47 59 -47zM133 673v-37l119 64q-12 45 -57 45q-28 0 -45 -18.5t-17 -53.5z" />
    <glyph glyph-name="uni2080.zero" horiz-adv-x="389" 
d="M195 -122q-74 0 -120.5 50t-46.5 126v94q0 76 46.5 126t120.5 50q73 0 119.5 -50t46.5 -126v-94q0 -76 -46.5 -126t-119.5 -50zM195 -18q27 0 44 19.5t17 52.5v39l-120 -64q11 -47 59 -47zM133 148v-37l119 64q-12 45 -57 45q-28 0 -45 -18.5t-17 -53.5z" />
    <glyph glyph-name="one.numr" horiz-adv-x="247" 
d="M100 278v328h-97l73 104h129v-432h-105z" />
    <glyph glyph-name="two.numr" horiz-adv-x="356" 
d="M327 382v-104h-304v34q0 29 9.5 54.5t18.5 40.5t33.5 36t33.5 27t41 27q61 40 61 78q0 16 -11 27t-30 11q-23 0 -36 -14t-12 -30h-105q0 64 44.5 106t112.5 42q59 0 100.5 -36.5t41.5 -101.5q0 -39 -13.5 -70t-30 -48t-41.5 -35q-2 -1 -30 -18.5t-35 -25.5h152z" />
    <glyph glyph-name="three.numr" horiz-adv-x="364" 
d="M184 271q-65 0 -113 39t-52 114h104q7 -49 62 -49q23 0 36.5 11t13.5 28q0 18 -15 30t-39 12h-40v82h33q48 0 48 39q0 16 -11 26t-29 10q-22 0 -36 -13.5t-13 -30.5h-105q0 68 47 108t108 40q71 0 108 -37.5t37 -92.5q0 -52 -41 -93q22 -10 37.5 -34t15.5 -58
q0 -58 -43 -94.5t-113 -36.5z" />
    <glyph glyph-name="four.numr" horiz-adv-x="396" 
d="M219 278v86h-205v85l215 261h95v-251h54v-95h-54v-86h-105zM140 459h79v96z" />
    <glyph glyph-name="five.numr" horiz-adv-x="350" 
d="M183 271q-66 0 -114.5 38t-50.5 100h108q12 -34 52 -34q21 0 34.5 13.5t13.5 35.5q0 20 -14 34t-34 14q-43 0 -55 -45l-93 28l48 255h219v-102h-138l-10 -51q21 9 49 9q62 0 97.5 -41t35.5 -108q0 -64 -41 -105t-107 -41z" />
    <glyph glyph-name="six.numr" horiz-adv-x="338" 
d="M167 271q-70 0 -112 42.5t-42 101.5q0 25 7 46.5t14 33.5t31 48l108 167h128l-97 -150q47 -7 82 -42t35 -95q0 -66 -41.5 -109t-112.5 -43zM167 372q21 0 34.5 14.5t13.5 35.5t-13.5 35.5t-34.5 14.5q-22 0 -35.5 -14.5t-13.5 -35.5q0 -22 13 -36t36 -14z" />
    <glyph glyph-name="seven.numr" horiz-adv-x="349" 
d="M144 278h-120l190 330h-188v102h313v-92z" />
    <glyph glyph-name="eight.numr" horiz-adv-x="364" 
d="M182 271q-67 0 -113 40t-46 99q0 63 51 99q-33 34 -33 89q0 48 38.5 83.5t102.5 35.5q63 0 101.5 -35.5t38.5 -83.5q0 -55 -33 -89q52 -36 52 -99q0 -59 -46 -99t-113 -40zM182 367q23 0 36.5 15t13.5 34t-13.5 33.5t-36.5 14.5t-37 -14.5t-14 -33.5t14 -34t37 -15z
M182 545q18 0 30.5 11t12.5 29t-12.5 29.5t-30.5 11.5t-30.5 -11.5t-12.5 -29.5t12.5 -29t30.5 -11z" />
    <glyph glyph-name="nine.numr" horiz-adv-x="338" 
d="M37 278l97 150q-47 7 -82 42t-35 95q0 66 41.5 109t112.5 43q70 0 112 -42.5t42 -101.5q0 -13 -2 -24.5t-3.5 -19.5t-7.5 -19.5t-9.5 -17.5t-14 -22t-15.5 -25l-108 -167h-128zM171 516q22 0 35.5 14.5t13.5 35.5q0 22 -13 36t-36 14q-21 0 -34.5 -14.5t-13.5 -35.5
t13.5 -35.5t34.5 -14.5z" />
    <glyph glyph-name="zero.numr" horiz-adv-x="389" 
d="M195 271q-74 0 -120.5 50t-46.5 126v94q0 76 46.5 126t120.5 50q73 0 119.5 -50t46.5 -126v-94q0 -76 -46.5 -126t-119.5 -50zM195 375q27 0 44 19.5t17 52.5v94q0 34 -16.5 53t-44.5 19t-45 -18.5t-17 -53.5v-94q0 -33 17 -52.5t45 -19.5z" />
    <glyph glyph-name="zero.numr_zero" horiz-adv-x="389" 
d="M195 271q-74 0 -120.5 50t-46.5 126v94q0 76 46.5 126t120.5 50q73 0 119.5 -50t46.5 -126v-94q0 -76 -46.5 -126t-119.5 -50zM195 375q27 0 44 19.5t17 52.5v39l-120 -64q11 -47 59 -47zM133 541v-37l119 64q-12 45 -57 45q-28 0 -45 -18.5t-17 -53.5z" />
    <glyph glyph-name="one.dnom" horiz-adv-x="247" 
d="M100 1v328h-97l73 104h129v-432h-105z" />
    <glyph glyph-name="two.dnom" horiz-adv-x="356" 
d="M327 105v-104h-304v34q0 29 9.5 54.5t18.5 40.5t33.5 36t33.5 27t41 27q61 40 61 78q0 16 -11 27t-30 11q-23 0 -36 -14t-12 -30h-105q0 64 44.5 106t112.5 42q59 0 100.5 -36.5t41.5 -101.5q0 -39 -13.5 -70t-30 -48t-41.5 -35q-2 -1 -30 -18.5t-35 -25.5h152z" />
    <glyph glyph-name="three.dnom" horiz-adv-x="364" 
d="M184 -6q-65 0 -113 39t-52 114h104q7 -49 62 -49q23 0 36.5 11t13.5 28q0 18 -15 30t-39 12h-40v82h33q48 0 48 39q0 16 -11 26t-29 10q-22 0 -36 -13.5t-13 -30.5h-105q0 68 47 108t108 40q71 0 108 -37.5t37 -92.5q0 -52 -41 -93q22 -10 37.5 -34t15.5 -58
q0 -58 -43 -94.5t-113 -36.5z" />
    <glyph glyph-name="four.dnom" horiz-adv-x="396" 
d="M219 1v86h-205v85l215 261h95v-251h54v-95h-54v-86h-105zM140 182h79v96z" />
    <glyph glyph-name="five.dnom" horiz-adv-x="350" 
d="M183 -6q-66 0 -114.5 38t-50.5 100h108q12 -34 52 -34q21 0 34.5 13.5t13.5 35.5q0 20 -14 34t-34 14q-43 0 -55 -45l-93 28l48 255h219v-102h-138l-10 -51q21 9 49 9q62 0 97.5 -41t35.5 -108q0 -64 -41 -105t-107 -41z" />
    <glyph glyph-name="six.dnom" horiz-adv-x="338" 
d="M167 -6q-70 0 -112 42.5t-42 101.5q0 25 7 46.5t14 33.5t31 48l108 167h128l-97 -150q47 -7 82 -42t35 -95q0 -66 -41.5 -109t-112.5 -43zM167 95q21 0 34.5 14.5t13.5 35.5t-13.5 35.5t-34.5 14.5q-22 0 -35.5 -14.5t-13.5 -35.5q0 -22 13 -36t36 -14z" />
    <glyph glyph-name="seven.dnom" horiz-adv-x="349" 
d="M144 1h-120l190 330h-188v102h313v-92z" />
    <glyph glyph-name="eight.dnom" horiz-adv-x="364" 
d="M182 -6q-67 0 -113 40t-46 99q0 63 51 99q-33 34 -33 89q0 48 38.5 83.5t102.5 35.5q63 0 101.5 -35.5t38.5 -83.5q0 -55 -33 -89q52 -36 52 -99q0 -59 -46 -99t-113 -40zM182 90q23 0 36.5 15t13.5 34t-13.5 33.5t-36.5 14.5t-37 -14.5t-14 -33.5t14 -34t37 -15z
M182 268q18 0 30.5 11t12.5 29t-12.5 29.5t-30.5 11.5t-30.5 -11.5t-12.5 -29.5t12.5 -29t30.5 -11z" />
    <glyph glyph-name="nine.dnom" horiz-adv-x="338" 
d="M37 1l97 150q-47 7 -82 42t-35 95q0 66 41.5 109t112.5 43q70 0 112 -42.5t42 -101.5q0 -13 -2 -24.5t-3.5 -19.5t-7.5 -19.5t-9.5 -17.5t-14 -22t-15.5 -25l-108 -167h-128zM171 239q22 0 35.5 14.5t13.5 35.5q0 22 -13 36t-36 14q-21 0 -34.5 -14.5t-13.5 -35.5
t13.5 -35.5t34.5 -14.5z" />
    <glyph glyph-name="zero.dnom" horiz-adv-x="389" 
d="M195 -6q-74 0 -120.5 50t-46.5 126v94q0 76 46.5 126t120.5 50q73 0 119.5 -50t46.5 -126v-94q0 -76 -46.5 -126t-119.5 -50zM195 98q27 0 44 19.5t17 52.5v94q0 34 -16.5 53t-44.5 19t-45 -18.5t-17 -53.5v-94q0 -33 17 -52.5t45 -19.5z" />
    <glyph glyph-name="zero.dnom_zero" horiz-adv-x="389" 
d="M195 -7q-74 0 -120.5 50t-46.5 126v94q0 76 46.5 126t120.5 50q73 0 119.5 -50t46.5 -126v-94q0 -76 -46.5 -126t-119.5 -50zM195 97q27 0 44 19.5t17 52.5v39l-120 -64q11 -47 59 -47zM133 263v-37l119 64q-12 45 -57 45q-28 0 -45 -18.5t-17 -53.5z" />
    <glyph glyph-name="hyphen.case" horiz-adv-x="410" 
d="M58 283v144h294v-144h-294z" />
    <glyph glyph-name="uni00AD.case" horiz-adv-x="410" 
d="M58 283v144h294v-144h-294z" />
    <glyph glyph-name="endash.case" horiz-adv-x="599" 
d="M58 283v144h483v-144h-483z" />
    <glyph glyph-name="emdash.case" horiz-adv-x="955" 
d="M58 283v144h839v-144h-839z" />
    <glyph glyph-name="questiondown.case" horiz-adv-x="523" 
d="M363 447v-19q0 -43 -20.5 -73.5t-64.5 -61.5q-7 -5 -25 -16t-25.5 -16.5t-18.5 -15.5t-15 -20.5t-4 -24.5q0 -30 21 -46.5t52 -16.5q33 0 57.5 20.5t24.5 57.5h151q0 -94 -67.5 -160.5t-165.5 -66.5q-96 0 -160 60.5t-64 142.5q0 57 18 95.5t68 77.5q11 8 28.5 21
t25.5 19t17 14t12.5 14.5t3.5 13.5v1h151zM289 508q-44 0 -75.5 31.5t-31.5 75.5t31.5 75.5t75.5 31.5t75.5 -31.5t31.5 -75.5t-31.5 -75.5t-75.5 -31.5z" />
    <glyph glyph-name="exclamdown.case" horiz-adv-x="302" 
d="M197 447l30 -184v-263h-152v263l29 184h93zM151 508q-44 0 -75.5 31.5t-31.5 75.5t31.5 75.5t75.5 31.5t75.5 -31.5t31.5 -75.5t-31.5 -75.5t-75.5 -31.5z" />
    <glyph glyph-name="guilsinglleft.case" horiz-adv-x="352" 
d="M31 355l141 217h131l-116 -217l116 -217h-131z" />
    <glyph glyph-name="guilsinglright.case" horiz-adv-x="352" 
d="M180 572l141 -217l-141 -217h-131l116 217l-116 217h131z" />
    <glyph glyph-name="guillemotleft.case" horiz-adv-x="563" 
d="M242 355l141 217h131l-116 -217l116 -217h-131zM31 355l141 217h131l-116 -217l116 -217h-131z" />
    <glyph glyph-name="guillemotright.case" horiz-adv-x="563" 
d="M-31 572l141 -217l-141 -217h-131l116 217l-116 217h131zM180 572l141 -217l-141 -217h-131l116 217l-116 217h131z" />
    <glyph glyph-name="parenleft.case" horiz-adv-x="308" 
d="M287 -125h-119q-128 233 -128 480t128 480h119q-121 -235 -121 -480t121 -480z" />
    <glyph glyph-name="parenright.case" horiz-adv-x="308" 
d="M140 -125h-119q121 235 121 480t-121 480h119q128 -233 128 -480t-128 -480z" />
    <glyph glyph-name="bracketleft.case" horiz-adv-x="340" 
d="M75 -125v960h230v-108h-104v-744h104v-108h-230z" />
    <glyph glyph-name="bracketright.case" horiz-adv-x="340" 
d="M265 835v-960h-230v108h104v744h-104v108h230z" />
    <glyph glyph-name="braceleft.case" horiz-adv-x="355" 
d="M321 -125h-88q-66 0 -104.5 38.5t-38.5 103.5v229q0 55 -53 55h-8v108h8q53 0 53 53v231q0 65 38.5 103.5t104.5 38.5h88v-108h-48q-31 0 -43.5 -12.5t-12.5 -44.5v-217q0 -82 -63 -98q63 -16 63 -101v-214q0 -32 12.5 -44.5t43.5 -12.5h48v-108z" />
    <glyph glyph-name="braceright.case" horiz-adv-x="355" 
d="M122 -125h-88v108h48q31 0 43.5 12.5t12.5 44.5v214q0 85 63 101q-63 16 -63 98v217q0 32 -12.5 44.5t-43.5 12.5h-48v108h88q66 0 104.5 -38.5t38.5 -103.5v-231q0 -53 53 -53h8v-108h-8q-53 0 -53 -55v-229q0 -65 -38.5 -103.5t-104.5 -38.5z" />
    <glyph glyph-name="bar.case" horiz-adv-x="276" 
d="M75 -55v820h126v-820h-126z" />
    <glyph glyph-name="brokenbar.case" horiz-adv-x="276" 
d="M75 -55v343h126v-343h-126zM75 422v343h126v-343h-126z" />
    <glyph glyph-name="periodcentered.case" horiz-adv-x="300" 
d="M150 248q-44 0 -75.5 31.5t-31.5 75.5t31.5 75.5t75.5 31.5t75.5 -31.5t31.5 -75.5t-31.5 -75.5t-75.5 -31.5z" />
    <glyph glyph-name="plus.case" horiz-adv-x="498" 
d="M39 289v131h145v145h130v-145h145v-131h-145v-145h-130v145h-145z" />
    <glyph glyph-name="minus.case" horiz-adv-x="538" 
d="M59 289v131h420v-131h-420z" />
    <glyph glyph-name="multiply.case" horiz-adv-x="521" 
d="M138 140l-92 92l123 123l-123 123l92 92l123 -122l123 122l91 -92l-122 -123l122 -123l-91 -92l-123 122z" />
    <glyph glyph-name="equal.case" horiz-adv-x="536" 
d="M58 185v130h420v-130h-420zM58 393v131h420v-131h-420z" />
    <glyph glyph-name="less.case" horiz-adv-x="509" 
d="M472 608l-253 -253l253 -253h-188l-253 253l253 253h188z" />
    <glyph glyph-name="greater.case" horiz-adv-x="509" 
d="M290 355l-253 253h188l253 -253l-253 -253h-188z" />
    <glyph glyph-name="acute.case" 
d="M-118 770l70 157h166l-125 -157h-111z" />
    <glyph glyph-name="breve.case" 
d="M0 747q-76 0 -127 49.5t-51 130.5h86q0 -45 26 -69t66 -24t66 24t26 69h86q0 -81 -51 -130.5t-127 -49.5z" />
    <glyph glyph-name="caron.case" 
d="M0 762l-176 68v118l176 -68l176 68v-118z" />
    <glyph glyph-name="cedilla.case" 
d="M-121 -204v65q30 -17 76 -17q60 0 60 31q0 27 -43 27q-21 0 -40 -10l-36 19l56 92h64l-30 -50q30 7 49 7q37 0 61.5 -21t24.5 -58q0 -44 -42 -72t-96 -28q-64 0 -104 15z" />
    <glyph glyph-name="circumflex.case" 
d="M-176 762v118l176 68l176 -68v-118l-176 68z" />
    <glyph glyph-name="dieresis.case" 
d="M-118 768q-33 0 -57 24t-24 56q0 34 23.5 57.5t57.5 23.5q32 0 55.5 -24t23.5 -57q0 -32 -23.5 -56t-55.5 -24zM119 768q-33 0 -56.5 24t-23.5 56q0 34 23.5 57.5t56.5 23.5t56.5 -23.5t23.5 -57.5q0 -32 -23.5 -56t-56.5 -24z" />
    <glyph glyph-name="dotaccent.case" 
d="M0 768q-33 0 -57 24t-24 56q0 34 23.5 57.5t57.5 23.5q33 0 56.5 -23.5t23.5 -57.5q0 -32 -23.5 -56t-56.5 -24z" />
    <glyph glyph-name="_524" 
d="M0 -80q-34 0 -57.5 23.5t-23.5 56.5q0 34 23.5 57.5t57.5 23.5q33 0 56.5 -23.5t23.5 -57.5q0 -33 -23.5 -56.5t-56.5 -23.5z" />
    <glyph glyph-name="_525" 
d="M0 -227q-34 0 -57.5 23.5t-23.5 56.5t23.5 56.5t57.5 23.5q33 0 56.5 -23.5t23.5 -56.5t-23.5 -56.5t-56.5 -23.5z" />
    <glyph glyph-name="_526" 
d="M-75 -316l44 96q-21 9 -35 28.5t-14 45.5q0 33 23 56t57 23q33 0 56.5 -23t23.5 -56q0 -27 -16 -52l-75 -118h-64z" />
    <glyph glyph-name="grave.case" 
d="M118 770h-111l-125 157h166z" />
    <glyph glyph-name="hungarumlaut.case" 
d="M-18 770l66 157h156l-127 -157h-95zM-204 770l65 157h157l-127 -157h-95z" />
    <glyph glyph-name="macron.case" 
d="M-174 787v104h348v-104h-348z" />
    <glyph glyph-name="ogonek.case" 
d="M3 -219q-53 0 -84 28.5t-31 74.5q0 68 64 116h159q-39 -15 -62 -36.5t-23 -45.5q0 -23 36 -23q31 0 49 14v-99q-39 -29 -108 -29z" />
    <glyph glyph-name="ring.case" 
d="M1 753q-50 0 -86 35.5t-36 84.5t36 84.5t86 35.5t86 -35.5t36 -84.5t-36 -84.5t-86 -35.5zM1 818q23 0 39.5 16t16.5 39t-16.5 39t-39.5 16t-39.5 -16t-16.5 -39t16.5 -39t39.5 -16z" />
    <glyph glyph-name="tilde.case" 
d="M-193 776l4 28q8 55 42.5 86t78.5 31q35 0 78 -23.5t55 -23.5q19 0 28 11.5t16 36.5h83l-4 -28q-8 -55 -43 -86t-79 -31q-35 0 -78 23.5t-54 23.5q-19 0 -28.5 -11t-16.5 -37h-82z" />
    <glyph glyph-name="_533" 
d="M-175 289v138h351v-138h-351z" />
    <glyph glyph-name="_534" 
d="M372 638l-657 -656l-89 90l657 656z" />
    <glyph glyph-name="_535" 
d="M180 418l-360 -205v124l360 206v-125z" />
    <glyph glyph-name="_536" 
d="M-215 283v138h431v-138h-431z" />
    <glyph glyph-name="_537" 
d="M-374 515v108h748v-108h-748z" />
    <glyph glyph-name="uni0437.locl" horiz-adv-x="542" 
d="M8 -17h156q9 -31 36.5 -50.5t67.5 -19.5q44 0 68 24.5t24 67.5q0 93 -107 93h-58v122h58q41 0 63.5 21.5t22.5 60.5q0 34 -21.5 55.5t-57.5 21.5q-62 0 -86 -50h-152q19 91 88.5 136.5t161.5 45.5q96 0 153 -56.5t57 -134.5q0 -96 -69 -149q99 -51 99 -177
q0 -99 -65 -156t-177 -57q-103 0 -175 52t-87 150z" />
    <glyph glyph-name="uni0449.locl" horiz-adv-x="944" 
d="M682 257v243h151v-330q0 -21 8.5 -30t30.5 -9h45v-253h-134v122h-6q-34 0 -57.5 17t-25.5 49q-53 -77 -140 -77q-106 0 -155 88q-22 -43 -65.5 -65.5t-87.5 -22.5q-91 0 -140.5 60t-49.5 166v285h151v-259q0 -115 72 -115q86 0 90 124v250h151v-259q0 -115 72 -115
q42 0 66 32.5t24 98.5z" />
    <glyph glyph-name="uni044A.locl" horiz-adv-x="586" 
d="M372 -11h-43q-92 0 -141 56.5t-49 128.5v195h-121v131h272v-140h82q92 0 141 -57.5t49 -128.5q0 -72 -49 -128.5t-141 -56.5zM421 174q0 28 -18 43t-48 15h-65v-58q0 -57 65 -57q66 0 66 57z" />
    <glyph glyph-name="_549" 
d="M165 189h-330v96h330v-96z" />
    <glyph glyph-name="uni0431.locl" horiz-adv-x="589" 
d="M67 569q0 86 59.5 133.5t175.5 47.5h177v-132h-182q-37 0 -60 -17t-23 -49t23 -49.5t60 -17.5h17q99 0 171 -69t72 -166q0 -110 -75.5 -185.5t-186.5 -75.5t-186.5 75.5t-75.5 185.5q0 120 87 190q-53 53 -53 129zM294 130q49 0 80 30t31 86q0 43 -32.5 75.5t-81.5 32.5
q-54 0 -80.5 -31t-26.5 -77q0 -56 30 -86t80 -30z" />
    <glyph glyph-name="_558" 
d="M77 710h-143v148h143v-148z" />
    <glyph glyph-name="uni0442.locl" horiz-adv-x="895" 
d="M688 0v259q0 115 -72 115q-86 0 -90 -125v-249h-151v259q0 115 -72 115q-42 0 -66 -32.5t-24 -98.5v-243h-151v500h151v-51q48 62 128 62q105 0 154 -88q22 43 66 65.5t88 22.5q91 0 140.5 -60t49.5 -166v-285h-151z" />
    <glyph glyph-name="uni041B.locl" horiz-adv-x="750" 
d="M-1 0l304 710h144l304 -710h-166l-210 491l-210 -491h-166z" />
    <glyph glyph-name="uni0432.locl" horiz-adv-x="566" 
d="M293 -11h-15q-106 0 -164.5 64t-58.5 169v300q0 111 56.5 174t166.5 63q100 0 157.5 -57.5t57.5 -152.5q0 -47 -16 -88.5t-44 -64.5q48 -23 74 -70t26 -108q0 -105 -64.5 -167t-175.5 -62zM292 121h5q43 0 64 29t21 78q0 104 -86 104h-90v-107q0 -104 86 -104zM206 540
v-86h71q73 0 73 86q0 42 -18.5 64.5t-53.5 22.5t-53.5 -22.5t-18.5 -64.5z" />
    <glyph glyph-name="_599" 
d="M91 410q69 0 121 36v-138q-52 -36 -121 -36q-34 0 -93.5 18t-88.5 18q-69 0 -121 -36v138q52 36 121 36q43 0 98 -18t84 -18z" />
    <glyph glyph-name="uni043F.locl" horiz-adv-x="602" 
d="M62 0v500h151v-51q43 62 139 62q91 0 142.5 -61t51.5 -161v-289h-151v263q0 111 -81 111q-45 0 -73 -33t-28 -98v-243h-151z" />
    <glyph glyph-name="uni0433.locl" horiz-adv-x="510" 
d="M246 -11q-95 0 -155 42.5t-60 111.5q0 61 33 99t108 58l91 24q51 11 51 39q0 32 -51 32q-49 0 -58 -46h-152q6 77 63.5 119.5t143.5 42.5q97 0 153 -42t56 -109q0 -124 -126 -157l-101 -26q-32 -9 -44.5 -17.5t-12.5 -24.5q0 -32 56 -32q33 0 55 15.5t24 44.5h159
q-4 -75 -68.5 -124.5t-164.5 -49.5z" />
    <glyph glyph-name="_608" 
d="M224 298v-140h-448v140h448z" />
    <glyph glyph-name="uni0448.locl" horiz-adv-x="895" 
d="M207 500v-259q0 -115 72 -115q42 0 66 32.5t24 98.5v243h151v-259q0 -115 72 -115q42 0 66 32.5t24 98.5v243h151v-500h-151v51q-48 -62 -128 -62q-106 0 -155 88q-22 -43 -65.5 -65.5t-87.5 -22.5q-91 0 -140.5 60t-49.5 166v285h151z" />
    <glyph glyph-name="_621" 
d="M-56 -122v122h-22v131h156v-253h-134z" />
    <glyph glyph-name="uni0434.locl" horiz-adv-x="616" 
d="M299 -219q-105 0 -171.5 54.5t-72.5 137.5h147q23 -67 101 -67q42 0 71 26.5t29 76.5v59q-18 -27 -54.5 -44t-81.5 -17q-96 0 -165 73.5t-69 178.5t69 178.5t165 73.5q45 0 81.5 -17t54.5 -44v50h151v-469q0 -67 -21.5 -117t-58 -78t-80.5 -41.5t-95 -13.5zM300 144
q47 0 81 32t34 83t-34 83t-81 32t-81 -32t-34 -83t34 -83t81 -32z" />
    <glyph glyph-name="uni044E.locl" horiz-adv-x="825" 
d="M537 -11q-91 0 -159 55t-89 140h-76v-184h-151v750h151v-435h75q21 86 89 141t160 55q109 0 182.5 -76t73.5 -185t-73.5 -185t-182.5 -76zM537 130q47 0 75.5 33t28.5 87t-28.5 87t-75.5 33q-48 0 -76 -32.5t-28 -86.5t28.5 -87.5t75.5 -33.5z" />
    <glyph glyph-name="uni043A.locl" horiz-adv-x="559" 
d="M387 0l-174 194v-194h-151v750h151v-447l155 197h177l-198 -247l231 -253h-191z" />
    <glyph glyph-name="uni0438.locl" horiz-adv-x="591" 
d="M245 -11q-91 0 -140 61t-49 165v285h151v-259q0 -115 77 -115q94 0 94 131v243h151v-500h-151v51q-43 -62 -133 -62z" />
    <glyph glyph-name="_633" 
d="M-292 284v140h584v-140h-584z" />
    <glyph glyph-name="uni0446.locl" horiz-adv-x="649" 
d="M389 500h151v-330q0 -21 8.5 -30t30.5 -9h45v-253h-134v122h-6q-34 0 -58 18t-25 50q-45 -79 -151 -79q-91 0 -142.5 61t-51.5 161v289h151v-263q0 -111 81 -111q44 0 71.5 31.5t29.5 92.5v250z" />
    <glyph glyph-name="uni044C.locl" horiz-adv-x="504" 
d="M290 -11h-43q-92 0 -141 56.5t-49 128.5v326h151v-140h82q92 0 141 -57.5t49 -128.5q0 -72 -49 -128.5t-141 -56.5zM273 117q66 0 66 57q0 28 -18 43t-48 15h-65v-58q0 -57 65 -57z" />
    <glyph glyph-name="uni0439.locl" horiz-adv-x="591" 
d="M245 -11q-91 0 -140 61t-49 165v285h151v-259q0 -115 77 -115q94 0 94 131v243h151v-500h-151v51q-43 -62 -133 -62zM292 552q-76 0 -127 49.5t-51 128.5v20h96v-20q0 -44 23 -68t59 -24t59 24t23 68v20h96v-20q0 -79 -51 -128.5t-127 -49.5z" />
    <glyph glyph-name="uni0414.locl" horiz-adv-x="762" 
d="M20 -148v300h74l215 558h144l214 -558h75v-300h-143v148h-436v-148h-143zM381 478l-122 -326h244z" />
    <glyph glyph-name="_652" 
d="M70 500h-134v122h134v-122z" />
    <glyph glyph-name="_656" 
d="M-31 -148v148h-23v152h166v-300h-143z" />
    <glyph glyph-name="uni043B.locl" horiz-adv-x="576" 
d="M-1 0l219 500h140l219 -500h-168l-122 303l-121 -303h-167z" />
    <glyph glyph-name="uni0436.locl" horiz-adv-x="836" 
d="M664 0l-170 194v-194h-151v195l-171 -195h-185l224 254l-191 246h173l150 -197v447h151v-446l149 196h173l-191 -246l224 -254h-185z" />
    <glyph glyph-name="_682" 
d="M-201 -96v96h402v-96h-402z" />
    <glyph glyph-name="_683" 
d="M-203 285v140h407v-140h-407z" />
    <glyph glyph-name="_692" 
d="M-187 205v92h374v-92h-374z" />
    </font>
</defs>
</svg>
