<?xml version="1.0" standalone="no"?>
<!DOCTYPE svg PUBLIC "-//W3C//DTD SVG 1.1//EN" "http://www.w3.org/Graphics/SVG/1.1/DTD/svg11.dtd" >
<svg xmlns="http://www.w3.org/2000/svg" version="1.1">
    <metadata>
        Created by FontForge 20190801 at Sat May 23 11:42:13 2015
        By www-data
        Copyright (c) Olivier Gourvat - Mostardesign Studio, 2012. All rights reserved.
    </metadata>
    <defs>
        <font id="SofiaProBoldAz" horiz-adv-x="568">
            <font-face
                font-family="SofiaProBoldAz"
                font-weight="700"
                font-stretch="normal"
                units-per-em="1000"
                panose-1="2 11 0 0 0 0 0 0 0 0"
                ascent="750"
                descent="-250"
                x-height="467"
                cap-height="689"
                bbox="-180 -287 1157 1113"
                underline-thickness="50"
                underline-position="-100"
                unicode-range="U+0020-FB04"
            />
            <missing-glyph horiz-adv-x="635"
                           d="M80 0v665h475v-665h-475zM185 431h62q0 37 21 60t53 23t56 -20.5t24 -52.5q0 -30 -24 -50q-15 -17 -33 -21q-45 -13 -69 -38t-24 -72v-38h62v38q0 22 12.5 32.5t37.5 17.5q44 13 71.5 47.5t27.5 83.5q0 60 -41.5 97.5t-99.5 37.5q-57 0 -96.5 -40t-39.5 -105zM237 131
q0 -18 13.5 -30.5t32.5 -12.5q18 0 31.5 12.5t13.5 30.5t-13.5 30.5t-31.5 12.5q-19 0 -32.5 -12.5t-13.5 -30.5z"/>
            <glyph glyph-name="f_f" unicode="ff" horiz-adv-x="761"
                   d="M767 721v-133h-51q-71 0 -71 -89v-32h94v-110h-94v-357h-140v357h-254v-357h-140v357h-88v110h88v32q0 108 54.5 165t156.5 57h51v-133h-51q-71 0 -71 -89v-32h254v32q0 108 54.5 165t156.5 57h51z"/>
            <glyph glyph-name="fi" unicode="fi" horiz-adv-x="695"
                   d="M631 467v-467h-138v357h-242v-357h-140v357h-88v110h88v32q0 108 54.5 165t156.5 57h51v-133h-51q-71 0 -71 -89v-32h380zM475 640q0 34 25.5 57.5t61.5 23.5t60.5 -23t24.5 -58q0 -34 -24.5 -58t-60.5 -24q-35 0 -61 24t-26 58z"/>
            <glyph glyph-name="fl" unicode="fl" horiz-adv-x="678"
                   d="M322 721h292v-721h-139v588h-153q-71 0 -71 -89v-32h94v-110h-94v-357h-140v357h-88v110h88v32q0 108 54.5 165t156.5 57z"/>
            <glyph glyph-name="f_f_i" unicode="ffi" horiz-adv-x="1089"
                   d="M1025 467v-467h-138v357h-242v-357h-140v357h-254v-357h-140v357h-88v110h88v32q0 108 54.5 165t156.5 57h51v-133h-51q-71 0 -71 -89v-32h254v32q0 108 54.5 165t156.5 57h51v-133h-51q-71 0 -71 -89v-32h380zM869 640q0 34 25.5 57.5t61.5 23.5t60.5 -23t24.5 -58
q0 -34 -24.5 -58t-60.5 -24q-35 0 -61 24t-26 58z"/>
            <glyph glyph-name="f_f_l" unicode="ffl" horiz-adv-x="1072"
                   d="M1008 721v-721h-139v588h-153q-71 0 -71 -89v-32h94v-110h-94v-357h-140v357h-254v-357h-140v357h-88v110h88v32q0 108 54.5 165t156.5 57h51v-133h-51q-71 0 -71 -89v-32h254v32q0 108 54.5 165t156.5 57h292z"/>
            <glyph glyph-name="f_f_j" unicode="ffj" horiz-adv-x="1065"
                   d="M739 -235v126h61q61 0 61 74v392h-216v-357h-140v357h-254v-357h-140v357h-88v110h88v32q0 108 54.5 165t156.5 57h51v-133h-51q-71 0 -71 -89v-32h254v32q0 108 54.5 165t156.5 57h51v-133h-51q-71 0 -71 -89v-32h356v-499q0 -98 -41 -150.5t-136 -52.5h-85zM844 640
q0 34 25.5 57.5t61.5 23.5t61 -23t25 -58t-25 -58.5t-61 -23.5q-35 0 -61 24t-26 58z"/>
            <glyph glyph-name="f_j" unicode="fj" horiz-adv-x="671"
                   d="M345 -235v126h61q61 0 61 74v392h-216v-357h-140v357h-88v110h88v32q0 108 54.5 165t156.5 57h51v-133h-51q-71 0 -71 -89v-32h356v-499q0 -98 -41 -150.5t-136 -52.5h-85zM450 640q0 34 25.5 57.5t61.5 23.5t61 -23t25 -58t-25 -58.5t-61 -23.5q-35 0 -61 24t-26 58z
"/>
            <glyph glyph-name=".notdef" horiz-adv-x="635"
                   d="M80 0v665h475v-665h-475zM185 431h62q0 37 21 60t53 23t56 -20.5t24 -52.5q0 -30 -24 -50q-15 -17 -33 -21q-45 -13 -69 -38t-24 -72v-38h62v38q0 22 12.5 32.5t37.5 17.5q44 13 71.5 47.5t27.5 83.5q0 60 -41.5 97.5t-99.5 37.5q-57 0 -96.5 -40t-39.5 -105zM237 131
q0 -18 13.5 -30.5t32.5 -12.5q18 0 31.5 12.5t13.5 30.5t-13.5 30.5t-31.5 12.5q-19 0 -32.5 -12.5t-13.5 -30.5z"/>
            <glyph glyph-name=".null" horiz-adv-x="0"
            />
            <glyph glyph-name="nonmarkingreturn" horiz-adv-x="333"
            />
            <glyph glyph-name="space" unicode=" " horiz-adv-x="244"
            />
            <glyph glyph-name="space" unicode="&#xa0;" horiz-adv-x="244"
            />
            <glyph glyph-name="exclam" unicode="!" horiz-adv-x="283"
                   d="M65 689h154l-20 -481h-114zM55 74q0 36 25 59.5t61 23.5t61.5 -24t25.5 -59q0 -36 -25.5 -60t-61.5 -24t-61 24t-25 60z"/>
            <glyph glyph-name="quotedbl" unicode="&#x22;" horiz-adv-x="365"
                   d="M74 392l-11 297h98l-11 -297h-76zM215 392l-11 297h98l-11 -297h-76z"/>
            <glyph glyph-name="numbersign" unicode="#" horiz-adv-x="723"
                   d="M574 515h115l-26 -92h-115l-52 -168h115l-27 -92h-114l-53 -163h-109l51 163h-102l-52 -163h-108l52 163h-114l26 92h113l51 168h-112l26 92h113l52 174h111l-52 -174h101l53 174h110zM335 423l-51 -168h101l52 168h-102z"/>
            <glyph glyph-name="dollar" unicode="$" horiz-adv-x="575"
                   d="M253 802h73v-108q86 -12 138.5 -67t52.5 -141h-146q0 36 -23 57t-66 21q-39 0 -64 -19.5t-25 -49.5q0 -49 74 -70l82 -26q196 -56 189 -208q-2 -88 -63 -139.5t-149 -60.5v-115h-73v115q-98 10 -155.5 67t-57.5 144h147q2 -36 28.5 -59.5t74.5 -23.5q45 0 72.5 19.5
t28.5 53.5q1 26 -17 45t-66 33l-83 23q-178 56 -178 198q0 83 58 138.5t148 65.5v107z"/>
            <glyph glyph-name="percent" unicode="%" horiz-adv-x="692"
                   d="M470 655h69l-322 -655h-69zM36 528q0 57 38 95.5t95 38.5q56 0 95 -39t39 -95q0 -57 -38.5 -95t-95.5 -38t-95 38t-38 95zM117 528q0 -23 14.5 -37.5t37.5 -14.5q22 0 37.5 14.5t15.5 37.5q0 22 -15.5 37.5t-37.5 15.5q-23 0 -37.5 -15.5t-14.5 -37.5zM390 123
q0 57 38 95.5t95 38.5q56 0 95 -39t39 -95q0 -57 -38.5 -95t-95.5 -38t-95 38t-38 95zM471 123q0 -23 14.5 -37.5t37.5 -14.5q22 0 37.5 14.5t15.5 37.5q0 22 -15.5 37.5t-37.5 15.5q-23 0 -37.5 -15.5t-14.5 -37.5z"/>
            <glyph glyph-name="ampersand" unicode="&#x26;" horiz-adv-x="694"
                   d="M286 -10q-100 0 -167.5 57t-67.5 144q0 135 114 176q-38 12 -62.5 48.5t-24.5 88.5q0 75 57.5 132t143.5 61q124 6 197 -89l-118 -72q-26 26 -56 26q-35 0 -53 -21t-18 -47q0 -4 0.5 -9.5t4.5 -19t11.5 -23.5t24 -18t39.5 -8h114v78h129v-78h80v-112h-80v-102
q0 -58 17 -74.5t76 -16.5v-121q-88 0 -133 17t-61 69q-19 -39 -69 -62.5t-98 -23.5zM425 304h-118q-44 0 -70 -20.5t-31.5 -42t-2.5 -39.5q16 -76 104 -76q40 0 79 29.5t39 93.5v55z"/>
            <glyph glyph-name="quotesingle" unicode="'" horiz-adv-x="224"
                   d="M74 392l-11 297h98l-11 -297h-76z"/>
            <glyph glyph-name="parenleft" unicode="(" horiz-adv-x="388"
                   d="M39 228q0 203 90.5 336t226.5 133v-109q-49 0 -95.5 -51t-75.5 -135t-29 -174q0 -136 62.5 -244.5t137.5 -108.5v-108q-136 0 -226.5 129.5t-90.5 331.5z"/>
            <glyph glyph-name="parenright" unicode=")" horiz-adv-x="388"
                   d="M349 228q0 -202 -90.5 -331.5t-226.5 -129.5v108q75 0 137.5 108.5t62.5 244.5q0 90 -29 174t-75.5 135t-95.5 51v109q136 0 226.5 -133t90.5 -336z"/>
            <glyph glyph-name="asterisk" unicode="*" horiz-adv-x="476"
                   d="M164 336l-76 58l82 101l-126 36l31 93l121 -48l-8 131h100l-9 -130l123 47l29 -93l-125 -34l83 -104l-78 -55l-71 108z"/>
            <glyph glyph-name="plus" unicode="+" horiz-adv-x="509"
                   d="M305 210v-155h-102v155h-154v102h154v154h102v-154h155v-102h-155z"/>
            <glyph glyph-name="comma" unicode="," horiz-adv-x="283"
                   d="M91 -135l-90 34q34 49 56 118.5t22 140.5h141q0 -104 -40 -178t-89 -115z"/>
            <glyph glyph-name="hyphen" unicode="-" horiz-adv-x="475"
                   d="M61 191v110h353v-110h-353z"/>
            <glyph glyph-name="period" unicode="." horiz-adv-x="279"
                   d="M53 74q0 36 25 59.5t61 23.5t61.5 -24t25.5 -59q0 -36 -25.5 -60t-61.5 -24t-61 24t-25 60z"/>
            <glyph glyph-name="slash" unicode="/" horiz-adv-x="500"
                   d="M360 689h111l-331 -689h-111z"/>
            <glyph glyph-name="zero" unicode="0" horiz-adv-x="604"
                   d="M58 328q0 340 245 340q69 0 118 -26t75.5 -74t38 -106.5t11.5 -133.5t-11.5 -132.5t-38 -105.5t-75.5 -74t-118 -26q-245 0 -245 338zM198 328q0 -202 105 -202q103 0 103 202q0 204 -103 204q-105 0 -105 -204z"/>
            <glyph glyph-name="one" unicode="1" horiz-adv-x="377"
                   d="M291 664v-664h-140v469l-112 -48v123z"/>
            <glyph glyph-name="two" unicode="2" horiz-adv-x="548"
                   d="M477 0h-426v76l269 319q35 40 35 74q0 27 -22 46t-60 19q-37 0 -62 -25.5t-31 -65.5l-128 22q15 95 75.5 149t153.5 54q89 0 151.5 -56.5t62.5 -142.5q0 -88 -69 -166l-151 -171h202v-132z"/>
            <glyph glyph-name="three" unicode="3" horiz-adv-x="552"
                   d="M258 284h-69v120h69q64 0 64 71q0 20 -16.5 41.5t-49.5 21.5q-47 0 -69 -36l-113 69q30 48 84.5 74.5t119.5 22.5q85 -4 140.5 -58.5t53.5 -125.5q0 -40 -23 -73.5t-61 -54.5q53 -20 84.5 -72t27.5 -106q-8 -84 -83.5 -138t-174.5 -48q-68 4 -125.5 42t-83.5 95l123 61
q10 -23 39 -42t58 -21q37 -2 63.5 20t30.5 50v5v9.5t-0.5 10.5t-2 12t-5 12t-7.5 12.5t-11 10.5t-15.5 8.5t-21 5t-26.5 1.5z"/>
            <glyph glyph-name="four" unicode="4" horiz-adv-x="602"
                   d="M210 265h122v204zM556 147h-83v-147h-141v147h-313l306 508h148v-390h83v-118z"/>
            <glyph glyph-name="five" unicode="5" horiz-adv-x="592"
                   d="M405 231q0 53 -33.5 80t-87.5 27q-99 0 -144 -72l-77 40l54 349h384v-128h-273l-17 -106q40 34 120 34q92 0 153 -59.5t61 -164.5q0 -106 -74 -173.5t-196 -67.5q-68 0 -130.5 36t-101.5 96l118 76q20 -30 51.5 -49t62.5 -19q55 0 92.5 30.5t37.5 70.5z"/>
            <glyph glyph-name="six" unicode="6" horiz-adv-x="586"
                   d="M332 422q78 0 139.5 -58t61.5 -163q0 -95 -65.5 -153t-172.5 -58q-94 0 -160.5 62.5t-74.5 165.5q-6 51 -3 104.5t10 104t27.5 95.5t49 78t75.5 51.5t106 16.5q67 -3 117.5 -30.5t84.5 -96.5l-131 -56q-25 52 -76 52q-45 0 -74 -30t-38.5 -70.5t-7.5 -88.5q8 24 43 49
t89 25zM388 209q0 35 -25.5 60.5t-60.5 25.5t-60.5 -25.5t-25.5 -60.5t25.5 -60.5t60.5 -25.5t60.5 25.5t25.5 60.5z"/>
            <glyph glyph-name="seven" unicode="7" horiz-adv-x="550"
                   d="M43 655h494l-289 -655h-159l231 526h-277v129z"/>
            <glyph glyph-name="eight" unicode="8" horiz-adv-x="596"
                   d="M96 485q0 76 59.5 129.5t142.5 53.5t143 -53.5t60 -129.5q0 -68 -48 -110q44 -25 69 -68.5t25 -96.5q0 -92 -73 -156t-176 -64t-176 64t-73 156q0 53 25 96.5t69 68.5q-47 45 -47 110zM189 217q0 -41 32.5 -69t76.5 -28t76.5 28t32.5 69q0 40 -29 69t-81 29
q-51 0 -79.5 -29t-28.5 -69zM231 481q0 -27 17.5 -45t49.5 -18t49.5 18t17.5 45q0 25 -18 43t-49 18t-49 -18t-18 -43z"/>
            <glyph glyph-name="nine" unicode="9" horiz-adv-x="585"
                   d="M253 236q-78 0 -139.5 58t-61.5 163q0 94 65.5 152.5t172.5 58.5q95 0 160 -62.5t75 -165.5q6 -51 3 -104t-10 -104t-27.5 -96t-49.5 -78t-75.5 -51.5t-105.5 -16.5q-67 3 -118 30t-84 97l131 56q25 -52 76 -52q45 0 74 30t38.5 70.5t7.5 88.5q-26 -74 -132 -74zM197 449
q0 -35 25.5 -60.5t60.5 -25.5t60.5 25.5t25.5 60.5t-25.5 60.5t-60.5 25.5t-60.5 -25.5t-25.5 -60.5z"/>
            <glyph glyph-name="colon" unicode=":" horiz-adv-x="308"
                   d="M68 74q0 36 25 59.5t61 23.5t61 -23.5t25 -59.5t-25 -60t-61 -24t-61 24t-25 60zM68 393q0 36 25 60t61 24t61 -24t25 -60t-25 -59.5t-61 -23.5t-61 23.5t-25 59.5z"/>
            <glyph glyph-name="semicolon" unicode=";" horiz-adv-x="306"
                   d="M100 -135l-90 34q34 49 56 118.5t22 140.5h141q0 -104 -40 -178t-89 -115zM76 393q0 36 25 60t61 24t61 -24t25 -60t-25 -59.5t-61 -23.5t-61 23.5t-25 59.5z"/>
            <glyph glyph-name="less" unicode="&#x3c;" horiz-adv-x="624"
                   d="M46 244v112l502 192l1 -110l-362 -138l362 -138l-1 -110z"/>
            <glyph glyph-name="equal" unicode="=" horiz-adv-x="596"
                   d="M528 350h-460v98h460v-98zM68 247h460v-98h-460v98z"/>
            <glyph glyph-name="greater" unicode="&#x3e;" horiz-adv-x="624"
                   d="M578 356v-112l-502 -192l-1 110l362 138l-362 138l1 110z"/>
            <glyph glyph-name="question" unicode="?" horiz-adv-x="496"
                   d="M274 230l-2 -22h-136l-2 22q0 39 1 58.5t6.5 44.5t17 39.5t32 30t52.5 28.5l40 17q24 13 30.5 24t6.5 31q0 24 -19.5 39t-51.5 15t-51.5 -18.5t-19.5 -50.5h-140q0 95 58 152t153 57t153 -53t58 -142q0 -71 -36.5 -121t-97.5 -68q-30 -9 -41 -27.5t-11 -55.5zM120 74
q0 36 25 59.5t61 23.5t61.5 -24t25.5 -59q0 -36 -25.5 -60t-61.5 -24t-61 24t-25 60z"/>
            <glyph glyph-name="at" unicode="@" horiz-adv-x="964"
                   d="M583 136v126q0 49 -34 83t-82 34t-82 -34t-34 -83q0 -47 34.5 -81t81.5 -34q46 0 79 25v-94q-40 -19 -79 -19q-85 0 -145 59.5t-60 143.5q0 86 60 145.5t145 59.5q83 0 142 -56q59 -53 64 -139v-142q0 -32 17.5 -46t42.5 -14q31 0 53 20.5t32.5 54t15 65.5t4.5 65
q0 142 -106 237.5t-255 95.5q-144 0 -243.5 -102.5t-99.5 -248.5q0 -145 99.5 -245.5t243.5 -100.5h33v-89h-33q-182 0 -307 126t-125 309t125.5 311.5t306.5 128.5q121 0 224 -54.5t165 -152t62 -215.5q0 -48 -10.5 -96.5t-32 -94t-61 -74t-91.5 -28.5q-65 0 -107.5 37
t-42.5 117z"/>
            <glyph glyph-name="A" unicode="A" horiz-adv-x="659"
                   d="M259 290h143l-73 240zM449 163h-238l-61 -163h-156l256 689h159l255 -689h-154z"/>
            <glyph glyph-name="B" unicode="B" horiz-adv-x="637"
                   d="M561 497q0 -39 -22 -74.5t-72 -54.5q63 -17 96.5 -63t33.5 -94q0 -89 -60 -150t-160 -61h-296v689h276q93 0 148.5 -52t55.5 -140zM228 417h115q29 0 46.5 20t17.5 51q0 33 -16.5 52.5t-48.5 19.5h-114v-143zM366 296h-138v-167h141q35 0 54.5 25.5t19.5 59.5
q0 32 -20.5 57t-56.5 25z"/>
            <glyph glyph-name="C" unicode="C" horiz-adv-x="699"
                   d="M559 223l118 -82q-46 -70 -122 -110.5t-168 -40.5q-146 0 -246 103t-100 250t100 250.5t246 103.5q91 0 166 -39t121 -107l-119 -82q-61 90 -168 90q-85 0 -142 -62.5t-57 -153.5q0 -90 57 -152.5t142 -62.5q53 0 98 26t74 69z"/>
            <glyph glyph-name="D" unicode="D" horiz-adv-x="707"
                   d="M227 556v-423h124q78 0 121.5 60t43.5 150t-43.5 151.5t-121.5 61.5h-124zM351 0h-270v689h270q144 0 227.5 -97.5t83.5 -248.5t-83.5 -247t-227.5 -96z"/>
            <glyph glyph-name="E" unicode="E" horiz-adv-x="576"
                   d="M81 0v689h436v-129h-290v-157h254v-127h-254v-147h299v-129h-445z"/>
            <glyph glyph-name="F" unicode="F" horiz-adv-x="538"
                   d="M81 0v689h431v-129h-284v-157h225v-128h-225v-275h-147z"/>
            <glyph glyph-name="G" unicode="G" horiz-adv-x="756"
                   d="M653 584l-108 -93q-63 70 -151 70q-87 0 -146.5 -64t-59.5 -154t60 -154.5t146 -64.5q60 0 113.5 34t53.5 85h-185v119h354q0 -187 -90.5 -279.5t-245.5 -92.5q-147 0 -250 103.5t-103 249.5q0 147 103 250.5t250 103.5q79 0 146 -30t113 -83z"/>
            <glyph glyph-name="H" unicode="H" horiz-adv-x="701"
                   d="M472 689h148v-689h-148v277h-245v-277h-146v689h146v-281h245v281z"/>
            <glyph glyph-name="I" unicode="I" horiz-adv-x="308"
                   d="M81 689h146v-689h-146v689z"/>
            <glyph glyph-name="J" unicode="J" horiz-adv-x="309"
                   d="M-99 -219l13 132q31 -11 88 -11q40 0 59.5 26.5t19.5 68.5v692h147v-692q0 -103 -55 -168t-171 -65q-31 0 -101 17z"/>
            <glyph glyph-name="K" unicode="K" horiz-adv-x="609"
                   d="M303 348l323 -348h-190l-207 234v-234h-148v689h148v-226l163 226h172z"/>
            <glyph glyph-name="L" unicode="L" horiz-adv-x="511"
                   d="M81 0v689h147v-560h258v-129h-405z"/>
            <glyph glyph-name="M" unicode="M" horiz-adv-x="913"
                   d="M457 245l206 444h123l84 -689h-147l-48 413l-161 -334h-113l-162 334l-49 -413h-147l85 689h121z"/>
            <glyph glyph-name="N" unicode="N" horiz-adv-x="679"
                   d="M598 689v-689h-131l-240 417v-417h-146v689h134l236 -412v412h147z"/>
            <glyph glyph-name="O" unicode="O" horiz-adv-x="781"
                   d="M187 343q0 -87 58.5 -147.5t144.5 -60.5q85 0 144.5 61t59.5 147q0 87 -59.5 148t-144.5 61q-86 0 -144.5 -61t-58.5 -148zM41 343q0 147 101.5 250.5t247.5 103.5t248 -103.5t102 -250.5q0 -146 -102 -249.5t-248 -103.5t-247.5 103.5t-101.5 249.5z"/>
            <glyph glyph-name="P" unicode="P" horiz-adv-x="614"
                   d="M361 560h-133v-194h129q40 0 63.5 30t23.5 67q0 36 -22 66.5t-61 30.5zM81 0v689h283q111 0 169 -66.5t58 -159.5q0 -94 -58 -159.5t-169 -65.5h-136v-238h-147z"/>
            <glyph glyph-name="Q" unicode="Q" horiz-adv-x="788"
                   d="M598 54l66 -110l-103 -62l-74 120q-45 -12 -93 -12q-147 0 -250 103.5t-103 249.5q0 147 103 250.5t250 103.5q149 0 251.5 -103.5t102.5 -250.5q0 -88 -40 -164t-110 -125zM457 284l66 -107q78 63 78 166q0 90 -60 153t-147 63t-146.5 -63t-59.5 -153q0 -76 45.5 -134.5
t116.5 -71.5q23 -6 59 -6l-55 92z"/>
            <glyph glyph-name="R" unicode="R" horiz-adv-x="637"
                   d="M356 560h-128v-194h124q40 0 63.5 30t23.5 67q0 36 -22 66.5t-61 30.5zM420 244l171 -244h-176l-154 238h-33v-238h-147v689h282q110 0 169.5 -66.5t59.5 -159.5q0 -78 -44 -140t-128 -79z"/>
            <glyph glyph-name="S" unicode="S" horiz-adv-x="582"
                   d="M44 202h147q2 -36 28.5 -59.5t74.5 -23.5q45 0 72.5 19.5t28.5 53.5q1 26 -17 45t-66 33l-83 23q-178 56 -178 198q0 91 68 148.5t169 57.5q102 0 167.5 -57t65.5 -154h-146q0 36 -23 57t-66 21q-39 0 -64 -19.5t-25 -49.5q0 -49 74 -70l82 -26q196 -56 189 -208
q-2 -96 -75 -149t-173 -53q-111 0 -180.5 59.5t-69.5 153.5z"/>
            <glyph glyph-name="T" unicode="T" horiz-adv-x="576"
                   d="M28 557v132h520v-132h-186v-557h-148v557h-186z"/>
            <glyph glyph-name="U" unicode="U" horiz-adv-x="682"
                   d="M342 128q48 0 83.5 33.5t35.5 84.5v443h147v-443q0 -114 -78 -185t-188 -71t-189 71.5t-79 184.5v443h149v-443q0 -51 35.5 -84.5t83.5 -33.5z"/>
            <glyph glyph-name="V" unicode="V" horiz-adv-x="582"
                   d="M16 689h152l123 -452l122 452h153l-210 -689h-130z"/>
            <glyph glyph-name="W" unicode="W" horiz-adv-x="886"
                   d="M594 255l135 434h159l-234 -689h-115l-97 362l-95 -362h-116l-232 689h158l134 -434q17 61 48.5 178t43.5 159h120z"/>
            <glyph glyph-name="X" unicode="X" horiz-adv-x="658"
                   d="M633 689l-217 -322l239 -367h-173l-153 250l-153 -250h-172l238 367l-217 322h176l128 -206l129 206h175z"/>
            <glyph glyph-name="Y" unicode="Y" horiz-adv-x="651"
                   d="M400 0h-149v312l-266 377h174l166 -258l168 258h174l-267 -379v-310z"/>
            <glyph glyph-name="Z" unicode="Z" horiz-adv-x="595"
                   d="M42 111l315 449h-302v129h492v-111l-318 -449h318v-129h-505v111z"/>
            <glyph glyph-name="bracketleft" unicode="[" horiz-adv-x="338"
                   d="M73 -229v918h231v-101h-113v-714h113v-103h-231z"/>
            <glyph glyph-name="backslash" unicode="\" horiz-adv-x="500"
                   d="M29 689h111l331 -689h-111z"/>
            <glyph glyph-name="bracketright" unicode="]" horiz-adv-x="338"
                   d="M265 689v-918h-231v103h113v714h-113v101h231z"/>
            <glyph glyph-name="underscore" unicode="_" horiz-adv-x="743"
                   d="M60 -132v100h623v-100h-623z"/>
            <glyph glyph-name="grave" unicode="`" horiz-adv-x="554"
                   d="M129 707h138l110 -168h-100z"/>
            <glyph glyph-name="a" unicode="a" horiz-adv-x="612"
                   d="M410 0v53q-20 -30 -61.5 -46t-74.5 -16q-94 0 -166 68t-72 175t72 175t166 68q32 0 71.5 -14t64.5 -48v52h138v-467h-138zM180 234q0 -48 35.5 -79.5t81.5 -31.5q45 0 79 30.5t34 80.5t-34 80.5t-79 30.5q-46 0 -81.5 -31.5t-35.5 -79.5z"/>
            <glyph glyph-name="b" unicode="b" horiz-adv-x="602"
                   d="M205 235q0 -50 31.5 -81.5t76.5 -31.5t76.5 31t31.5 82q0 50 -31 80.5t-77 30.5q-44 0 -76 -30.5t-32 -80.5zM202 0h-138v721h138v-311q17 32 54.5 49.5t82.5 17.5q93 0 159.5 -68t66.5 -177q0 -108 -66.5 -175t-159.5 -67q-45 0 -82.5 18t-54.5 50v-58z"/>
            <glyph glyph-name="c" unicode="c" horiz-adv-x="525"
                   d="M36 235q0 107 75 174.5t179 67.5q133 0 203 -99l-113 -81q-29 47 -90 47q-46 0 -81 -30.5t-35 -78.5q0 -49 35 -80.5t81 -31.5q61 0 90 47l113 -80q-33 -48 -86.5 -74t-116.5 -26q-103 0 -178.5 69t-75.5 176z"/>
            <glyph glyph-name="d" unicode="d" horiz-adv-x="602"
                   d="M397 235q0 50 -32 80.5t-76 30.5q-46 0 -77 -30.5t-31 -80.5q0 -51 31.5 -82t76.5 -31t76.5 31.5t31.5 81.5zM538 0h-138v58q-17 -32 -54.5 -50t-82.5 -18q-93 0 -159.5 67t-66.5 175q0 109 66.5 177t159.5 68q45 0 82.5 -17.5t54.5 -49.5v311h138v-721z"/>
            <glyph glyph-name="e" unicode="e" horiz-adv-x="550"
                   d="M392 154l101 -69q-65 -95 -213 -95q-102 0 -173 68.5t-71 176.5t70.5 175t173.5 67q102 0 170.5 -68.5t68.5 -177.5q0 -19 -2 -43h-342q6 -38 39.5 -58t75.5 -20q69 0 102 44zM177 275h202q-6 39 -35 59.5t-63 20.5t-65.5 -19.5t-38.5 -60.5z"/>
            <glyph glyph-name="f" unicode="f" horiz-adv-x="367"
                   d="M373 721v-133h-51q-71 0 -71 -89v-32h94v-110h-94v-357h-140v357h-88v110h88v32q0 108 54.5 165t156.5 57h51z"/>
            <glyph glyph-name="g" unicode="g" horiz-adv-x="608"
                   d="M406 235q0 50 -33.5 80t-79.5 30t-79 -31t-33 -79q0 -50 33 -82t79 -32q45 0 79 32t34 82zM50 -88l112 55q12 -32 47 -53.5t71 -21.5q138 0 129 166q-17 -32 -56 -50t-84 -18q-94 0 -163.5 67.5t-69.5 174.5q0 108 69.5 176.5t163.5 68.5q44 0 83 -18.5t57 -49.5v58h135
v-402q0 -148 -69 -223t-195 -75q-76 0 -138 39.5t-92 105.5z"/>
            <glyph glyph-name="h" unicode="h" horiz-adv-x="579"
                   d="M203 247v-247h-139v721h139v-327q12 40 52 61.5t79 21.5q92 0 139.5 -58t47.5 -165v-254h-139v249q0 43 -25.5 68t-60.5 25q-38 0 -65.5 -23t-27.5 -72z"/>
            <glyph glyph-name="i" unicode="i" horiz-adv-x="266"
                   d="M202 467v-467h-138v467h138zM46 640q0 34 25.5 57.5t61.5 23.5t60.5 -23t24.5 -58q0 -34 -24.5 -58t-60.5 -24q-35 0 -61 24t-26 58z"/>
            <glyph glyph-name="j" unicode="j" horiz-adv-x="268"
                   d="M-58 -235v126h61q61 0 61 74v502h140v-499q0 -98 -41 -150.5t-136 -52.5h-85zM47 640q0 34 25.5 57.5t61.5 23.5t61 -23t25 -58t-25 -58.5t-61 -23.5q-35 0 -61 24t-26 58z"/>
            <glyph glyph-name="k" unicode="k" horiz-adv-x="526"
                   d="M202 185v-185h-138v721h138v-382l111 128h177l-194 -206l233 -261h-171z"/>
            <glyph glyph-name="l" unicode="l" horiz-adv-x="267"
                   d="M64 721h139v-721h-139v721z"/>
            <glyph glyph-name="m" unicode="m" horiz-adv-x="854"
                   d="M580 342q-36 0 -58 -23.5t-22 -71.5v-247h-139v252q-1 43 -23 66.5t-54 23.5q-36 0 -58.5 -22.5t-22.5 -72.5v-247h-139v467h139v-68q17 36 50 56.5t72 20.5q111 0 150 -82q52 83 140 83q85 0 132.5 -54t47.5 -158v-265h-138v249q0 44 -22 68.5t-55 24.5z"/>
            <glyph glyph-name="n" unicode="n"
                   d="M203 247v-247h-139v467h139v-68q19 35 56 56.5t79 21.5q81 0 126 -50t45 -148v-279h-139v249q0 46 -22 69.5t-59 23.5q-86 0 -86 -95z"/>
            <glyph glyph-name="o" unicode="o" horiz-adv-x="557"
                   d="M278 128q45 0 75.5 29.5t30.5 77.5q0 47 -30.5 76.5t-75.5 29.5q-44 0 -74.5 -29.5t-30.5 -76.5q0 -48 30.5 -77.5t74.5 -29.5zM278 -8q-102 0 -172 67.5t-70 175.5t70 175t172 67t172.5 -67t70.5 -175t-70.5 -175.5t-172.5 -67.5z"/>
            <glyph glyph-name="p" unicode="p" horiz-adv-x="602"
                   d="M205 232q0 -50 32 -80.5t76 -30.5q46 0 77 30.5t31 80.5t-31.5 81.5t-76.5 31.5t-76.5 -31.5t-31.5 -81.5zM64 467h138v-58q17 32 54.5 50t82.5 18q93 0 159.5 -67t66.5 -175q0 -109 -66.5 -177t-159.5 -68q-45 0 -82.5 17.5t-54.5 49.5v-286h-138v696z"/>
            <glyph glyph-name="q" unicode="q" horiz-adv-x="602"
                   d="M399 409v58h139v-696h-139v286q-17 -32 -54 -49.5t-83 -17.5q-93 0 -159 68t-66 177q0 108 66 175t159 67q46 0 83 -18t54 -50zM396 232q0 50 -31.5 81.5t-76.5 31.5t-76 -31t-31 -82q0 -50 31 -80.5t76 -30.5q44 0 76 30.5t32 80.5z"/>
            <glyph glyph-name="r" unicode="r" horiz-adv-x="423"
                   d="M203 163v-163h-139v467h139v-113q17 61 54.5 92t77.5 31q44 0 80 -17l-25 -125q-29 14 -71 14q-116 0 -116 -186z"/>
            <glyph glyph-name="s" unicode="s" horiz-adv-x="467"
                   d="M246 176l-61 16q-40 11 -68.5 26.5t-42 29.5t-20.5 35t-8 31.5t-1 29.5q0 52 54.5 92.5t127.5 40.5q36 0 69 -8.5t61.5 -25.5t45 -48.5t16.5 -72.5h-131q-1 41 -53 41q-23 0 -36.5 -9.5t-12.5 -25.5q2 -25 41 -35l79 -21q40 -11 67 -29.5t39 -39.5t16.5 -36.5t4.5 -30.5
q0 -70 -60.5 -108t-141.5 -38q-76 0 -135.5 43.5t-59.5 117.5h130q1 -21 21 -37.5t48 -16.5q24 1 40.5 11.5t16.5 27.5q0 15 -10 24t-36 16z"/>
            <glyph glyph-name="t" unicode="t" horiz-adv-x="365"
                   d="M246 467h98v-110h-98v-357h-138v357h-85v110h85v179h138v-179z"/>
            <glyph glyph-name="u" unicode="u"
                   d="M365 220v247h139v-467h-139v64q-18 -34 -52 -54t-69 -20q-82 0 -133.5 51t-51.5 147v279h139v-249q0 -50 26 -71.5t57 -21.5q36 0 60 23t24 72z"/>
            <glyph glyph-name="v" unicode="v" horiz-adv-x="520"
                   d="M200 0l-197 467h148l109 -290l108 290h149l-198 -467h-119z"/>
            <glyph glyph-name="w" unicode="w" horiz-adv-x="763"
                   d="M753 467l-164 -467h-116l-92 297l-88 -297h-116l-169 467h148l83 -278l82 278h119l82 -278l83 278h148z"/>
            <glyph glyph-name="x" unicode="x" horiz-adv-x="530"
                   d="M188 253l-154 214h162l70 -103l69 103h161l-154 -214l183 -253h-161l-99 143l-100 -143h-161z"/>
            <glyph glyph-name="y" unicode="y" horiz-adv-x="510"
                   d="M506 467l-288 -696h-147l112 277l-180 419h148l103 -265l104 265h148z"/>
            <glyph glyph-name="z" unicode="z" horiz-adv-x="510"
                   d="M55 467h407v-104l-224 -235h224v-128h-421v103l220 236h-206v128z"/>
            <glyph glyph-name="braceleft" unicode="{" horiz-adv-x="412"
                   d="M31 188v84q24 0 42.5 16t18.5 42v159q0 90 58 145t144 55h85v-101h-88q-34 0 -58 -25t-24 -61v-164q0 -42 -25 -71.5t-54 -36.5q29 -7 54 -36.5t25 -71.5v-153q0 -37 24.5 -65t57.5 -28h88v-105h-85q-86 0 -144 55t-58 145v159q0 26 -18.5 42t-42.5 16z"/>
            <glyph glyph-name="bar" unicode="|" horiz-adv-x="219"
                   d="M73 802h73v-926h-73v926z"/>
            <glyph glyph-name="braceright" unicode="}" horiz-adv-x="412"
                   d="M381 272v-84q-24 0 -42.5 -16t-18.5 -42v-159q0 -90 -58 -145t-144 -55h-85v105h88q33 0 57.5 28t24.5 65v153q0 42 25 71.5t54 36.5q-29 7 -54 36.5t-25 71.5v164q0 36 -24 61t-58 25h-88v101h85q86 0 144 -55t58 -145v-159q0 -26 18.5 -42t42.5 -16z"/>
            <glyph glyph-name="exclamdown" unicode="&#xa1;" horiz-adv-x="267"
                   d="M211 -229h-154l20 488h114zM47 393q0 36 25 60t61 24t61.5 -24t25.5 -60q0 -35 -25.5 -59t-61.5 -24t-61 23.5t-25 59.5z"/>
            <glyph glyph-name="cent" unicode="&#xa2;" horiz-adv-x="538"
                   d="M319 581v-105q115 -11 177 -98l-113 -81q-29 47 -90 47q-46 0 -81 -30.5t-35 -78.5q0 -49 35 -80.5t81 -31.5q61 0 90 47l113 -80q-62 -88 -177 -99v-115h-73v118q-88 15 -147.5 80.5t-59.5 160.5q0 94 59 158t148 80v108h73z"/>
            <glyph glyph-name="sterling" unicode="&#xa3;" horiz-adv-x="680"
                   d="M287 279v-155h184q14 0 22 10t8 26v29h137v-56q0 -57 -36 -95t-90 -38h-471v124h106v155h-83v63h83v131q0 101 59.5 162.5t153.5 61.5q99 0 163 -58.5t64 -171.5h-145q0 82 -79 82q-35 0 -55.5 -20.5t-20.5 -55.5v-131h115v-63h-115z"/>
            <glyph glyph-name="currency" unicode="&#xa4;" horiz-adv-x="621"
                   d="M227 339q0 -35 24 -59t59 -24t59.5 24t24.5 59t-24.5 59.5t-59.5 24.5t-59 -24.5t-24 -59.5zM203 164l-71 -72l-69 69l71 72q-29 47 -29 106t30 107l-72 72l69 69l72 -72q49 30 106 30q59 0 107 -30l71 72l69 -69l-72 -73q31 -52 31 -106q0 -59 -30 -106l71 -72l-69 -69
l-71 72q-48 -30 -107 -30t-107 30z"/>
            <glyph glyph-name="yen" unicode="&#xa5;" horiz-adv-x="742"
                   d="M712 689l-257 -365h146v-68h-156v-93h156v-68h-156v-95h-149v95h-155v68h155v93h-155v68h146l-257 365h174l166 -258l168 258h174z"/>
            <glyph glyph-name="brokenbar" unicode="&#xa6;" horiz-adv-x="221"
                   d="M147 420h-73v382h73v-382zM74 260h73v-384h-73v384z"/>
            <glyph glyph-name="section" unicode="&#xa7;" horiz-adv-x="541"
                   d="M322 228v-122q-25 -6 -50 -6q-89 0 -151 58t-62 152v176q0 94 62 152t151 58q74 0 134 -42.5t76 -122.5l-117 -35q-11 40 -37 58.5t-56 18.5q-37 0 -63 -24t-26 -63v-176q0 -40 25.5 -63t63.5 -23h6q23 0 44 4zM219 301v122q25 6 50 6q89 0 151 -58t62 -152v-176
q0 -94 -62 -152t-151 -58q-74 0 -134 42.5t-76 122.5l117 35q11 -40 37 -58.5t56 -18.5q37 0 63 24t26 63v176q0 40 -25.5 63t-63.5 23h-6q-23 0 -44 -4z"/>
            <glyph glyph-name="dieresis" unicode="&#xa8;" horiz-adv-x="561"
                   d="M120 638q0 29 21.5 48.5t51.5 19.5t50.5 -19.5t20.5 -48.5t-21 -49t-50 -20q-30 0 -51.5 20t-21.5 49zM297 638q0 29 21.5 48.5t51.5 19.5t50.5 -19.5t20.5 -48.5t-21 -49t-50 -20q-30 0 -51.5 20t-21.5 49z"/>
            <glyph glyph-name="copyright" unicode="&#xa9;" horiz-adv-x="797"
                   d="M478 290l67 -45q-24 -37 -64 -59.5t-84 -22.5q-73 0 -123 52t-50 125q0 74 49.5 125.5t123.5 51.5q93 0 146 -79l-66 -46q-34 46 -80 46q-39 0 -64 -28t-25 -70q0 -40 25 -68t64 -28q47 0 81 46zM49 343q0 147 101.5 250.5t247.5 103.5t248 -103.5t102 -250.5t-102 -250
t-248 -103t-247.5 103t-101.5 250zM127 343q0 -114 79 -194t192 -80t192 80t79 194t-79 194.5t-192 80.5t-192 -80.5t-79 -194.5z"/>
            <glyph glyph-name="ordfeminine" unicode="&#xaa;" horiz-adv-x="468"
                   d="M317 323v45q-17 -24 -45 -38t-58 -14q-70 0 -119 48.5t-49 124.5q0 78 48.5 125.5t119.5 47.5q64 0 103 -50v43h76v-332h-76zM317 490q0 45 -29.5 70.5t-68.5 25.5q-41 0 -68 -26.5t-27 -69.5q0 -44 27 -71t68 -27t69.5 26.5t28.5 71.5zM77 212v53h315v-53h-315z"/>
            <glyph glyph-name="guillemotleft" unicode="&#xab;" horiz-adv-x="505"
                   d="M39 233l138 207h108l-138 -207l138 -207h-108zM216 233l138 207h108l-138 -207l138 -207h-108z"/>
            <glyph glyph-name="logicalnot" unicode="&#xac;" horiz-adv-x="628"
                   d="M68 373h486v-269h-121v149h-365v120z"/>
            <glyph glyph-name="registered" unicode="&#xae;" horiz-adv-x="797"
                   d="M416 438h-56v-81h53q16 0 26 13t10 29q0 13 -9.5 26t-23.5 13zM457 287l84 -113h-101l-73 109h-7v-109h-84v339h142q56 0 86.5 -34t30.5 -80q0 -39 -20.5 -69.5t-57.5 -42.5zM49 343q0 147 101.5 250.5t247.5 103.5t248 -103.5t102 -250.5t-102 -250t-248 -103
t-247.5 103t-101.5 250zM127 343q0 -114 79 -194t192 -80t192 80t79 194t-79 194.5t-192 80.5t-192 -80.5t-79 -194.5z"/>
            <glyph glyph-name="macron" unicode="&#xaf;" horiz-adv-x="518"
                   d="M120 587v85h278v-85h-278z"/>
            <glyph glyph-name="degree" unicode="&#xb0;" horiz-adv-x="376"
                   d="M44 529q0 59 42.5 101.5t100.5 42.5q60 0 102.5 -42.5t42.5 -101.5q0 -60 -42.5 -102.5t-102.5 -42.5q-58 0 -100.5 42.5t-42.5 102.5zM116 529q0 -31 21 -52t50 -21q31 0 52 21t21 52q0 30 -21 51t-52 21q-29 0 -50 -21t-21 -51z"/>
            <glyph glyph-name="plusminus" unicode="&#xb1;" horiz-adv-x="547"
                   d="M324 292v-143h-102v143h-154v102h154v141h102v-141h155v-102h-155zM479 -1h-411v102h411v-102z"/>
            <glyph glyph-name="twosuperior" unicode="&#xb2;" horiz-adv-x="317"
                   d="M29 477l156 185q20 23 20 44q0 16 -13 27t-35 11q-21 0 -36 -14.5t-18 -38.5l-74 13q9 54 44 85.5t89 31.5q51 0 87.5 -32.5t36.5 -82.5q0 -49 -40 -96q-65 -73 -88 -100h118v-76h-247v43z"/>
            <glyph glyph-name="threesuperior" unicode="&#xb3;" horiz-adv-x="317"
                   d="M104 725l-32 20l-32 20q18 28 49 43t69 13q49 -4 81.5 -35t30.5 -71q0 -48 -49 -75q31 -12 49 -41.5t16 -61.5q-4 -48 -48 -80t-101 -28q-39 3 -72 25t-49 55l11 5l24 12l35 18q18 -32 57 -37q21 -2 37 11t18 29q0 22 -3 29q-13 24 -49 23h-40v69h40q38 0 38 42
q0 13 -10.5 25t-28.5 12q-26 0 -41 -22z"/>
            <glyph glyph-name="acute" unicode="&#xb4;" horiz-adv-x="554"
                   d="M239 707h138l-148 -168h-100z"/>
            <glyph glyph-name="mu" unicode="&#xb5;" horiz-adv-x="574"
                   d="M72 -191v658h139v-249q0 -50 26 -71.5t57 -21.5q36 0 60 23t24 72v247h139v-467h-139v64q-18 -34 -52 -54t-69 -20q-41 0 -72 27l14 -132v-76h-127z"/>
            <glyph glyph-name="paragraph" unicode="&#xb6;" horiz-adv-x="713"
                   d="M343 689v-703q0 -24 -24 -24h-79v293q-86 6 -146.5 68t-60.5 149q0 90 63 153.5t154 63.5h93zM539 588h-34v-637q0 -52 -42 -94.5t-95 -42.5h-129v91h121q20 0 32.5 13.5t12.5 32.5v738h136q57 0 97 -41t40 -96v-85h-93v76q0 20 -13.5 32.5t-32.5 12.5z"/>
            <glyph glyph-name="periodcentered" unicode="&#xb7;" horiz-adv-x="281"
                   d="M54 347q0 36 25 59.5t61 23.5t61.5 -24t25.5 -59q0 -36 -25.5 -60t-61.5 -24t-61 24t-25 60z"/>
            <glyph glyph-name="cedilla" unicode="&#xb8;" horiz-adv-x="531"
                   d="M239 -124q11 -26 39 -19q27 12 15 42l-47 128h65l50 -93q10 -15 10 -49q0 -42 -31.5 -72.5t-75.5 -30.5q-30 0 -55.5 17.5t-39.5 47.5q-9 21 -8 59l77 -4q-1 -3 -1 -8q0 -13 2 -18z"/>
            <glyph glyph-name="onesuperior" unicode="&#xb9;" horiz-adv-x="215"
                   d="M86 707l-65 -27v70l145 69v-385h-80v273z"/>
            <glyph glyph-name="ordmasculine" unicode="&#xba;" horiz-adv-x="454"
                   d="M223 316q-72 0 -122.5 49t-50.5 126q0 76 50.5 123.5t122.5 47.5t123 -47.5t51 -123.5q0 -77 -51 -126t-123 -49zM223 392q41 0 69 27.5t28 71.5q0 43 -28 69t-69 26t-69 -26t-28 -69q0 -44 28 -71.5t69 -27.5zM72 212v53h315v-53h-315z"/>
            <glyph glyph-name="guillemotright" unicode="&#xbb;" horiz-adv-x="505"
                   d="M466 233l-138 -207h-108l138 207l-138 207h108zM289 233l-138 -207h-108l138 207l-138 207h108z"/>
            <glyph glyph-name="onequarter" unicode="&#xbc;" horiz-adv-x="783"
                   d="M104 548l-65 -27v70l145 69v-385h-80v273zM698 85v-85h-81v85h-182l179 295h84v-227h48v-68h-48zM545 153h72v119zM627 668l-451 -678h-83l452 678h82z"/>
            <glyph glyph-name="onehalf" unicode="&#xbd;" horiz-adv-x="791"
                   d="M104 548l-65 -27v70l145 69v-385h-80v273zM493 43l156 185q20 23 20 44q0 16 -13 27t-35 11q-21 0 -36 -14.5t-18 -38.5l-74 13q9 54 44 85.5t89 31.5q51 0 87.5 -32.5t36.5 -82.5q0 -49 -40 -96q-65 -73 -88 -100h118v-76h-247v43zM621 668l-451 -678h-83l452 678h82z
"/>
            <glyph glyph-name="threequarters" unicode="&#xbe;" horiz-adv-x="830"
                   d="M744 85v-85h-81v85h-182l179 295h84v-227h48v-68h-48zM591 153h72v119zM124 566l-32 20l-32 20q18 28 49 43t69 13q49 -4 81.5 -35t30.5 -71q0 -48 -49 -75q31 -12 49 -41.5t16 -61.5q-4 -48 -48 -80t-101 -28q-39 3 -72 25t-49 55l11 5l24 12l35 18q18 -32 57 -37
q21 -2 37 11t18 29q0 22 -3 29q-13 24 -49 23h-40v69h40q38 0 38 42q0 13 -10.5 25t-28.5 12q-26 0 -41 -22zM691 668l-451 -678h-83l452 678h82z"/>
            <glyph glyph-name="questiondown" unicode="&#xbf;" horiz-adv-x="487"
                   d="M218 237l2 22h136l2 -22q0 -39 -1 -58.5t-6.5 -44.5t-17 -39.5t-32 -30t-52.5 -28.5l-40 -17q-24 -13 -30.5 -24t-6.5 -31q0 -24 19.5 -39t51.5 -15t51.5 18.5t19.5 50.5h140q0 -95 -58 -152t-153 -57t-153 53t-58 142q0 71 36.5 121t97.5 68q30 9 41 27.5t11 55.5z
M372 393q0 -36 -25 -59.5t-61 -23.5t-61.5 24t-25.5 59q0 36 25.5 60t61.5 24t61 -24t25 -60z"/>
            <glyph glyph-name="Agrave" unicode="&#xc0;" horiz-adv-x="659"
                   d="M259 290h143l-73 240zM449 163h-238l-61 -163h-156l256 689h159l255 -689h-154zM155 929h138l110 -168h-100z"/>
            <glyph glyph-name="Aacute" unicode="&#xc1;" horiz-adv-x="659"
                   d="M259 290h143l-73 240zM449 163h-238l-61 -163h-156l256 689h159l255 -689h-154zM371 929h138l-148 -168h-100z"/>
            <glyph glyph-name="Acircumflex" unicode="&#xc2;" horiz-adv-x="659"
                   d="M259 290h143l-73 240zM449 163h-238l-61 -163h-156l256 689h159l255 -689h-154zM259 933h138l110 -168h-100l-79 89l-78 -89h-100z"/>
            <glyph glyph-name="Atilde" unicode="&#xc3;" horiz-adv-x="659"
                   d="M259 290h143l-73 240zM449 163h-238l-61 -163h-156l256 689h159l255 -689h-154zM285 828q-8 0 -16.5 -11t-9.5 -32h-75q3 68 33 99t68 31q23 0 50 -20.5t37 -20.5q8 0 16.5 10t9.5 31h75q-3 -67 -33.5 -97.5t-67.5 -30.5q-22 0 -49.5 20.5t-37.5 20.5z"/>
            <glyph glyph-name="Adieresis" unicode="&#xc4;" horiz-adv-x="659"
                   d="M259 290h143l-73 240zM449 163h-238l-61 -163h-156l256 689h159l255 -689h-154zM156 860q0 29 21.5 48.5t51.5 19.5t50.5 -19.5t20.5 -48.5t-21 -49t-50 -20q-30 0 -51.5 20t-21.5 49zM333 860q0 29 21.5 48.5t51.5 19.5t50.5 -19.5t20.5 -48.5t-21 -49t-50 -20
q-30 0 -51.5 20t-21.5 49z"/>
            <glyph glyph-name="Aring" unicode="&#xc5;" horiz-adv-x="659"
                   d="M259 290h143l-73 240zM449 163h-238l-61 -163h-156l256 689h159l255 -689h-154zM208 881q0 52 35 87.5t85 35.5q51 0 86.5 -35.5t35.5 -87.5q0 -50 -35.5 -85t-86.5 -35q-50 0 -85 35t-35 85zM273 881q0 -23 16 -39t39 -16q24 0 40.5 16t16.5 39q0 25 -16.5 41.5
t-40.5 16.5q-23 0 -39 -16.5t-16 -41.5z"/>
            <glyph glyph-name="AE" unicode="&#xc6;" horiz-adv-x="934"
                   d="M414 689h461v-129h-290v-157h254v-127h-254v-147h299v-129h-445v1l-1 -1v158h-184l-100 -158h-175zM438 493l-101 -194h101v194z"/>
            <glyph glyph-name="Ccedilla" unicode="&#xc7;" horiz-adv-x="701"
                   d="M331 -124q11 -26 39 -19q27 12 15 42l-34 93q-134 14 -221.5 114t-87.5 237q0 147 100 250.5t246 103.5q91 0 166 -39t121 -107l-119 -82q-61 90 -168 90q-85 0 -142 -62.5t-57 -153.5q0 -90 57 -152.5t142 -62.5q53 0 98 26t74 69l118 -82q-43 -64 -108.5 -103
t-147.5 -46l31 -58q10 -19 10 -49q0 -42 -31.5 -72.5t-75.5 -30.5q-30 0 -55.5 17.5t-39.5 47.5q-9 21 -8 59l77 -4q-1 -3 -1 -8q0 -13 2 -18z"/>
            <glyph glyph-name="Egrave" unicode="&#xc8;" horiz-adv-x="576"
                   d="M81 0v689h436v-129h-290v-157h254v-127h-254v-147h299v-129h-445zM134 929h138l110 -168h-100z"/>
            <glyph glyph-name="Eacute" unicode="&#xc9;" horiz-adv-x="576"
                   d="M81 0v689h436v-129h-290v-157h254v-127h-254v-147h299v-129h-445zM323 929h138l-148 -168h-100z"/>
            <glyph glyph-name="Ecircumflex" unicode="&#xca;" horiz-adv-x="576"
                   d="M81 0v689h436v-129h-290v-157h254v-127h-254v-147h299v-129h-445zM214 933h138l110 -168h-100l-79 89l-78 -89h-100z"/>
            <glyph glyph-name="Edieresis" unicode="&#xcb;" horiz-adv-x="576"
                   d="M81 0v689h436v-129h-290v-157h254v-127h-254v-147h299v-129h-445zM123 860q0 29 21.5 48.5t51.5 19.5t50.5 -19.5t20.5 -48.5t-21 -49t-50 -20q-30 0 -51.5 20t-21.5 49zM300 860q0 29 21.5 48.5t51.5 19.5t50.5 -19.5t20.5 -48.5t-21 -49t-50 -20q-30 0 -51.5 20
t-21.5 49z"/>
            <glyph glyph-name="Igrave" unicode="&#xcc;" horiz-adv-x="308"
                   d="M81 689h146v-689h-146v689zM-22 929h138l110 -168h-100z"/>
            <glyph glyph-name="Iacute" unicode="&#xcd;" horiz-adv-x="308"
                   d="M81 689h146v-689h-146v689zM190 929h138l-148 -168h-100z"/>
            <glyph glyph-name="Icircumflex" unicode="&#xce;" horiz-adv-x="308"
                   d="M81 689h146v-689h-146v689zM85 933h138l110 -168h-100l-79 89l-78 -89h-100z"/>
            <glyph glyph-name="Idieresis" unicode="&#xcf;" horiz-adv-x="308"
                   d="M81 689h146v-689h-146v689zM-6 860q0 29 21.5 48.5t51.5 19.5t50.5 -19.5t20.5 -48.5t-21 -49t-50 -20q-30 0 -51.5 20t-21.5 49zM171 860q0 29 21.5 48.5t51.5 19.5t50.5 -19.5t20.5 -48.5t-21 -49t-50 -20q-30 0 -51.5 20t-21.5 49z"/>
            <glyph glyph-name="Eth" unicode="&#xd0;" horiz-adv-x="722"
                   d="M2 284v98h94v307h270q144 0 227.5 -97.5t83.5 -248.5t-83.5 -247t-227.5 -96h-270v284h-94zM242 284v-151h124q78 0 121.5 60t43.5 150t-43.5 151.5t-121.5 61.5h-124v-174h123v-98h-123z"/>
            <glyph glyph-name="Ntilde" unicode="&#xd1;" horiz-adv-x="679"
                   d="M296 828q-8 0 -16.5 -11t-9.5 -32h-75q3 68 33 99t68 31q23 0 50 -20.5t37 -20.5q8 0 16.5 10t9.5 31h75q-3 -67 -33.5 -97.5t-67.5 -30.5q-22 0 -49.5 20.5t-37.5 20.5zM598 689v-689h-131l-240 417v-417h-146v689h134l236 -412v412h147z"/>
            <glyph glyph-name="Ograve" unicode="&#xd2;" horiz-adv-x="781"
                   d="M187 343q0 -87 58.5 -147.5t144.5 -60.5q85 0 144.5 61t59.5 147q0 87 -59.5 148t-144.5 61q-86 0 -144.5 -61t-58.5 -148zM41 343q0 147 101.5 250.5t247.5 103.5t248 -103.5t102 -250.5q0 -146 -102 -249.5t-248 -103.5t-247.5 103.5t-101.5 249.5zM213 929h138
l110 -168h-100z"/>
            <glyph glyph-name="Oacute" unicode="&#xd3;" horiz-adv-x="781"
                   d="M187 343q0 -87 58.5 -147.5t144.5 -60.5q85 0 144.5 61t59.5 147q0 87 -59.5 148t-144.5 61q-86 0 -144.5 -61t-58.5 -148zM41 343q0 147 101.5 250.5t247.5 103.5t248 -103.5t102 -250.5q0 -146 -102 -249.5t-248 -103.5t-247.5 103.5t-101.5 249.5zM435 929h138
l-148 -168h-100z"/>
            <glyph glyph-name="Ocircumflex" unicode="&#xd4;" horiz-adv-x="781"
                   d="M187 343q0 -87 58.5 -147.5t144.5 -60.5q85 0 144.5 61t59.5 147q0 87 -59.5 148t-144.5 61q-86 0 -144.5 -61t-58.5 -148zM41 343q0 147 101.5 250.5t247.5 103.5t248 -103.5t102 -250.5q0 -146 -102 -249.5t-248 -103.5t-247.5 103.5t-101.5 249.5zM321 933h138
l110 -168h-100l-79 89l-78 -89h-100z"/>
            <glyph glyph-name="Otilde" unicode="&#xd5;" horiz-adv-x="781"
                   d="M187 343q0 -87 58.5 -147.5t144.5 -60.5q85 0 144.5 61t59.5 147q0 87 -59.5 148t-144.5 61q-86 0 -144.5 -61t-58.5 -148zM41 343q0 147 101.5 250.5t247.5 103.5t248 -103.5t102 -250.5q0 -146 -102 -249.5t-248 -103.5t-247.5 103.5t-101.5 249.5zM347 828
q-8 0 -16.5 -11t-9.5 -32h-75q3 68 33 99t68 31q23 0 50 -20.5t37 -20.5q8 0 16.5 10t9.5 31h75q-3 -67 -33.5 -97.5t-67.5 -30.5q-22 0 -49.5 20.5t-37.5 20.5z"/>
            <glyph glyph-name="Odieresis" unicode="&#xd6;" horiz-adv-x="781"
                   d="M187 343q0 -87 58.5 -147.5t144.5 -60.5q85 0 144.5 61t59.5 147q0 87 -59.5 148t-144.5 61q-86 0 -144.5 -61t-58.5 -148zM41 343q0 147 101.5 250.5t247.5 103.5t248 -103.5t102 -250.5q0 -146 -102 -249.5t-248 -103.5t-247.5 103.5t-101.5 249.5zM230 860
q0 29 21.5 48.5t51.5 19.5t50.5 -19.5t20.5 -48.5t-21 -49t-50 -20q-30 0 -51.5 20t-21.5 49zM407 860q0 29 21.5 48.5t51.5 19.5t50.5 -19.5t20.5 -48.5t-21 -49t-50 -20q-30 0 -51.5 20t-21.5 49z"/>
            <glyph glyph-name="multiply" unicode="&#xd7;" horiz-adv-x="491"
                   d="M316 259l117 -116l-72 -73l-117 117l-115 -114l-72 72l115 114l-116 116l72 72l116 -116l117 117l72 -72z"/>
            <glyph glyph-name="Oslash" unicode="&#xd8;" horiz-adv-x="779"
                   d="M171 67l-1 -1l-80 -82l-47 47l80 82q-83 101 -83 230q0 147 101.5 250.5t247.5 103.5q128 0 223 -81l79 81l47 -46l-80 -82q81 -97 81 -226q0 -146 -102 -249.5t-248 -103.5q-122 0 -218 77zM186 343q0 -70 39 -125l285 293q-50 41 -121 41q-86 0 -144.5 -61t-58.5 -148z
M389 135q85 0 144.5 61t59.5 147q0 65 -38 120l-283 -291q50 -37 117 -37z"/>
            <glyph glyph-name="Ugrave" unicode="&#xd9;" horiz-adv-x="682"
                   d="M342 128q48 0 83.5 33.5t35.5 84.5v443h147v-443q0 -114 -78 -185t-188 -71t-189 71.5t-79 184.5v443h149v-443q0 -51 35.5 -84.5t83.5 -33.5zM172 929h138l110 -168h-100z"/>
            <glyph glyph-name="Uacute" unicode="&#xda;" horiz-adv-x="682"
                   d="M342 128q48 0 83.5 33.5t35.5 84.5v443h147v-443q0 -114 -78 -185t-188 -71t-189 71.5t-79 184.5v443h149v-443q0 -51 35.5 -84.5t83.5 -33.5zM371 929h138l-148 -168h-100z"/>
            <glyph glyph-name="Ucircumflex" unicode="&#xdb;" horiz-adv-x="682"
                   d="M342 128q48 0 83.5 33.5t35.5 84.5v443h147v-443q0 -114 -78 -185t-188 -71t-189 71.5t-79 184.5v443h149v-443q0 -51 35.5 -84.5t83.5 -33.5zM271 933h138l110 -168h-100l-79 89l-78 -89h-100z"/>
            <glyph glyph-name="Udieresis" unicode="&#xdc;" horiz-adv-x="682"
                   d="M342 128q48 0 83.5 33.5t35.5 84.5v443h147v-443q0 -114 -78 -185t-188 -71t-189 71.5t-79 184.5v443h149v-443q0 -51 35.5 -84.5t83.5 -33.5zM180 860q0 29 21.5 48.5t51.5 19.5t50.5 -19.5t20.5 -48.5t-21 -49t-50 -20q-30 0 -51.5 20t-21.5 49zM357 860
q0 29 21.5 48.5t51.5 19.5t50.5 -19.5t20.5 -48.5t-21 -49t-50 -20q-30 0 -51.5 20t-21.5 49z"/>
            <glyph glyph-name="Yacute" unicode="&#xdd;" horiz-adv-x="651"
                   d="M400 0h-149v312l-266 377h174l166 -258l168 258h174l-267 -379v-310zM360 929h138l-148 -168h-100z"/>
            <glyph glyph-name="Thorn" unicode="&#xde;" horiz-adv-x="572"
                   d="M402 349q0 47 -25 75.5t-60 28.5h-90v-203h90q35 0 60 27t25 72zM324 126h-97v-126h-146v689h146v-112h97q95 0 159 -61.5t64 -162.5t-64 -164t-159 -63z"/>
            <glyph glyph-name="germandbls" unicode="&#xdf;" horiz-adv-x="781"
                   d="M46 408h539q-24 84 -92 124t-144.5 22.5t-122.5 -86.5l-120 82q44 64 109.5 101t135 44.5t140 -13t125.5 -63.5t89.5 -115t34.5 -161q0 -146 -100.5 -249.5t-249.5 -103.5q-109 0 -195.5 58.5t-127.5 155.5t-21 204zM584 277h-387q23 -69 76 -105.5t117 -36.5t117.5 36.5
t76.5 105.5z"/>
            <glyph glyph-name="germandbls" unicode="&#x42f;" horiz-adv-x="781"
                   d="M46 408h539q-24 84 -92 124t-144.5 22.5t-122.5 -86.5l-120 82q44 64 109.5 101t135 44.5t140 -13t125.5 -63.5t89.5 -115t34.5 -161q0 -146 -100.5 -249.5t-249.5 -103.5q-109 0 -195.5 58.5t-127.5 155.5t-21 204zM584 277h-387q23 -69 76 -105.5t117 -36.5t117.5 36.5
t76.5 105.5z"/>
            <glyph glyph-name="germandbls" unicode="&#x18f;" horiz-adv-x="781"
                   d="M46 408h539q-24 84 -92 124t-144.5 22.5t-122.5 -86.5l-120 82q44 64 109.5 101t135 44.5t140 -13t125.5 -63.5t89.5 -115t34.5 -161q0 -146 -100.5 -249.5t-249.5 -103.5q-109 0 -195.5 58.5t-127.5 155.5t-21 204zM584 277h-387q23 -69 76 -105.5t117 -36.5t117.5 36.5
t76.5 105.5z"/>
            <glyph glyph-name="agrave" unicode="&#xe0;" horiz-adv-x="612"
                   d="M410 0v53q-20 -30 -61.5 -46t-74.5 -16q-94 0 -166 68t-72 175t72 175t166 68q32 0 71.5 -14t64.5 -48v52h138v-467h-138zM180 234q0 -48 35.5 -79.5t81.5 -31.5q45 0 79 30.5t34 80.5t-34 80.5t-79 30.5q-46 0 -81.5 -31.5t-35.5 -79.5zM135 707h138l110 -168h-100z"/>
            <glyph glyph-name="aacute" unicode="&#xe1;" horiz-adv-x="612"
                   d="M410 0v53q-20 -30 -61.5 -46t-74.5 -16q-94 0 -166 68t-72 175t72 175t166 68q32 0 71.5 -14t64.5 -48v52h138v-467h-138zM180 234q0 -48 35.5 -79.5t81.5 -31.5q45 0 79 30.5t34 80.5t-34 80.5t-79 30.5q-46 0 -81.5 -31.5t-35.5 -79.5zM321 707h138l-148 -168h-100z
"/>
            <glyph glyph-name="acircumflex" unicode="&#xe2;" horiz-adv-x="612"
                   d="M410 0v53q-20 -30 -61.5 -46t-74.5 -16q-94 0 -166 68t-72 175t72 175t166 68q32 0 71.5 -14t64.5 -48v52h138v-467h-138zM180 234q0 -48 35.5 -79.5t81.5 -31.5q45 0 79 30.5t34 80.5t-34 80.5t-79 30.5q-46 0 -81.5 -31.5t-35.5 -79.5zM237 711h138l110 -168h-100
l-79 89l-78 -89h-100z"/>
            <glyph glyph-name="atilde" unicode="&#xe3;" horiz-adv-x="612"
                   d="M410 0v53q-20 -30 -61.5 -46t-74.5 -16q-94 0 -166 68t-72 175t72 175t166 68q32 0 71.5 -14t64.5 -48v52h138v-467h-138zM180 234q0 -48 35.5 -79.5t81.5 -31.5q45 0 79 30.5t34 80.5t-34 80.5t-79 30.5q-46 0 -81.5 -31.5t-35.5 -79.5zM263 606q-8 0 -16.5 -11
t-9.5 -32h-75q3 68 33 99t68 31q23 0 50 -20.5t37 -20.5q8 0 16.5 10t9.5 31h75q-3 -67 -33.5 -97.5t-67.5 -30.5q-22 0 -49.5 20.5t-37.5 20.5z"/>
            <glyph glyph-name="adieresis" unicode="&#xe4;" horiz-adv-x="612"
                   d="M410 0v53q-20 -30 -61.5 -46t-74.5 -16q-94 0 -166 68t-72 175t72 175t166 68q32 0 71.5 -14t64.5 -48v52h138v-467h-138zM180 234q0 -48 35.5 -79.5t81.5 -31.5q45 0 79 30.5t34 80.5t-34 80.5t-79 30.5q-46 0 -81.5 -31.5t-35.5 -79.5zM146 638q0 29 21.5 48.5
t51.5 19.5t50.5 -19.5t20.5 -48.5t-21 -49t-50 -20q-30 0 -51.5 20t-21.5 49zM323 638q0 29 21.5 48.5t51.5 19.5t50.5 -19.5t20.5 -48.5t-21 -49t-50 -20q-30 0 -51.5 20t-21.5 49z"/>
            <glyph glyph-name="aring" unicode="&#xe5;" horiz-adv-x="612"
                   d="M410 0v53q-20 -30 -61.5 -46t-74.5 -16q-94 0 -166 68t-72 175t72 175t166 68q32 0 71.5 -14t64.5 -48v52h138v-467h-138zM180 234q0 -48 35.5 -79.5t81.5 -31.5q45 0 79 30.5t34 80.5t-34 80.5t-79 30.5q-46 0 -81.5 -31.5t-35.5 -79.5zM186 659q0 52 35 87.5t85 35.5
q51 0 86.5 -35.5t35.5 -87.5q0 -50 -35.5 -85t-86.5 -35q-50 0 -85 35t-35 85zM251 659q0 -23 16 -39t39 -16q24 0 40.5 16t16.5 39q0 25 -16.5 41.5t-40.5 16.5q-23 0 -39 -16.5t-16 -41.5z"/>
            <glyph glyph-name="ae" unicode="&#xe6;" horiz-adv-x="970"
                   d="M812 154l101 -69q-65 -95 -213 -95q-85 0 -152 50v-40h-138v53q-20 -30 -61.5 -46t-74.5 -16q-94 0 -166 68t-72 175t72 175t166 68q32 0 71.5 -14t64.5 -48v52h138v-39q68 49 152 49q102 0 170.5 -68.5t68.5 -177.5q0 -19 -2 -43h-342q6 -38 39.5 -58t75.5 -20
q69 0 102 44zM180 234q0 -48 35.5 -79.5t81.5 -31.5q45 0 79 30.5t34 80.5t-34 80.5t-79 30.5q-46 0 -81.5 -31.5t-35.5 -79.5zM597 275h202q-6 39 -35 59.5t-63 20.5t-65.5 -19.5t-38.5 -60.5z"/>
            <glyph glyph-name="ccedilla" unicode="&#xe7;" horiz-adv-x="525"
                   d="M322 -8l31 -58q10 -17 10 -49q0 -42 -31.5 -72.5t-75.5 -30.5q-30 0 -55.5 17.5t-39.5 47.5q-9 21 -8 59l77 -4q-1 -3 -1 -8q0 -13 2 -18q11 -26 39 -19q27 12 15 42l-35 94q-91 12 -152.5 79t-61.5 163q0 107 75 174.5t179 67.5q133 0 203 -99l-113 -81q-29 47 -90 47
q-46 0 -81 -30.5t-35 -78.5q0 -49 35 -80.5t81 -31.5q61 0 90 47l113 -80q-60 -86 -171 -98z"/>
            <glyph glyph-name="egrave" unicode="&#xe8;" horiz-adv-x="550"
                   d="M100 707h138l110 -168h-100zM392 154l101 -69q-65 -95 -213 -95q-102 0 -173 68.5t-71 176.5t70.5 175t173.5 67q102 0 170.5 -68.5t68.5 -177.5q0 -19 -2 -43h-342q6 -38 39.5 -58t75.5 -20q69 0 102 44zM177 275h202q-6 39 -35 59.5t-63 20.5t-65.5 -19.5t-38.5 -60.5z
"/>
            <glyph glyph-name="eacute" unicode="&#xe9;" horiz-adv-x="550"
                   d="M323 707h138l-148 -168h-100zM392 154l101 -69q-65 -95 -213 -95q-102 0 -173 68.5t-71 176.5t70.5 175t173.5 67q102 0 170.5 -68.5t68.5 -177.5q0 -19 -2 -43h-342q6 -38 39.5 -58t75.5 -20q69 0 102 44zM177 275h202q-6 39 -35 59.5t-63 20.5t-65.5 -19.5t-38.5 -60.5
z"/>
            <glyph glyph-name="ecircumflex" unicode="&#xea;" horiz-adv-x="550"
                   d="M208 711h138l110 -168h-100l-79 89l-78 -89h-100zM392 154l101 -69q-65 -95 -213 -95q-102 0 -173 68.5t-71 176.5t70.5 175t173.5 67q102 0 170.5 -68.5t68.5 -177.5q0 -19 -2 -43h-342q6 -38 39.5 -58t75.5 -20q69 0 102 44zM177 275h202q-6 39 -35 59.5t-63 20.5
t-65.5 -19.5t-38.5 -60.5z"/>
            <glyph glyph-name="edieresis" unicode="&#xeb;" horiz-adv-x="550"
                   d="M117 638q0 29 21.5 48.5t51.5 19.5t50.5 -19.5t20.5 -48.5t-21 -49t-50 -20q-30 0 -51.5 20t-21.5 49zM294 638q0 29 21.5 48.5t51.5 19.5t50.5 -19.5t20.5 -48.5t-21 -49t-50 -20q-30 0 -51.5 20t-21.5 49zM392 154l101 -69q-65 -95 -213 -95q-102 0 -173 68.5
t-71 176.5t70.5 175t173.5 67q102 0 170.5 -68.5t68.5 -177.5q0 -19 -2 -43h-342q6 -38 39.5 -58t75.5 -20q69 0 102 44zM177 275h202q-6 39 -35 59.5t-63 20.5t-65.5 -19.5t-38.5 -60.5z"/>
            <glyph glyph-name="igrave" unicode="&#xec;" horiz-adv-x="265"
                   d="M64 467h137v-467h-137v467zM-45 707h138l110 -168h-100z"/>
            <glyph glyph-name="iacute" unicode="&#xed;" horiz-adv-x="265"
                   d="M64 467h137v-467h-137v467zM174 707h138l-148 -168h-100z"/>
            <glyph glyph-name="icircumflex" unicode="&#xee;" horiz-adv-x="265"
                   d="M64 467h137v-467h-137v467zM63 711h138l110 -168h-100l-79 89l-78 -89h-100z"/>
            <glyph glyph-name="idieresis" unicode="&#xef;" horiz-adv-x="265"
                   d="M64 467h137v-467h-137v467zM-30 638q0 29 21.5 48.5t51.5 19.5t50.5 -19.5t20.5 -48.5t-21 -49t-50 -20q-30 0 -51.5 20t-21.5 49zM147 638q0 29 21.5 48.5t51.5 19.5t50.5 -19.5t20.5 -48.5t-21 -49t-50 -20q-30 0 -51.5 20t-21.5 49z"/>
            <glyph glyph-name="eth" unicode="&#xf0;" horiz-adv-x="559"
                   d="M327 585l149 -205q46 -62 46 -145q0 -108 -70.5 -175.5t-172.5 -67.5t-172 67.5t-70 175.5q0 107 72 172.5t175 59.5l-58 73l-85 -39l-29 49l81 36l-74 103h133l42 -58l86 39l35 -45zM279 128q45 0 75.5 29.5t30.5 77.5q0 47 -30.5 75.5t-75.5 28.5q-44 0 -74.5 -28.5
t-30.5 -75.5q0 -48 30.5 -77.5t74.5 -29.5z"/>
            <glyph glyph-name="ntilde" unicode="&#xf1;"
                   d="M203 247v-247h-139v467h139v-68q19 35 56 56.5t79 21.5q81 0 126 -50t45 -148v-279h-139v249q0 46 -22 69.5t-59 23.5q-86 0 -86 -95zM240 606q-8 0 -16.5 -11t-9.5 -32h-75q3 68 33 99t68 31q23 0 50 -20.5t37 -20.5q8 0 16.5 10t9.5 31h75q-3 -67 -33.5 -97.5
t-67.5 -30.5q-22 0 -49.5 20.5t-37.5 20.5z"/>
            <glyph glyph-name="ograve" unicode="&#xf2;" horiz-adv-x="557"
                   d="M278 128q45 0 75.5 29.5t30.5 77.5q0 47 -30.5 75.5t-75.5 28.5q-44 0 -74.5 -28.5t-30.5 -75.5q0 -48 30.5 -77.5t74.5 -29.5zM278 -8q-102 0 -172 67.5t-70 175.5t70 174t172 66t172.5 -66.5t70.5 -173.5q0 -108 -70.5 -175.5t-172.5 -67.5zM78 707h138l110 -168h-100z
"/>
            <glyph glyph-name="oacute" unicode="&#xf3;" horiz-adv-x="557"
                   d="M278 128q45 0 75.5 29.5t30.5 77.5q0 47 -30.5 75.5t-75.5 28.5q-44 0 -74.5 -28.5t-30.5 -75.5q0 -48 30.5 -77.5t74.5 -29.5zM278 -8q-102 0 -172 67.5t-70 175.5t70 174t172 66t172.5 -66.5t70.5 -173.5q0 -108 -70.5 -175.5t-172.5 -67.5zM329 707h138l-148 -168
h-100z"/>
            <glyph glyph-name="ocircumflex" unicode="&#xf4;" horiz-adv-x="557"
                   d="M278 128q45 0 75.5 29.5t30.5 77.5q0 47 -30.5 75.5t-75.5 28.5q-44 0 -74.5 -28.5t-30.5 -75.5q0 -48 30.5 -77.5t74.5 -29.5zM278 -8q-102 0 -172 67.5t-70 175.5t70 174t172 66t172.5 -66.5t70.5 -173.5q0 -108 -70.5 -175.5t-172.5 -67.5zM209 711h138l110 -168h-100
l-79 89l-78 -89h-100z"/>
            <glyph glyph-name="otilde" unicode="&#xf5;" horiz-adv-x="557"
                   d="M278 128q45 0 75.5 29.5t30.5 77.5q0 47 -30.5 75.5t-75.5 28.5q-44 0 -74.5 -28.5t-30.5 -75.5q0 -48 30.5 -77.5t74.5 -29.5zM278 -8q-102 0 -172 67.5t-70 175.5t70 174t172 66t172.5 -66.5t70.5 -173.5q0 -108 -70.5 -175.5t-172.5 -67.5zM235 606q-8 0 -16.5 -11
t-9.5 -32h-75q3 68 33 99t68 31q23 0 50 -20.5t37 -20.5q8 0 16.5 10t9.5 31h75q-3 -67 -33.5 -97.5t-67.5 -30.5q-22 0 -49.5 20.5t-37.5 20.5z"/>
            <glyph glyph-name="odieresis" unicode="&#xf6;" horiz-adv-x="557"
                   d="M278 128q45 0 75.5 29.5t30.5 77.5q0 47 -30.5 75.5t-75.5 28.5q-44 0 -74.5 -28.5t-30.5 -75.5q0 -48 30.5 -77.5t74.5 -29.5zM278 -8q-102 0 -172 67.5t-70 175.5t70 174t172 66t172.5 -66.5t70.5 -173.5q0 -108 -70.5 -175.5t-172.5 -67.5zM118 638q0 29 21.5 48.5
t51.5 19.5t50.5 -19.5t20.5 -48.5t-21 -49t-50 -20q-30 0 -51.5 20t-21.5 49zM295 638q0 29 21.5 48.5t51.5 19.5t50.5 -19.5t20.5 -48.5t-21 -49t-50 -20q-30 0 -51.5 20t-21.5 49z"/>
            <glyph glyph-name="divide" unicode="&#xf7;" horiz-adv-x="583"
                   d="M214 65q0 33 22.5 54t55.5 21t56 -21.5t23 -53.5q0 -33 -23 -54.5t-56 -21.5t-55.5 21.5t-22.5 54.5zM214 424q0 32 22.5 53.5t55.5 21.5t56 -21.5t23 -53.5q0 -33 -23 -54.5t-56 -21.5t-55.5 21.5t-22.5 54.5zM531 195h-479v96h479v-96z"/>
            <glyph glyph-name="oslash" unicode="&#xf8;" horiz-adv-x="557"
                   d="M278 -8q-80 0 -141 42l-58 -59l-47 47l56 58q-52 63 -52 155q0 108 70 175t172 67q81 0 150 -50l52 54l47 -46l-53 -54q47 -63 47 -146q0 -108 -70.5 -175.5t-172.5 -67.5zM278 341q-44 0 -74.5 -29.5t-30.5 -76.5q0 -32 13 -54l143 146q-26 14 -51 14zM278 128
q45 0 75.5 29.5t30.5 77.5q0 21 -9 44l-139 -143q18 -8 42 -8z"/>
            <glyph glyph-name="ugrave" unicode="&#xf9;"
                   d="M131 707h138l110 -168h-100zM365 220v247h139v-467h-139v64q-18 -34 -52 -54t-69 -20q-82 0 -133.5 51t-51.5 147v279h139v-249q0 -50 26 -71.5t57 -21.5q36 0 60 23t24 72z"/>
            <glyph glyph-name="uacute" unicode="&#xfa;"
                   d="M304 707h138l-148 -168h-100zM365 220v247h139v-467h-139v64q-18 -34 -52 -54t-69 -20q-82 0 -133.5 51t-51.5 147v279h139v-249q0 -50 26 -71.5t57 -21.5q36 0 60 23t24 72z"/>
            <glyph glyph-name="ucircumflex" unicode="&#xfb;"
                   d="M211 711h138l110 -168h-100l-79 89l-78 -89h-100zM365 220v247h139v-467h-139v64q-18 -34 -52 -54t-69 -20q-82 0 -133.5 51t-51.5 147v279h139v-249q0 -50 26 -71.5t57 -21.5q36 0 60 23t24 72z"/>
            <glyph glyph-name="udieresis" unicode="&#xfc;"
                   d="M115 638q0 29 21.5 48.5t51.5 19.5t50.5 -19.5t20.5 -48.5t-21 -49t-50 -20q-30 0 -51.5 20t-21.5 49zM292 638q0 29 21.5 48.5t51.5 19.5t50.5 -19.5t20.5 -48.5t-21 -49t-50 -20q-30 0 -51.5 20t-21.5 49zM365 220v247h139v-467h-139v64q-18 -34 -52 -54t-69 -20
q-82 0 -133.5 51t-51.5 147v279h139v-249q0 -50 26 -71.5t57 -21.5q36 0 60 23t24 72z"/>
            <glyph glyph-name="yacute" unicode="&#xfd;" horiz-adv-x="510"
                   d="M506 467l-288 -696h-147l112 277l-180 419h148l103 -265l104 265h148zM277 707h138l-148 -168h-100z"/>
            <glyph glyph-name="thorn" unicode="&#xfe;" horiz-adv-x="602"
                   d="M205 235q0 -50 31.5 -81.5t76.5 -31.5t76.5 31t31.5 82q0 50 -31 80.5t-77 30.5q-44 0 -76 -30.5t-32 -80.5zM202 -229h-138v950h138v-311q17 32 54.5 49.5t82.5 17.5q93 0 159.5 -68t66.5 -177q0 -108 -66.5 -175t-159.5 -67q-45 0 -82.5 18t-54.5 50v-287z"/>
            <glyph glyph-name="ydieresis" unicode="&#xff;" horiz-adv-x="550"
                   d="M162 312l-101 69q66 95 213 95q102 0 173 -68.5t71 -176.5t-70.5 -175t-173.5 -67q-102 0 -170.5 68.5t-68.5 177.5q0 19 2 43h342q-6 38 -39.5 58t-75.5 20q-69 0 -102 -44zM377 191h-202q6 -39 35 -59.5t63 -20.5q35 0 64.5 19.5t39.5 60.5z"/>
            <glyph glyph-name="ydieresis" unicode="&#x44f;" horiz-adv-x="550"
                   d="M162 312l-101 69q66 95 213 95q102 0 173 -68.5t71 -176.5t-70.5 -175t-173.5 -67q-102 0 -170.5 68.5t-68.5 177.5q0 19 2 43h342q-6 38 -39.5 58t-75.5 20q-69 0 -102 -44zM377 191h-202q6 -39 35 -59.5t63 -20.5q35 0 64.5 19.5t39.5 60.5z"/>
            <glyph glyph-name="ydieresis" unicode="&#x259;" horiz-adv-x="550"
                   d="M162 312l-101 69q66 95 213 95q102 0 173 -68.5t71 -176.5t-70.5 -175t-173.5 -67q-102 0 -170.5 68.5t-68.5 177.5q0 19 2 43h342q-6 38 -39.5 58t-75.5 20q-69 0 -102 -44zM377 191h-202q6 -39 35 -59.5t63 -20.5q35 0 64.5 19.5t39.5 60.5z"/>
            <glyph glyph-name="Amacron" unicode="&#x100;" horiz-adv-x="659"
                   d="M259 290h143l-73 240zM449 163h-238l-61 -163h-156l256 689h159l255 -689h-154zM190 809v85h278v-85h-278z"/>
            <glyph glyph-name="amacron" unicode="&#x101;" horiz-adv-x="612"
                   d="M410 0v53q-20 -30 -61.5 -46t-74.5 -16q-94 0 -166 68t-72 175t72 175t166 68q32 0 71.5 -14t64.5 -48v52h138v-467h-138zM180 234q0 -48 35.5 -79.5t81.5 -31.5q45 0 79 30.5t34 80.5t-34 80.5t-79 30.5q-46 0 -81.5 -31.5t-35.5 -79.5zM168 587v85h278v-85h-278z"/>
            <glyph glyph-name="Abreve" unicode="&#x102;" horiz-adv-x="659"
                   d="M259 290h143l-73 240zM449 163h-238l-61 -163h-156l256 689h159l255 -689h-154zM194 911h85q0 -53 49 -53q48 0 48 53h87q0 -60 -37.5 -95.5t-97.5 -35.5q-65 0 -99.5 38t-34.5 93z"/>
            <glyph glyph-name="abreve" unicode="&#x103;" horiz-adv-x="612"
                   d="M410 0v53q-20 -30 -61.5 -46t-74.5 -16q-94 0 -166 68t-72 175t72 175t166 68q32 0 71.5 -14t64.5 -48v52h138v-467h-138zM180 234q0 -48 35.5 -79.5t81.5 -31.5q45 0 79 30.5t34 80.5t-34 80.5t-79 30.5q-46 0 -81.5 -31.5t-35.5 -79.5zM172 689h85q0 -53 49 -53
q48 0 48 53h87q0 -60 -37.5 -95.5t-97.5 -35.5q-65 0 -99.5 38t-34.5 93z"/>
            <glyph glyph-name="Aogonek" unicode="&#x104;" horiz-adv-x="659"
                   d="M664 0h-84l-37 -101q-12 -30 15 -42q28 -7 39 19q2 14 2 18q0 5 -1 8l77 4q1 -38 -8 -59q-14 -30 -39.5 -47.5t-55.5 -17.5q-44 0 -75.5 30.5t-31.5 72.5q0 32 10 49l35 66l-61 163h-238l-61 -163h-156l256 689h159zM259 290h143l-73 240z"/>
            <glyph glyph-name="aogonek" unicode="&#x105;" horiz-adv-x="612"
                   d="M180 234q0 -48 35.5 -79.5t81.5 -31.5q45 0 79 30.5t34 80.5t-34 80.5t-79 30.5q-46 0 -81.5 -31.5t-35.5 -79.5zM548 0h-68l-37 -101q-12 -30 15 -42q28 -7 39 19q2 14 2 18q0 5 -1 8l77 4q1 -38 -8 -59q-14 -30 -39.5 -47.5t-55.5 -17.5q-44 0 -75.5 30.5t-31.5 72.5
q0 32 10 49l35 66v53q-20 -30 -61.5 -46t-74.5 -16q-94 0 -166 68t-72 175t72 175t166 68q32 0 71.5 -14t64.5 -48v52h138v-467z"/>
            <glyph glyph-name="Cacute" unicode="&#x106;" horiz-adv-x="699"
                   d="M559 223l118 -82q-46 -70 -122 -110.5t-168 -40.5q-146 0 -246 103t-100 250t100 250.5t246 103.5q91 0 166 -39t121 -107l-119 -82q-61 90 -168 90q-85 0 -142 -62.5t-57 -153.5q0 -90 57 -152.5t142 -62.5q53 0 98 26t74 69zM441 929h138l-148 -168h-100z"/>
            <glyph glyph-name="cacute" unicode="&#x107;" horiz-adv-x="525"
                   d="M36 235q0 107 75 174.5t179 67.5q133 0 203 -99l-113 -81q-29 47 -90 47q-46 0 -81 -30.5t-35 -78.5q0 -49 35 -80.5t81 -31.5q61 0 90 47l113 -80q-33 -48 -86.5 -74t-116.5 -26q-103 0 -178.5 69t-75.5 176zM322 707h138l-148 -168h-100z"/>
            <glyph glyph-name="Ccircumflex" unicode="&#x108;" horiz-adv-x="699"
                   d="M559 223l118 -82q-46 -70 -122 -110.5t-168 -40.5q-146 0 -246 103t-100 250t100 250.5t246 103.5q91 0 166 -39t121 -107l-119 -82q-61 90 -168 90q-85 0 -142 -62.5t-57 -153.5q0 -90 57 -152.5t142 -62.5q53 0 98 26t74 69zM314 933h138l110 -168h-100l-79 89l-78 -89
h-100z"/>
            <glyph glyph-name="ccircumflex" unicode="&#x109;" horiz-adv-x="525"
                   d="M36 235q0 107 75 174.5t179 67.5q133 0 203 -99l-113 -81q-29 47 -90 47q-46 0 -81 -30.5t-35 -78.5q0 -49 35 -80.5t81 -31.5q61 0 90 47l113 -80q-33 -48 -86.5 -74t-116.5 -26q-103 0 -178.5 69t-75.5 176zM213 711h138l110 -168h-100l-79 89l-78 -89h-100z"/>
            <glyph glyph-name="Cdotaccent" unicode="&#x10a;" horiz-adv-x="699"
                   d="M559 223l118 -82q-46 -70 -122 -110.5t-168 -40.5q-146 0 -246 103t-100 250t100 250.5t246 103.5q91 0 166 -39t121 -107l-119 -82q-61 90 -168 90q-85 0 -142 -62.5t-57 -153.5q0 -90 57 -152.5t142 -62.5q53 0 98 26t74 69zM306 867q0 32 22 53t55 21t55 -21t22 -53
q0 -33 -22 -54t-55 -21t-55 21t-22 54z"/>
            <glyph glyph-name="cdotaccent" unicode="&#x10b;" horiz-adv-x="525"
                   d="M36 235q0 107 75 174.5t179 67.5q133 0 203 -99l-113 -81q-29 47 -90 47q-46 0 -81 -30.5t-35 -78.5q0 -49 35 -80.5t81 -31.5q61 0 90 47l113 -80q-33 -48 -86.5 -74t-116.5 -26q-103 0 -178.5 69t-75.5 176zM202 645q0 32 22 53t55 21t55 -21t22 -53q0 -33 -22 -54
t-55 -21t-55 21t-22 54z"/>
            <glyph glyph-name="Ccaron" unicode="&#x10c;" horiz-adv-x="699"
                   d="M559 223l118 -82q-46 -70 -122 -110.5t-168 -40.5q-146 0 -246 103t-100 250t100 250.5t246 103.5q91 0 166 -39t121 -107l-119 -82q-61 90 -168 90q-85 0 -142 -62.5t-57 -153.5q0 -90 57 -152.5t142 -62.5q53 0 98 26t74 69zM444 760h-138l-109 168h100l78 -89l79 89
h100z"/>
            <glyph glyph-name="ccaron" unicode="&#x10d;" horiz-adv-x="525"
                   d="M36 235q0 107 75 174.5t179 67.5q133 0 203 -99l-113 -81q-29 47 -90 47q-46 0 -81 -30.5t-35 -78.5q0 -49 35 -80.5t81 -31.5q61 0 90 47l113 -80q-33 -48 -86.5 -74t-116.5 -26q-103 0 -178.5 69t-75.5 176zM344 538h-138l-109 168h100l78 -89l79 89h100z"/>
            <glyph glyph-name="Dcaron" unicode="&#x10e;" horiz-adv-x="707"
                   d="M227 556v-423h124q78 0 121.5 60t43.5 150t-43.5 151.5t-121.5 61.5h-124zM351 0h-270v689h270q144 0 227.5 -97.5t83.5 -248.5t-83.5 -247t-227.5 -96zM410 760h-138l-109 168h100l78 -89l79 89h100z"/>
            <glyph glyph-name="dcaron" unicode="&#x10f;" horiz-adv-x="635"
                   d="M397 235q0 50 -32 80.5t-76 30.5q-46 0 -77 -30.5t-31 -80.5q0 -51 31.5 -82t76.5 -31t76.5 31.5t31.5 81.5zM538 0h-138v58q-17 -32 -54.5 -50t-82.5 -18q-93 0 -159.5 67t-66.5 175q0 109 66.5 177t159.5 68q45 0 82.5 -17.5t54.5 -49.5v311h138v-721zM636 458l-68 35
q32 44 45 87t13 109h117q-13 -153 -107 -231z"/>
            <glyph glyph-name="Dcroat" unicode="&#x110;" horiz-adv-x="722"
                   d="M2 284v98h94v307h270q144 0 227.5 -97.5t83.5 -248.5t-83.5 -247t-227.5 -96h-270v284h-94zM242 284v-151h124q78 0 121.5 60t43.5 150t-43.5 151.5t-121.5 61.5h-124v-174h123v-98h-123z"/>
            <glyph glyph-name="dcroat" unicode="&#x111;" horiz-adv-x="602"
                   d="M251 557v86h149v78h138v-78h76v-86h-76v-557h-138v58q-17 -32 -54.5 -50t-82.5 -18q-93 0 -159.5 67t-66.5 175q0 109 66.5 177t159.5 68q45 0 82.5 -17.5t54.5 -49.5v147h-149zM397 235q0 50 -32 80.5t-76 30.5q-46 0 -77 -30.5t-31 -80.5q0 -51 31.5 -82t76.5 -31
t76.5 31.5t31.5 81.5z"/>
            <glyph glyph-name="Emacron" unicode="&#x112;" horiz-adv-x="576"
                   d="M81 0v689h436v-129h-290v-157h254v-127h-254v-147h299v-129h-445zM144 809v85h278v-85h-278z"/>
            <glyph glyph-name="emacron" unicode="&#x113;" horiz-adv-x="550"
                   d="M138 587v85h278v-85h-278zM392 154l101 -69q-65 -95 -213 -95q-102 0 -173 68.5t-71 176.5t70.5 175t173.5 67q102 0 170.5 -68.5t68.5 -177.5q0 -19 -2 -43h-342q6 -38 39.5 -58t75.5 -20q69 0 102 44zM177 275h202q-6 39 -35 59.5t-63 20.5t-65.5 -19.5t-38.5 -60.5z
"/>
            <glyph glyph-name="Ebreve" unicode="&#x114;" horiz-adv-x="576"
                   d="M81 0v689h436v-129h-290v-157h254v-127h-254v-147h299v-129h-445zM149 911h85q0 -53 49 -53q48 0 48 53h87q0 -60 -37.5 -95.5t-97.5 -35.5q-65 0 -99.5 38t-34.5 93z"/>
            <glyph glyph-name="ebreve" unicode="&#x115;" horiz-adv-x="550"
                   d="M143 689h85q0 -53 49 -53q48 0 48 53h87q0 -60 -37.5 -95.5t-97.5 -35.5q-65 0 -99.5 38t-34.5 93zM392 154l101 -69q-65 -95 -213 -95q-102 0 -173 68.5t-71 176.5t70.5 175t173.5 67q102 0 170.5 -68.5t68.5 -177.5q0 -19 -2 -43h-342q6 -38 39.5 -58t75.5 -20
q69 0 102 44zM177 275h202q-6 39 -35 59.5t-63 20.5t-65.5 -19.5t-38.5 -60.5z"/>
            <glyph glyph-name="Edotaccent" unicode="&#x116;" horiz-adv-x="576"
                   d="M81 0v689h436v-129h-290v-157h254v-127h-254v-147h299v-129h-445zM216 867q0 32 22 53t55 21t55 -21t22 -53q0 -33 -22 -54t-55 -21t-55 21t-22 54z"/>
            <glyph glyph-name="edotaccent" unicode="&#x117;" horiz-adv-x="550"
                   d="M200 645q0 32 22 53t55 21t55 -21t22 -53q0 -33 -22 -54t-55 -21t-55 21t-22 54zM392 154l101 -69q-65 -95 -213 -95q-102 0 -173 68.5t-71 176.5t70.5 175t173.5 67q102 0 170.5 -68.5t68.5 -177.5q0 -19 -2 -43h-342q6 -38 39.5 -58t75.5 -20q69 0 102 44zM177 275h202
q-6 39 -35 59.5t-63 20.5t-65.5 -19.5t-38.5 -60.5z"/>
            <glyph glyph-name="Eogonek" unicode="&#x118;" horiz-adv-x="576"
                   d="M542 -124q2 14 2 18q0 5 -1 8l77 4q1 -38 -8 -59q-14 -30 -39.5 -47.5t-55.5 -17.5q-44 0 -75.5 30.5t-31.5 72.5q0 28 10 49l35 66h-374v689h436v-129h-290v-157h254v-127h-254v-147h299v-129l-38 -101q-12 -30 15 -42q28 -7 39 19z"/>
            <glyph glyph-name="eogonek" unicode="&#x119;" horiz-adv-x="551"
                   d="M392 154l101 -69q-4 -5 -20 -23t-29.5 -35t-29.5 -51.5t-25 -76.5q-3 -19 0 -28t15 -14q28 -7 39 19q2 14 2 18q0 5 -1 8l77 4q1 -38 -8 -59q-14 -30 -39.5 -47.5t-55.5 -17.5q-44 0 -75.5 30.5t-31.5 72.5q0 32 10 49l34 64q-38 -8 -75 -8q-102 0 -173 68.5t-71 176.5
t70.5 175t173.5 67q102 0 170.5 -68.5t68.5 -177.5q0 -19 -2 -43h-342q6 -38 39.5 -58t75.5 -20q69 0 102 44zM177 275h202q-6 39 -35 59.5t-63 20.5t-65.5 -19.5t-38.5 -60.5z"/>
            <glyph glyph-name="Ecaron" unicode="&#x11a;" horiz-adv-x="576"
                   d="M81 0v689h436v-129h-290v-157h254v-127h-254v-147h299v-129h-445zM352 760h-138l-109 168h100l78 -89l79 89h100z"/>
            <glyph glyph-name="ecaron" unicode="&#x11b;" horiz-adv-x="550"
                   d="M346 538h-138l-109 168h100l78 -89l79 89h100zM392 154l101 -69q-65 -95 -213 -95q-102 0 -173 68.5t-71 176.5t70.5 175t173.5 67q102 0 170.5 -68.5t68.5 -177.5q0 -19 -2 -43h-342q6 -38 39.5 -58t75.5 -20q69 0 102 44zM177 275h202q-6 39 -35 59.5t-63 20.5
t-65.5 -19.5t-38.5 -60.5z"/>
            <glyph glyph-name="Gcircumflex" unicode="&#x11c;" horiz-adv-x="756"
                   d="M653 584l-108 -93q-63 70 -151 70q-87 0 -146.5 -64t-59.5 -154t60 -154.5t146 -64.5q60 0 113.5 34t53.5 85h-185v119h354q0 -187 -90.5 -279.5t-245.5 -92.5q-147 0 -250 103.5t-103 249.5q0 147 103 250.5t250 103.5q79 0 146 -30t113 -83zM312 933h138l110 -168h-100
l-79 89l-78 -89h-100z"/>
            <glyph glyph-name="gcircumflex" unicode="&#x11d;" horiz-adv-x="608"
                   d="M406 235q0 50 -33.5 80t-79.5 30t-79 -31t-33 -79q0 -50 33 -82t79 -32q45 0 79 32t34 82zM50 -88l112 55q12 -32 47 -53.5t71 -21.5q138 0 129 166q-17 -32 -56 -50t-84 -18q-94 0 -163.5 67.5t-69.5 174.5q0 108 69.5 176.5t163.5 68.5q44 0 83 -18.5t57 -49.5v58h135
v-402q0 -148 -69 -223t-195 -75q-76 0 -138 39.5t-92 105.5zM235 711h138l110 -168h-100l-79 89l-78 -89h-100z"/>
            <glyph glyph-name="Gbreve" unicode="&#x11e;" horiz-adv-x="756"
                   d="M653 584l-108 -93q-63 70 -151 70q-87 0 -146.5 -64t-59.5 -154t60 -154.5t146 -64.5q60 0 113.5 34t53.5 85h-185v119h354q0 -187 -90.5 -279.5t-245.5 -92.5q-147 0 -250 103.5t-103 249.5q0 147 103 250.5t250 103.5q79 0 146 -30t113 -83zM247 911h85q0 -53 49 -53
q48 0 48 53h87q0 -60 -37.5 -95.5t-97.5 -35.5q-65 0 -99.5 38t-34.5 93z"/>
            <glyph glyph-name="gbreve" unicode="&#x11f;" horiz-adv-x="608"
                   d="M406 235q0 50 -33.5 80t-79.5 30t-79 -31t-33 -79q0 -50 33 -82t79 -32q45 0 79 32t34 82zM50 -88l112 55q12 -32 47 -53.5t71 -21.5q138 0 129 166q-17 -32 -56 -50t-84 -18q-94 0 -163.5 67.5t-69.5 174.5q0 108 69.5 176.5t163.5 68.5q44 0 83 -18.5t57 -49.5v58h135
v-402q0 -148 -69 -223t-195 -75q-76 0 -138 39.5t-92 105.5zM170 689h85q0 -53 49 -53q48 0 48 53h87q0 -60 -37.5 -95.5t-97.5 -35.5q-65 0 -99.5 38t-34.5 93z"/>
            <glyph glyph-name="Gdotaccent" unicode="&#x120;" horiz-adv-x="756"
                   d="M653 584l-108 -93q-63 70 -151 70q-87 0 -146.5 -64t-59.5 -154t60 -154.5t146 -64.5q60 0 113.5 34t53.5 85h-185v119h354q0 -187 -90.5 -279.5t-245.5 -92.5q-147 0 -250 103.5t-103 249.5q0 147 103 250.5t250 103.5q79 0 146 -30t113 -83zM304 867q0 32 22 53t55 21
t55 -21t22 -53q0 -33 -22 -54t-55 -21t-55 21t-22 54z"/>
            <glyph glyph-name="gdotaccent" unicode="&#x121;" horiz-adv-x="608"
                   d="M406 235q0 50 -33.5 80t-79.5 30t-79 -31t-33 -79q0 -50 33 -82t79 -32q45 0 79 32t34 82zM50 -88l112 55q12 -32 47 -53.5t71 -21.5q138 0 129 166q-17 -32 -56 -50t-84 -18q-94 0 -163.5 67.5t-69.5 174.5q0 108 69.5 176.5t163.5 68.5q44 0 83 -18.5t57 -49.5v58h135
v-402q0 -148 -69 -223t-195 -75q-76 0 -138 39.5t-92 105.5zM228 645q0 32 22 53t55 21t55 -21t22 -53q0 -33 -22 -54t-55 -21t-55 21t-22 54z"/>
            <glyph glyph-name="Gcommaaccent" unicode="&#x122;" horiz-adv-x="756"
                   d="M653 584l-108 -93q-63 70 -151 70q-87 0 -146.5 -64t-59.5 -154t60 -154.5t146 -64.5q60 0 113.5 34t53.5 85h-185v119h354q0 -187 -90.5 -279.5t-245.5 -92.5q-147 0 -250 103.5t-103 249.5q0 147 103 250.5t250 103.5q79 0 146 -30t113 -83zM362 -287l-68 35
q32 44 45 87t13 109h117q-13 -153 -107 -231z"/>
            <glyph glyph-name="gcommaaccent" unicode="&#x123;" horiz-adv-x="608"
                   d="M406 235q0 50 -33.5 80t-79.5 30t-79 -31t-33 -79q0 -50 33 -82t79 -32q45 0 79 32t34 82zM50 -88l112 55q12 -32 47 -53.5t71 -21.5q138 0 129 166q-17 -32 -56 -50t-84 -18q-94 0 -163.5 67.5t-69.5 174.5q0 108 69.5 176.5t163.5 68.5q44 0 83 -18.5t57 -49.5v58h135
v-402q0 -148 -69 -223t-195 -75q-76 0 -138 39.5t-92 105.5zM321 785l68 -35q-32 -44 -45 -87t-13 -109h-117q13 153 107 231z"/>
            <glyph glyph-name="Hcircumflex" unicode="&#x124;" horiz-adv-x="701"
                   d="M472 689h148v-689h-148v277h-245v-277h-146v689h146v-281h245v281zM281 933h138l110 -168h-100l-79 89l-78 -89h-100z"/>
            <glyph glyph-name="hcircumflex" unicode="&#x125;" horiz-adv-x="579"
                   d="M203 247v-247h-139v721h139v-327q12 40 52 61.5t79 21.5q92 0 139.5 -58t47.5 -165v-254h-139v249q0 43 -25.5 68t-60.5 25q-38 0 -65.5 -23t-27.5 -72zM63 940h138l110 -168h-100l-79 89l-78 -89h-100z"/>
            <glyph glyph-name="Hbar" unicode="&#x126;" horiz-adv-x="715"
                   d="M88 512h-72v81h72v96h146v-96h245v96h148v-96h72v-81h-72v-512h-148v277h-245v-277h-146v512zM234 408h245v104h-245v-104z"/>
            <glyph glyph-name="hbar" unicode="&#x127;" horiz-adv-x="579"
                   d="M203 247v-247h-139v557h-76v86h76v78h139v-78h148v-86h-148v-163q12 40 52 61.5t79 21.5q92 0 139.5 -58t47.5 -165v-254h-139v249q0 43 -25.5 68t-60.5 25q-38 0 -65.5 -23t-27.5 -72z"/>
            <glyph glyph-name="Itilde" unicode="&#x128;" horiz-adv-x="308"
                   d="M81 689h146v-689h-146v689zM111 828q-8 0 -16.5 -11t-9.5 -32h-75q3 68 33 99t68 31q23 0 50 -20.5t37 -20.5q8 0 16.5 10t9.5 31h75q-3 -67 -33.5 -97.5t-67.5 -30.5q-22 0 -49.5 20.5t-37.5 20.5z"/>
            <glyph glyph-name="itilde" unicode="&#x129;" horiz-adv-x="265"
                   d="M64 467h137v-467h-137v467zM100 606q-8 0 -16.5 -11t-9.5 -32h-75q3 68 33 99t68 31q23 0 50 -20.5t37 -20.5q8 0 16.5 10t9.5 31h75q-3 -67 -33.5 -97.5t-67.5 -30.5q-22 0 -49.5 20.5t-37.5 20.5z"/>
            <glyph glyph-name="Imacron" unicode="&#x12a;" horiz-adv-x="308"
                   d="M81 689h146v-689h-146v689zM15 809v85h278v-85h-278z"/>
            <glyph glyph-name="imacron" unicode="&#x12b;" horiz-adv-x="265"
                   d="M64 467h137v-467h-137v467zM-8 587v85h278v-85h-278z"/>
            <glyph glyph-name="Ibreve" unicode="&#x12c;" horiz-adv-x="308"
                   d="M81 689h146v-689h-146v689zM20 911h85q0 -53 49 -53q48 0 48 53h87q0 -60 -37.5 -95.5t-97.5 -35.5q-65 0 -99.5 38t-34.5 93z"/>
            <glyph glyph-name="ibreve" unicode="&#x12d;" horiz-adv-x="265"
                   d="M64 467h137v-467h-137v467zM-2 689h85q0 -53 49 -53q48 0 48 53h87q0 -60 -37.5 -95.5t-97.5 -35.5q-65 0 -99.5 38t-34.5 93z"/>
            <glyph glyph-name="Iogonek" unicode="&#x12e;" horiz-adv-x="308"
                   d="M226 0h-76l-37 -101q-12 -30 15 -42q28 -7 39 19q2 14 2 18q0 5 -1 8l77 4q1 -38 -8 -59q-14 -30 -39.5 -47.5t-55.5 -17.5q-44 0 -75.5 30.5t-31.5 72.5q0 32 10 49l35 66v689h146v-689z"/>
            <glyph glyph-name="iogonek" unicode="&#x12f;" horiz-adv-x="266"
                   d="M202 0h-68l-37 -101q-12 -30 15 -42q28 -7 39 19q2 14 2 18q0 5 -1 8l77 4q1 -38 -8 -59q-14 -30 -39.5 -47.5t-55.5 -17.5q-44 0 -75.5 30.5t-31.5 72.5q0 31 10 49l35 66v467h138v-467zM46 640q0 34 25.5 57.5t61.5 23.5t60.5 -23t24.5 -58q0 -34 -24.5 -58t-60.5 -24
q-35 0 -61 24t-26 58z"/>
            <glyph glyph-name="Idotaccent" unicode="&#x130;" horiz-adv-x="308"
                   d="M81 689h146v-689h-146v689zM77 867q0 32 22 53t55 21t55 -21t22 -53q0 -33 -22 -54t-55 -21t-55 21t-22 54z"/>
            <glyph glyph-name="dotlessi" unicode="&#x131;" horiz-adv-x="266"
                   d="M202 467v-467h-138v467h138z"/>
            <glyph glyph-name="IJ" unicode="&#x132;" horiz-adv-x="617"
                   d="M81 689h146v-689h-146v689zM209 -219l13 132q31 -11 88 -11q40 0 59.5 26.5t19.5 68.5v692h147v-692q0 -103 -55 -168t-171 -65q-31 0 -101 17z"/>
            <glyph glyph-name="ij" unicode="&#x133;" horiz-adv-x="534"
                   d="M202 467v-467h-138v467h138zM46 640q0 34 25.5 57.5t61.5 23.5t60.5 -23t24.5 -58q0 -34 -24.5 -58t-60.5 -24q-35 0 -61 24t-26 58zM208 -235v126h61q61 0 61 74v502h140v-499q0 -98 -41 -150.5t-136 -52.5h-85zM313 640q0 34 25.5 57.5t61.5 23.5t61 -23t25 -58
t-25 -58.5t-61 -23.5q-35 0 -61 24t-26 58z"/>
            <glyph glyph-name="Jcircumflex" unicode="&#x134;" horiz-adv-x="309"
                   d="M-99 -219l13 132q31 -11 88 -11q40 0 59.5 26.5t19.5 68.5v692h147v-692q0 -103 -55 -168t-171 -65q-31 0 -101 17zM85 933h138l110 -168h-100l-79 89l-78 -89h-100z"/>
            <glyph glyph-name="jcircumflex" unicode="&#x135;" horiz-adv-x="268"
                   d="M-58 -235v126h61q61 0 61 74v502h140v-499q0 -98 -41 -150.5t-136 -52.5h-85zM77 711h138l110 -168h-100l-79 89l-78 -89h-100z"/>
            <glyph glyph-name="Kcommaaccent" unicode="&#x136;" horiz-adv-x="609"
                   d="M303 348l323 -348h-190l-207 234v-234h-148v689h148v-226l163 226h172zM288 -287l-68 35q32 44 45 87t13 109h117q-13 -153 -107 -231z"/>
            <glyph glyph-name="kcommaaccent" unicode="&#x137;" horiz-adv-x="526"
                   d="M202 185v-185h-138v721h138v-382l111 128h177l-194 -206l233 -261h-171zM231 -287l-68 35q32 44 45 87t13 109h117q-13 -153 -107 -231z"/>
            <glyph glyph-name="kgreenlandic" unicode="&#x138;" horiz-adv-x="511"
                   d="M328 0l-127 144v-144h-137v467h137v-136l114 136h173l-205 -230l226 -237h-181z"/>
            <glyph glyph-name="Lacute" unicode="&#x139;" horiz-adv-x="511"
                   d="M81 0v689h147v-560h258v-129h-405zM193 929h138l-148 -168h-100z"/>
            <glyph glyph-name="lacute" unicode="&#x13a;" horiz-adv-x="267"
                   d="M64 721h139v-721h-139v721zM175 939h138l-148 -168h-100z"/>
            <glyph glyph-name="Lcommaaccent" unicode="&#x13b;" horiz-adv-x="511"
                   d="M81 0v689h147v-560h258v-129h-405zM234 -287l-68 35q32 44 45 87t13 109h117q-13 -153 -107 -231z"/>
            <glyph glyph-name="lcommaaccent" unicode="&#x13c;" horiz-adv-x="267"
                   d="M64 721h139v-721h-139v721zM89 -287l-68 35q32 44 45 87t13 109h117q-13 -153 -107 -231z"/>
            <glyph glyph-name="Lcaron" unicode="&#x13d;" horiz-adv-x="516"
                   d="M81 0v689h147v-560h258v-129h-405zM380 428l-84 29q75 105 74 232h117q-8 -91 -38.5 -160t-68.5 -101z"/>
            <glyph glyph-name="lcaron" unicode="&#x13e;" horiz-adv-x="311"
                   d="M64 721h139v-721h-139v721zM317 460l-84 29q75 105 74 232h117q-8 -91 -38.5 -160t-68.5 -101z"/>
            <glyph glyph-name="Ldot" unicode="&#x13f;" horiz-adv-x="511"
                   d="M81 0v689h147v-560h258v-129h-405zM299 307q0 32 22 53t55 21t55 -21t22 -53q0 -33 -22 -54t-55 -21t-55 21t-22 54z"/>
            <glyph glyph-name="ldot" unicode="&#x140;" horiz-adv-x="380"
                   d="M64 721h139v-721h-139v721zM246 307q0 32 22 53t55 21t55 -21t22 -53q0 -33 -22 -54t-55 -21t-55 21t-22 54z"/>
            <glyph glyph-name="Lslash" unicode="&#x141;" horiz-adv-x="519"
                   d="M89 291l-72 -45v95l72 45v303h147v-211l93 58v-95l-93 -58v-254h258v-129h-405v291z"/>
            <glyph glyph-name="lslash" unicode="&#x142;" horiz-adv-x="316"
                   d="M240 721v-255l86 54v-95l-86 -54v-371h-139v284l-87 -54v95l87 54v342h139z"/>
            <glyph glyph-name="Nacute" unicode="&#x143;" horiz-adv-x="679"
                   d="M388 929h138l-148 -168h-100zM598 689v-689h-131l-240 417v-417h-146v689h134l236 -412v412h147z"/>
            <glyph glyph-name="nacute" unicode="&#x144;"
                   d="M203 247v-247h-139v467h139v-68q19 35 56 56.5t79 21.5q81 0 126 -50t45 -148v-279h-139v249q0 46 -22 69.5t-59 23.5q-86 0 -86 -95zM316 707h138l-148 -168h-100z"/>
            <glyph glyph-name="Ncommaaccent" unicode="&#x145;" horiz-adv-x="679"
                   d="M598 689v-689h-131l-240 411v-411h-146v689h134l236 -406v406h147zM304 -287l-68 35q32 44 45 87t13 109h117q-13 -153 -107 -231z"/>
            <glyph glyph-name="ncommaaccent" unicode="&#x146;"
                   d="M203 247v-247h-139v467h139v-68q19 35 56 56.5t79 21.5q81 0 126 -50t45 -148v-279h-139v249q0 46 -22 69.5t-59 23.5q-86 0 -86 -95zM254 -287l-68 35q32 44 45 87t13 109h117q-13 -153 -107 -231z"/>
            <glyph glyph-name="Ncaron" unicode="&#x147;" horiz-adv-x="679"
                   d="M408 760h-138l-109 168h100l78 -89l79 89h100zM598 689v-689h-131l-240 417v-417h-146v689h134l236 -412v412h147z"/>
            <glyph glyph-name="ncaron" unicode="&#x148;"
                   d="M203 247v-247h-139v467h139v-68q19 35 56 56.5t79 21.5q81 0 126 -50t45 -148v-279h-139v249q0 46 -22 69.5t-59 23.5q-86 0 -86 -95zM352 538h-138l-109 168h100l78 -89l79 89h100z"/>
            <glyph glyph-name="napostrophe" unicode="&#x149;"
                   d="M203 247v-247h-139v467h139v-68q19 35 56 56.5t79 21.5q81 0 126 -50t45 -148v-279h-139v249q0 46 -22 69.5t-59 23.5q-86 0 -86 -95zM-16 469l-75 22q29 40 36.5 80t-1.5 90h118q0 -130 -78 -192z"/>
            <glyph glyph-name="Eng" unicode="&#x14a;" horiz-adv-x="679"
                   d="M459 16l-232 401v-417h-146v689h134l236 -412v412h147v-676q0 -105 -54 -171.5t-170 -66.5q-36 0 -102 17l15 144q33 -14 95 -14q36 2 56.5 30t20.5 64z"/>
            <glyph glyph-name="eng" unicode="&#x14b;"
                   d="M509 279v-247q0 -100 -50.5 -162t-159.5 -62q-22 0 -63 10l13 128q27 -8 50 -8q37 0 54 27t17 65v219q0 46 -22 69.5t-59 23.5q-86 0 -86 -95v-247h-139v467h139v-68q19 35 56 56.5t79 21.5q81 0 126 -50t45 -148z"/>
            <glyph glyph-name="Omacron" unicode="&#x14c;" horiz-adv-x="781"
                   d="M187 343q0 -87 58.5 -147.5t144.5 -60.5q85 0 144.5 61t59.5 147q0 87 -59.5 148t-144.5 61q-86 0 -144.5 -61t-58.5 -148zM41 343q0 147 101.5 250.5t247.5 103.5t248 -103.5t102 -250.5q0 -146 -102 -249.5t-248 -103.5t-247.5 103.5t-101.5 249.5zM251 809v85h278v-85
h-278z"/>
            <glyph glyph-name="omacron" unicode="&#x14d;" horiz-adv-x="557"
                   d="M278 128q45 0 75.5 29.5t30.5 77.5q0 47 -30.5 76.5t-75.5 29.5q-44 0 -74.5 -29.5t-30.5 -76.5q0 -48 30.5 -77.5t74.5 -29.5zM278 -8q-102 0 -172 67.5t-70 175.5t70 175t172 67t172.5 -67t70.5 -175t-70.5 -175.5t-172.5 -67.5zM139 587v85h278v-85h-278z"/>
            <glyph glyph-name="Obreve" unicode="&#x14e;" horiz-adv-x="781"
                   d="M187 343q0 -87 58.5 -147.5t144.5 -60.5q85 0 144.5 61t59.5 147q0 87 -59.5 148t-144.5 61q-86 0 -144.5 -61t-58.5 -148zM41 343q0 147 101.5 250.5t247.5 103.5t248 -103.5t102 -250.5q0 -146 -102 -249.5t-248 -103.5t-247.5 103.5t-101.5 249.5zM256 911h85
q0 -53 49 -53q48 0 48 53h87q0 -60 -37.5 -95.5t-97.5 -35.5q-65 0 -99.5 38t-34.5 93z"/>
            <glyph glyph-name="obreve" unicode="&#x14f;" horiz-adv-x="557"
                   d="M278 128q45 0 75.5 29.5t30.5 77.5q0 47 -30.5 76.5t-75.5 29.5q-44 0 -74.5 -29.5t-30.5 -76.5q0 -48 30.5 -77.5t74.5 -29.5zM278 -8q-102 0 -172 67.5t-70 175.5t70 175t172 67t172.5 -67t70.5 -175t-70.5 -175.5t-172.5 -67.5zM144 689h85q0 -53 49 -53q48 0 48 53
h87q0 -60 -37.5 -95.5t-97.5 -35.5q-65 0 -99.5 38t-34.5 93z"/>
            <glyph glyph-name="Ohungarumlaut" unicode="&#x150;" horiz-adv-x="781"
                   d="M187 343q0 -87 58.5 -147.5t144.5 -60.5q85 0 144.5 61t59.5 147q0 87 -59.5 148t-144.5 61q-86 0 -144.5 -61t-58.5 -148zM41 343q0 147 101.5 250.5t247.5 103.5t248 -103.5t102 -250.5q0 -146 -102 -249.5t-248 -103.5t-247.5 103.5t-101.5 249.5zM378 928h111
l-121 -168h-100zM538 928h114l-132 -168h-105z"/>
            <glyph glyph-name="ohungarumlaut" unicode="&#x151;" horiz-adv-x="557"
                   d="M278 128q45 0 75.5 29.5t30.5 77.5q0 47 -30.5 76.5t-75.5 29.5q-44 0 -74.5 -29.5t-30.5 -76.5q0 -48 30.5 -77.5t74.5 -29.5zM278 -8q-102 0 -172 67.5t-70 175.5t70 175t172 67t172.5 -67t70.5 -175t-70.5 -175.5t-172.5 -67.5zM264 706h111l-121 -168h-100zM424 706
h114l-132 -168h-105z"/>
            <glyph glyph-name="OE" unicode="&#x152;" horiz-adv-x="1091"
                   d="M596 620v69h436v-129h-290v-157h254v-127h-254v-147h299v-129h-445v67q-85 -77 -206 -77q-146 0 -247.5 103.5t-101.5 249.5q0 147 101.5 250.5t247.5 103.5q125 0 206 -77zM187 343q0 -87 58.5 -147.5t144.5 -60.5q85 0 144.5 61t59.5 147q0 87 -59.5 148t-144.5 61
q-86 0 -144.5 -61t-58.5 -148z"/>
            <glyph glyph-name="oe" unicode="&#x153;" horiz-adv-x="901"
                   d="M453 63q-69 -71 -175 -71q-102 0 -172 67.5t-70 175.5t70 175t172 67q105 0 176 -71q69 71 177 71q101 0 170 -68.5t69 -177.5q0 -19 -2 -43h-342q6 -38 39.5 -58t75.5 -20q69 0 102 44l101 -69q-65 -95 -213 -95q-108 0 -178 73zM278 128q45 0 75.5 29.5t30.5 77.5
q0 47 -30.5 76.5t-75.5 29.5q-44 0 -74.5 -29.5t-30.5 -76.5q0 -48 30.5 -77.5t74.5 -29.5zM528 275h202q-6 39 -35 59.5t-63 20.5t-65.5 -19.5t-38.5 -60.5z"/>
            <glyph glyph-name="Racute" unicode="&#x154;" horiz-adv-x="637"
                   d="M356 560h-128v-194h124q40 0 63.5 30t23.5 67q0 36 -22 66.5t-61 30.5zM420 244l171 -244h-176l-154 238h-33v-238h-147v689h282q110 0 169.5 -66.5t59.5 -159.5q0 -78 -44 -140t-128 -79zM341 929h138l-148 -168h-100z"/>
            <glyph glyph-name="racute" unicode="&#x155;" horiz-adv-x="423"
                   d="M182 707h138l-148 -168h-100zM203 163v-163h-139v467h139v-113q17 61 54.5 92t77.5 31q44 0 80 -17l-25 -125q-29 14 -71 14q-116 0 -116 -186z"/>
            <glyph glyph-name="Rcommaaccent" unicode="&#x156;" horiz-adv-x="637"
                   d="M356 560h-128v-194h124q40 0 63.5 30t23.5 67q0 36 -22 66.5t-61 30.5zM420 244l171 -244h-176l-154 238h-33v-238h-147v689h282q110 0 169.5 -66.5t59.5 -159.5q0 -78 -44 -140t-128 -79zM286 -287l-68 35q32 44 45 87t13 109h117q-13 -153 -107 -231z"/>
            <glyph glyph-name="rcommaaccent" unicode="&#x157;" horiz-adv-x="423"
                   d="M87 -287l-68 35q32 44 45 87t13 109h117q-13 -153 -107 -231zM203 163v-163h-139v467h139v-113q17 61 54.5 92t77.5 31q44 0 80 -17l-25 -125q-29 14 -71 14q-116 0 -116 -186z"/>
            <glyph glyph-name="Rcaron" unicode="&#x158;" horiz-adv-x="637"
                   d="M356 560h-128v-194h124q40 0 63.5 30t23.5 67q0 36 -22 66.5t-61 30.5zM420 244l171 -244h-176l-154 238h-33v-238h-147v689h282q110 0 169.5 -66.5t59.5 -159.5q0 -78 -44 -140t-128 -79zM383 760h-138l-109 168h100l78 -89l79 89h100z"/>
            <glyph glyph-name="rcaron" unicode="&#x159;" horiz-adv-x="423"
                   d="M288 538h-138l-109 168h100l78 -89l79 89h100zM203 163v-163h-139v467h139v-113q17 61 54.5 92t77.5 31q44 0 80 -17l-25 -125q-29 14 -71 14q-116 0 -116 -186z"/>
            <glyph glyph-name="Sacute" unicode="&#x15a;" horiz-adv-x="582"
                   d="M44 202h147q2 -36 28.5 -59.5t74.5 -23.5q45 0 72.5 19.5t28.5 53.5q1 26 -17 45t-66 33l-83 23q-178 56 -178 198q0 91 68 148.5t169 57.5q102 0 167.5 -57t65.5 -154h-146q0 36 -23 57t-66 21q-39 0 -64 -19.5t-25 -49.5q0 -49 74 -70l82 -26q196 -56 189 -208
q-2 -96 -75 -149t-173 -53q-111 0 -180.5 59.5t-69.5 153.5zM337 929h138l-148 -168h-100z"/>
            <glyph glyph-name="sacute" unicode="&#x15b;" horiz-adv-x="467"
                   d="M246 176l-61 16q-40 11 -68.5 26.5t-42 29.5t-20.5 35t-8 31.5t-1 29.5q0 52 54.5 92.5t127.5 40.5q36 0 69 -8.5t61.5 -25.5t45 -48.5t16.5 -72.5h-131q-1 41 -53 41q-23 0 -36.5 -9.5t-12.5 -25.5q2 -25 41 -35l79 -21q40 -11 67 -29.5t39 -39.5t16.5 -36.5t4.5 -30.5
q0 -70 -60.5 -108t-141.5 -38q-76 0 -135.5 43.5t-59.5 117.5h130q1 -21 21 -37.5t48 -16.5q24 1 40.5 11.5t16.5 27.5q0 15 -10 24t-36 16zM279 707h138l-148 -168h-100z"/>
            <glyph glyph-name="Scircumflex" unicode="&#x15c;" horiz-adv-x="582"
                   d="M44 202h147q2 -36 28.5 -59.5t74.5 -23.5q45 0 72.5 19.5t28.5 53.5q1 26 -17 45t-66 33l-83 23q-178 56 -178 198q0 91 68 148.5t169 57.5q102 0 167.5 -57t65.5 -154h-146q0 36 -23 57t-66 21q-39 0 -64 -19.5t-25 -49.5q0 -49 74 -70l82 -26q196 -56 189 -208
q-2 -96 -75 -149t-173 -53q-111 0 -180.5 59.5t-69.5 153.5zM224 933h138l110 -168h-100l-79 89l-78 -89h-100z"/>
            <glyph glyph-name="scircumflex" unicode="&#x15d;" horiz-adv-x="467"
                   d="M246 176l-61 16q-40 11 -68.5 26.5t-42 29.5t-20.5 35t-8 31.5t-1 29.5q0 52 54.5 92.5t127.5 40.5q36 0 69 -8.5t61.5 -25.5t45 -48.5t16.5 -72.5h-131q-1 41 -53 41q-23 0 -36.5 -9.5t-12.5 -25.5q2 -25 41 -35l79 -21q40 -11 67 -29.5t39 -39.5t16.5 -36.5t4.5 -30.5
q0 -70 -60.5 -108t-141.5 -38q-76 0 -135.5 43.5t-59.5 117.5h130q1 -21 21 -37.5t48 -16.5q24 1 40.5 11.5t16.5 27.5q0 15 -10 24t-36 16zM165 711h138l110 -168h-100l-79 89l-78 -89h-100z"/>
            <glyph glyph-name="Scedilla" unicode="&#x15e;" horiz-adv-x="581"
                   d="M266 -124q11 -26 39 -19q27 12 15 42l-33 90q-110 2 -177 61t-67 152h147q2 -36 28.5 -59.5t74.5 -23.5q45 0 72.5 19.5t28.5 53.5q1 26 -17 45t-66 33l-83 23q-178 56 -178 198q0 91 68 148.5t169 57.5q102 0 167.5 -57t65.5 -154h-146q0 36 -23 57t-66 21
q-39 0 -64 -19.5t-25 -49.5q0 -49 74 -70l82 -26q196 -56 189 -208q-2 -82 -53.5 -131.5t-132.5 -64.5l33 -61q10 -15 10 -49q0 -42 -31.5 -72.5t-75.5 -30.5q-30 0 -55.5 17.5t-39.5 47.5q-9 21 -8 59l77 -4q-1 -3 -1 -8q0 -13 2 -18z"/>
            <glyph glyph-name="scedilla" unicode="&#x15f;" horiz-adv-x="468"
                   d="M208 -124q11 -26 39 -19q27 12 15 42l-34 91q-75 0 -133.5 44t-58.5 117h130q1 -21 21 -37.5t48 -16.5q24 1 40.5 11.5t16.5 27.5q0 15 -10 24t-36 16l-61 16q-40 11 -68.5 26.5t-42 29.5t-20.5 35t-8 31.5t-1 29.5q0 52 54.5 92.5t127.5 40.5q36 0 69 -8.5t61.5 -25.5
t45 -48.5t16.5 -72.5h-131q-1 41 -53 41q-23 0 -36.5 -9.5t-12.5 -25.5q2 -25 41 -35l79 -21q40 -11 67 -29.5t39 -39.5t16.5 -36.5t4.5 -30.5q0 -55 -38.5 -90.5t-98.5 -48.5l34 -63q10 -15 10 -49q0 -42 -31.5 -72.5t-75.5 -30.5q-30 0 -55.5 17.5t-39.5 47.5q-9 21 -8 59
l77 -4q-1 -3 -1 -8q0 -13 2 -18z"/>
            <glyph glyph-name="Scaron" unicode="&#x160;" horiz-adv-x="582"
                   d="M44 202h147q2 -36 28.5 -59.5t74.5 -23.5q45 0 72.5 19.5t28.5 53.5q1 26 -17 45t-66 33l-83 23q-178 56 -178 198q0 91 68 148.5t169 57.5q102 0 167.5 -57t65.5 -154h-146q0 36 -23 57t-66 21q-39 0 -64 -19.5t-25 -49.5q0 -49 74 -70l82 -26q196 -56 189 -208
q-2 -96 -75 -149t-173 -53q-111 0 -180.5 59.5t-69.5 153.5zM362 760h-138l-109 168h100l78 -89l79 89h100z"/>
            <glyph glyph-name="scaron" unicode="&#x161;" horiz-adv-x="467"
                   d="M246 176l-61 16q-40 11 -68.5 26.5t-42 29.5t-20.5 35t-8 31.5t-1 29.5q0 52 54.5 92.5t127.5 40.5q36 0 69 -8.5t61.5 -25.5t45 -48.5t16.5 -72.5h-131q-1 41 -53 41q-23 0 -36.5 -9.5t-12.5 -25.5q2 -25 41 -35l79 -21q40 -11 67 -29.5t39 -39.5t16.5 -36.5t4.5 -30.5
q0 -70 -60.5 -108t-141.5 -38q-76 0 -135.5 43.5t-59.5 117.5h130q1 -21 21 -37.5t48 -16.5q24 1 40.5 11.5t16.5 27.5q0 15 -10 24t-36 16zM303 538h-138l-109 168h100l78 -89l79 89h100z"/>
            <glyph glyph-name="Tcommaaccent" unicode="&#x162;" horiz-adv-x="576"
                   d="M28 557v132h520v-132h-186v-557h-148v557h-186zM242 -287l-68 35q32 44 45 87t13 109h117q-13 -153 -107 -231z"/>
            <glyph glyph-name="tcommaaccent" unicode="&#x163;" horiz-adv-x="365"
                   d="M246 467h98v-110h-98v-357h-138v357h-85v110h85v179h138v-179zM130 -287l-68 35q32 44 45 87t13 109h117q-13 -153 -107 -231z"/>
            <glyph glyph-name="Tcaron" unicode="&#x164;" horiz-adv-x="576"
                   d="M28 557v132h520v-132h-186v-557h-148v557h-186zM357 760h-138l-109 168h100l78 -89l79 89h100z"/>
            <glyph glyph-name="tcaron" unicode="&#x165;" horiz-adv-x="365"
                   d="M246 467h98v-110h-98v-357h-138v357h-85v110h85v179h138v-179zM357 522l-68 35q32 44 45 87t13 109h117q-13 -153 -107 -231z"/>
            <glyph glyph-name="Tbar" unicode="&#x166;" horiz-adv-x="576"
                   d="M28 557v132h520v-132h-186v-557h-148v557h-186zM149 809v85h278v-85h-278z"/>
            <glyph glyph-name="tbar" unicode="&#x167;" horiz-adv-x="366"
                   d="M108 0v183h-53v77h53v97h-85v110h85v179h138v-179h98v-110h-98v-97h70v-77h-70v-183h-138z"/>
            <glyph glyph-name="Utilde" unicode="&#x168;" horiz-adv-x="682"
                   d="M342 128q48 0 83.5 33.5t35.5 84.5v443h147v-443q0 -114 -78 -185t-188 -71t-189 71.5t-79 184.5v443h149v-443q0 -51 35.5 -84.5t83.5 -33.5zM297 828q-8 0 -16.5 -11t-9.5 -32h-75q3 68 33 99t68 31q23 0 50 -20.5t37 -20.5q8 0 16.5 10t9.5 31h75q-3 -67 -33.5 -97.5
t-67.5 -30.5q-22 0 -49.5 20.5t-37.5 20.5z"/>
            <glyph glyph-name="utilde" unicode="&#x169;"
                   d="M365 220v247h139v-467h-139v64q-18 -34 -52 -54t-69 -20q-82 0 -133.5 51t-51.5 147v279h139v-249q0 -50 26 -71.5t57 -21.5q36 0 60 23t24 72zM248 606q-8 0 -16.5 -11t-9.5 -32h-75q3 68 33 99t68 31q23 0 50 -20.5t37 -20.5q8 0 16.5 10t9.5 31h75q-3 -67 -33.5 -97.5
t-67.5 -30.5q-22 0 -49.5 20.5t-37.5 20.5z"/>
            <glyph glyph-name="Umacron" unicode="&#x16a;" horiz-adv-x="682"
                   d="M342 128q48 0 83.5 33.5t35.5 84.5v443h147v-443q0 -114 -78 -185t-188 -71t-189 71.5t-79 184.5v443h149v-443q0 -51 35.5 -84.5t83.5 -33.5zM202 809v85h278v-85h-278z"/>
            <glyph glyph-name="umacron" unicode="&#x16b;"
                   d="M365 220v247h139v-467h-139v64q-18 -34 -52 -54t-69 -20q-82 0 -133.5 51t-51.5 147v279h139v-249q0 -50 26 -71.5t57 -21.5q36 0 60 23t24 72zM152 587v85h278v-85h-278z"/>
            <glyph glyph-name="Ubreve" unicode="&#x16c;" horiz-adv-x="682"
                   d="M342 128q48 0 83.5 33.5t35.5 84.5v443h147v-443q0 -114 -78 -185t-188 -71t-189 71.5t-79 184.5v443h149v-443q0 -51 35.5 -84.5t83.5 -33.5zM206 911h85q0 -53 49 -53q48 0 48 53h87q0 -60 -37.5 -95.5t-97.5 -35.5q-65 0 -99.5 38t-34.5 93z"/>
            <glyph glyph-name="ubreve" unicode="&#x16d;"
                   d="M365 220v247h139v-467h-139v64q-18 -34 -52 -54t-69 -20q-82 0 -133.5 51t-51.5 147v279h139v-249q0 -50 26 -71.5t57 -21.5q36 0 60 23t24 72zM157 689h85q0 -53 49 -53q48 0 48 53h87q0 -60 -37.5 -95.5t-97.5 -35.5q-65 0 -99.5 38t-34.5 93z"/>
            <glyph glyph-name="Uring" unicode="&#x16e;" horiz-adv-x="682"
                   d="M342 128q48 0 83.5 33.5t35.5 84.5v443h147v-443q0 -114 -78 -185t-188 -71t-189 71.5t-79 184.5v443h149v-443q0 -51 35.5 -84.5t83.5 -33.5zM220 881q0 52 35 87.5t85 35.5q51 0 86.5 -35.5t35.5 -87.5q0 -50 -35.5 -85t-86.5 -35q-50 0 -85 35t-35 85zM285 881
q0 -23 16 -39t39 -16q24 0 40.5 16t16.5 39q0 25 -16.5 41.5t-40.5 16.5q-23 0 -39 -16.5t-16 -41.5z"/>
            <glyph glyph-name="uring" unicode="&#x16f;"
                   d="M365 220v247h139v-467h-139v64q-18 -34 -52 -54t-69 -20q-82 0 -133.5 51t-51.5 147v279h139v-249q0 -50 26 -71.5t57 -21.5q36 0 60 23t24 72zM170 659q0 52 35 87.5t85 35.5q51 0 86.5 -35.5t35.5 -87.5q0 -50 -35.5 -85t-86.5 -35q-50 0 -85 35t-35 85zM235 659
q0 -23 16 -39t39 -16q24 0 40.5 16t16.5 39q0 25 -16.5 41.5t-40.5 16.5q-23 0 -39 -16.5t-16 -41.5z"/>
            <glyph glyph-name="Uhungarumlaut" unicode="&#x170;" horiz-adv-x="682"
                   d="M342 128q48 0 83.5 33.5t35.5 84.5v443h147v-443q0 -114 -78 -185t-188 -71t-189 71.5t-79 184.5v443h149v-443q0 -51 35.5 -84.5t83.5 -33.5zM295 928h111l-121 -168h-100zM455 928h114l-132 -168h-105z"/>
            <glyph glyph-name="uhungarumlaut" unicode="&#x171;"
                   d="M365 220v247h139v-467h-139v64q-18 -34 -52 -54t-69 -20q-82 0 -133.5 51t-51.5 147v279h139v-249q0 -50 26 -71.5t57 -21.5q36 0 60 23t24 72zM247 706h111l-121 -168h-100zM407 706h114l-132 -168h-105z"/>
            <glyph glyph-name="Uogonek" unicode="&#x172;" horiz-adv-x="684"
                   d="M369 -9l-34 -92q-12 -30 15 -42q28 -7 39 19q2 14 2 18q0 5 -1 8l77 4q1 -38 -8 -59q-14 -30 -39.5 -47.5t-55.5 -17.5q-44 0 -75.5 30.5t-31.5 72.5q0 28 10 49l32 60q-97 15 -160.5 82.5t-63.5 169.5v443h149v-443q0 -51 35.5 -84.5t83.5 -33.5t83.5 33.5t35.5 84.5
v443h147v-443q0 -108 -69 -177t-171 -78z"/>
            <glyph glyph-name="uogonek" unicode="&#x173;"
                   d="M329 -66l36 66v64q-18 -34 -52 -54t-69 -20q-82 0 -133.5 51t-51.5 147v279h139v-249q0 -50 26 -71.5t57 -21.5q36 0 60 23t24 72v247h139v-467h-70l-37 -101q-12 -30 15 -42q28 -7 39 19q2 14 2 18q0 5 -1 8l77 4q1 -38 -8 -59q-14 -30 -39.5 -47.5t-55.5 -17.5
q-44 0 -75.5 30.5t-31.5 72.5q0 28 10 49z"/>
            <glyph glyph-name="Wcircumflex" unicode="&#x174;" horiz-adv-x="886"
                   d="M594 255l135 434h159l-234 -689h-115l-97 362l-95 -362h-116l-232 689h158l134 -434l92 337h120zM374 933h138l110 -168h-100l-79 89l-78 -89h-100z"/>
            <glyph glyph-name="wcircumflex" unicode="&#x175;" horiz-adv-x="763"
                   d="M753 467l-164 -467h-116l-92 297l-88 -297h-116l-169 467h148l83 -278l82 278h119l82 -278l83 278h148zM311 711h138l110 -168h-100l-79 89l-78 -89h-100z"/>
            <glyph glyph-name="Ycircumflex" unicode="&#x176;" horiz-adv-x="651"
                   d="M400 0h-149v312l-266 377h174l166 -258l168 258h174l-267 -379v-310zM256 933h138l110 -168h-100l-79 89l-78 -89h-100z"/>
            <glyph glyph-name="ycircumflex" unicode="&#x177;" horiz-adv-x="510"
                   d="M506 467l-288 -696h-147l112 277l-180 419h148l103 -265l104 265h148zM188 711h138l110 -168h-100l-79 89l-78 -89h-100z"/>
            <glyph glyph-name="Ydieresis" unicode="&#x178;" horiz-adv-x="651"
                   d="M400 0h-149v312l-266 377h174l166 -258l168 258h174l-267 -379v-310zM165 860q0 29 21.5 48.5t51.5 19.5t50.5 -19.5t20.5 -48.5t-21 -49t-50 -20q-30 0 -51.5 20t-21.5 49zM342 860q0 29 21.5 48.5t51.5 19.5t50.5 -19.5t20.5 -48.5t-21 -49t-50 -20q-30 0 -51.5 20
t-21.5 49z"/>
            <glyph glyph-name="Zacute" unicode="&#x179;" horiz-adv-x="595"
                   d="M42 111l315 449h-302v129h492v-111l-318 -449h318v-129h-505v111zM335 929h138l-148 -168h-100z"/>
            <glyph glyph-name="zacute" unicode="&#x17a;" horiz-adv-x="510"
                   d="M55 467h407v-104l-224 -235h224v-128h-421v103l220 236h-206v128zM297 707h138l-148 -168h-100z"/>
            <glyph glyph-name="Zdotaccent" unicode="&#x17b;" horiz-adv-x="595"
                   d="M42 111l315 449h-302v129h492v-111l-318 -449h318v-129h-505v111zM217 867q0 32 22 53t55 21t55 -21t22 -53q0 -33 -22 -54t-55 -21t-55 21t-22 54z"/>
            <glyph glyph-name="zdotaccent" unicode="&#x17c;" horiz-adv-x="510"
                   d="M55 467h407v-104l-224 -235h224v-128h-421v103l220 236h-206v128zM174 645q0 32 22 53t55 21t55 -21t22 -53q0 -33 -22 -54t-55 -21t-55 21t-22 54z"/>
            <glyph glyph-name="Zcaron" unicode="&#x17d;" horiz-adv-x="595"
                   d="M42 111l315 449h-302v129h492v-111l-318 -449h318v-129h-505v111zM363 760h-138l-109 168h100l78 -89l79 89h100z"/>
            <glyph glyph-name="zcaron" unicode="&#x17e;" horiz-adv-x="510"
                   d="M55 467h407v-104l-224 -235h224v-128h-421v103l220 236h-206v128zM320 538h-138l-109 168h100l78 -89l79 89h100z"/>
            <glyph glyph-name="longs" unicode="&#x17f;" horiz-adv-x="335"
                   d="M373 721v-133h-51q-71 0 -71 -89v-499h-140v357h-88v110h88v32q0 108 54.5 165t156.5 57h51z"/>
            <glyph glyph-name="florin" unicode="&#x192;" horiz-adv-x="627"
                   d="M30 -192l27 133h51q71 0 88 89l66 327h-88l22 110h88l7 32q21 108 87 165t168 57h51l-26 -133h-51q-72 0 -89 -89l-7 -32h94l-22 -110h-94l-73 -365q-18 -85 -87 -134.5t-161 -49.5h-51z"/>
            <glyph glyph-name="Aringacute" unicode="&#x1fa;" horiz-adv-x="659"
                   d="M259 290h143l-73 240zM449 163h-238l-61 -163h-156l256 689h159l255 -689h-154zM376 1113h138l-120 -136q58 -38 58 -105q0 -50 -35.5 -85t-86.5 -35q-50 0 -85 35t-35 85q0 41 24 74t61 44zM275 872q0 -23 16 -39t39 -16q24 0 40.5 16t16.5 39q0 25 -16.5 41.5
t-40.5 16.5q-23 0 -39 -16.5t-16 -41.5z"/>
            <glyph glyph-name="aringacute" unicode="&#x1fb;" horiz-adv-x="612"
                   d="M410 0v53q-20 -30 -61.5 -46t-74.5 -16q-94 0 -166 68t-72 175t72 175t166 68q32 0 71.5 -14t64.5 -48v52h138v-467h-138zM352 900h138l-120 -136q58 -38 58 -105q0 -50 -35.5 -85t-86.5 -35q-50 0 -85 35t-35 85q0 41 24 74t61 44zM180 234q0 -48 35.5 -79.5t81.5 -31.5
q45 0 79 30.5t34 80.5t-34 80.5t-79 30.5q-46 0 -81.5 -31.5t-35.5 -79.5zM251 659q0 -23 16 -39t39 -16q24 0 40.5 16t16.5 39q0 25 -16.5 41.5t-40.5 16.5q-23 0 -39 -16.5t-16 -41.5z"/>
            <glyph glyph-name="AEacute" unicode="&#x1fc;" horiz-adv-x="934"
                   d="M414 689h461v-129h-290v-157h254v-127h-254v-147h299v-129h-445v1l-1 -1v158h-184l-100 -158h-175zM438 493l-101 -194h101v194zM556 929h138l-148 -168h-100z"/>
            <glyph glyph-name="aeacute" unicode="&#x1fd;" horiz-adv-x="970"
                   d="M541 707h138l-148 -168h-100zM812 154l101 -69q-65 -95 -213 -95q-85 0 -152 50v-40h-138v53q-20 -30 -61.5 -46t-74.5 -16q-94 0 -166 68t-72 175t72 175t166 68q32 0 71.5 -14t64.5 -48v52h138v-39q68 49 152 49q102 0 170.5 -68.5t68.5 -177.5q0 -19 -2 -43h-342
q6 -38 39.5 -58t75.5 -20q69 0 102 44zM180 234q0 -48 35.5 -79.5t81.5 -31.5q45 0 79 30.5t34 80.5t-34 80.5t-79 30.5q-46 0 -81.5 -31.5t-35.5 -79.5zM597 275h202q-6 39 -35 59.5t-63 20.5t-65.5 -19.5t-38.5 -60.5z"/>
            <glyph glyph-name="Oslashacute" unicode="&#x1fe;" horiz-adv-x="779"
                   d="M452 929h138l-148 -168h-100zM171 67l-1 -1l-80 -82l-47 47l80 82q-83 101 -83 230q0 147 101.5 250.5t247.5 103.5q128 0 223 -81l79 81l47 -46l-80 -82q81 -97 81 -226q0 -146 -102 -249.5t-248 -103.5q-122 0 -218 77zM186 343q0 -70 39 -125l285 293q-50 41 -121 41
q-86 0 -144.5 -61t-58.5 -148zM389 135q85 0 144.5 61t59.5 147q0 65 -38 120l-283 -291q50 -37 117 -37z"/>
            <glyph glyph-name="oslashacute" unicode="&#x1ff;" horiz-adv-x="557"
                   d="M314 707h138l-148 -168h-100zM278 -8q-80 0 -141 42l-58 -59l-47 47l56 58q-52 63 -52 155q0 108 70 175t172 67q81 0 150 -50l52 54l47 -46l-53 -54q47 -63 47 -146q0 -108 -70.5 -175.5t-172.5 -67.5zM278 341q-44 0 -74.5 -29.5t-30.5 -76.5q0 -32 13 -54l143 146
q-26 14 -51 14zM278 128q45 0 75.5 29.5t30.5 77.5q0 21 -9 44l-139 -143q18 -8 42 -8z"/>
            <glyph glyph-name="Scommaaccent" unicode="&#x218;" horiz-adv-x="582"
                   d="M44 202h147q2 -36 28.5 -59.5t74.5 -23.5q45 0 72.5 19.5t28.5 53.5q1 26 -17 45t-66 33l-83 23q-178 56 -178 198q0 91 68 148.5t169 57.5q102 0 167.5 -57t65.5 -154h-146q0 36 -23 57t-66 21q-39 0 -64 -19.5t-25 -49.5q0 -49 74 -70l82 -26q196 -56 189 -208
q-2 -96 -75 -149t-173 -53q-111 0 -180.5 59.5t-69.5 153.5zM243 -287l-68 35q32 44 45 87t13 109h117q-13 -153 -107 -231z"/>
            <glyph glyph-name="scommaaccent" unicode="&#x219;" horiz-adv-x="467"
                   d="M246 176l-61 16q-40 11 -68.5 26.5t-42 29.5t-20.5 35t-8 31.5t-1 29.5q0 52 54.5 92.5t127.5 40.5q36 0 69 -8.5t61.5 -25.5t45 -48.5t16.5 -72.5h-131q-1 41 -53 41q-23 0 -36.5 -9.5t-12.5 -25.5q2 -25 41 -35l79 -21q40 -11 67 -29.5t39 -39.5t16.5 -36.5t4.5 -30.5
q0 -70 -60.5 -108t-141.5 -38q-76 0 -135.5 43.5t-59.5 117.5h130q1 -21 21 -37.5t48 -16.5q24 1 40.5 11.5t16.5 27.5q0 15 -10 24t-36 16zM195 -287l-68 35q32 44 45 87t13 109h117q-13 -153 -107 -231z"/>
            <glyph glyph-name="circumflex" unicode="&#x2c6;" horiz-adv-x="567"
                   d="M214 711h138l110 -168h-100l-79 89l-78 -89h-100z"/>
            <glyph glyph-name="caron" unicode="&#x2c7;" horiz-adv-x="567"
                   d="M352 538h-138l-109 168h100l78 -89l79 89h100z"/>
            <glyph glyph-name="breve" unicode="&#x2d8;" horiz-adv-x="509"
                   d="M120 689h85q0 -53 49 -53q48 0 48 53h87q0 -60 -37.5 -95.5t-97.5 -35.5q-65 0 -99.5 38t-34.5 93z"/>
            <glyph glyph-name="dotaccent" unicode="&#x2d9;" horiz-adv-x="386"
                   d="M116 645q0 32 22 53t55 21t55 -21t22 -53q0 -33 -22 -54t-55 -21t-55 21t-22 54z"/>
            <glyph glyph-name="ring" unicode="&#x2da;" horiz-adv-x="562"
                   d="M160 659q0 52 35 87.5t85 35.5q51 0 86.5 -35.5t35.5 -87.5q0 -50 -35.5 -85t-86.5 -35q-50 0 -85 35t-35 85zM225 659q0 -23 16 -39t39 -16q24 0 40.5 16t16.5 39q0 25 -16.5 41.5t-40.5 16.5q-23 0 -39 -16.5t-16 -41.5z"/>
            <glyph glyph-name="ogonek" unicode="&#x2db;" horiz-adv-x="531"
                   d="M292 -124q2 14 2 18q0 5 -1 8l77 4q1 -38 -8 -59q-14 -30 -39.5 -47.5t-55.5 -17.5q-44 0 -75.5 30.5t-31.5 72.5q0 28 10 49l50 93h65l-47 -128q-12 -30 15 -42q28 -7 39 19z"/>
            <glyph glyph-name="tilde" unicode="&#x2dc;" horiz-adv-x="449"
                   d="M179 606q-8 0 -16.5 -11t-9.5 -32h-75q3 68 33 99t68 31q23 0 50 -20.5t37 -20.5q8 0 16.5 10t9.5 31h75q-3 -67 -33.5 -97.5t-67.5 -30.5q-22 0 -49.5 20.5t-37.5 20.5z"/>
            <glyph glyph-name="hungarumlaut" unicode="&#x2dd;" horiz-adv-x="544"
                   d="M190 706h111l-121 -168h-100zM350 706h114l-132 -168h-105z"/>
            <glyph glyph-name="Wgrave" unicode="&#x1e80;" horiz-adv-x="886"
                   d="M594 255l135 434h159l-234 -689h-115l-97 362l-95 -362h-116l-232 689h158l134 -434l92 337h120zM259 929h138l110 -168h-100z"/>
            <glyph glyph-name="wgrave" unicode="&#x1e81;" horiz-adv-x="763"
                   d="M753 467l-164 -467h-116l-92 297l-88 -297h-116l-169 467h148l83 -278l82 278h119l82 -278l83 278h148zM188 707h138l110 -168h-100z"/>
            <glyph glyph-name="Wacute" unicode="&#x1e82;" horiz-adv-x="886"
                   d="M594 255l135 434h159l-234 -689h-115l-97 362l-95 -362h-116l-232 689h158l134 -434l92 337h120zM488 929h138l-148 -168h-100z"/>
            <glyph glyph-name="wacute" unicode="&#x1e83;" horiz-adv-x="763"
                   d="M753 467l-164 -467h-116l-92 297l-88 -297h-116l-169 467h148l83 -278l82 278h119l82 -278l83 278h148zM429 707h138l-148 -168h-100z"/>
            <glyph glyph-name="Wdieresis" unicode="&#x1e84;" horiz-adv-x="886"
                   d="M594 255l135 434h159l-234 -689h-115l-97 362l-95 -362h-116l-232 689h158l134 -434l92 337h120zM283 860q0 29 21.5 48.5t51.5 19.5t50.5 -19.5t20.5 -48.5t-21 -49t-50 -20q-30 0 -51.5 20t-21.5 49zM460 860q0 29 21.5 48.5t51.5 19.5t50.5 -19.5t20.5 -48.5t-21 -49
t-50 -20q-30 0 -51.5 20t-21.5 49z"/>
            <glyph glyph-name="wdieresis" unicode="&#x1e85;" horiz-adv-x="763"
                   d="M753 467l-164 -467h-116l-92 297l-88 -297h-116l-169 467h148l83 -278l82 278h119l82 -278l83 278h148zM220 638q0 29 21.5 48.5t51.5 19.5t50.5 -19.5t20.5 -48.5t-21 -49t-50 -20q-30 0 -51.5 20t-21.5 49zM397 638q0 29 21.5 48.5t51.5 19.5t50.5 -19.5t20.5 -48.5
t-21 -49t-50 -20q-30 0 -51.5 20t-21.5 49z"/>
            <glyph glyph-name="Ygrave" unicode="&#x1ef2;" horiz-adv-x="651"
                   d="M400 0h-149v312l-266 377h174l166 -258l168 258h174l-267 -379v-310zM152 929h138l110 -168h-100z"/>
            <glyph glyph-name="ygrave" unicode="&#x1ef3;" horiz-adv-x="510"
                   d="M506 467l-288 -696h-147l112 277l-180 419h148l103 -265l104 265h148zM102 707h138l110 -168h-100z"/>
            <glyph glyph-name="thinspace" unicode="&#x2009;" horiz-adv-x="14"
            />
            <glyph glyph-name="endash" unicode="&#x2013;" horiz-adv-x="634"
                   d="M60 173v124h514v-124h-514z"/>
            <glyph glyph-name="emdash" unicode="&#x2014;" horiz-adv-x="847"
                   d="M60 173v124h727v-124h-727z"/>
            <glyph glyph-name="quoteleft" unicode="&#x2018;" horiz-adv-x="281"
                   d="M202 697l54 -31q-31 -43 -45.5 -66t-31.5 -77.5t-17 -116.5h-114q0 84 52 167t102 124z"/>
            <glyph glyph-name="quoteright" unicode="&#x2019;" horiz-adv-x="272"
                   d="M88 406l-54 31q31 43 45.5 66t31.5 77.5t17 116.5h114q0 -84 -52 -167t-102 -124z"/>
            <glyph glyph-name="quotesinglbase" unicode="&#x201a;" horiz-adv-x="256"
                   d="M42 -124l-54 31q31 43 45.5 66t31.5 77.5t17 116.5h114q0 -84 -52 -167t-102 -124z"/>
            <glyph glyph-name="quotedblleft" unicode="&#x201c;" horiz-adv-x="452"
                   d="M373 697l54 -31q-31 -43 -45.5 -66t-31.5 -77.5t-17 -116.5h-114q0 84 52 167t102 124zM202 697l54 -31q-31 -43 -45.5 -66t-31.5 -77.5t-17 -116.5h-114q0 84 52 167t102 124z"/>
            <glyph glyph-name="quotedblright" unicode="&#x201d;" horiz-adv-x="443"
                   d="M88 406l-54 31q31 43 45.5 66t31.5 77.5t17 116.5h114q0 -84 -52 -167t-102 -124zM259 406l-54 31q31 43 45.5 66t31.5 77.5t17 116.5h114q0 -84 -52 -167t-102 -124z"/>
            <glyph glyph-name="quotedblbase" unicode="&#x201e;" horiz-adv-x="427"
                   d="M42 -124l-54 31q31 43 45.5 66t31.5 77.5t17 116.5h114q0 -84 -52 -167t-102 -124zM213 -124l-54 31q31 43 45.5 66t31.5 77.5t17 116.5h114q0 -84 -52 -167t-102 -124z"/>
            <glyph glyph-name="dagger" unicode="&#x2020;" horiz-adv-x="410"
                   d="M267 689v-163h105v-98h-105v-521h-124v521h-105v98h105v163h124z"/>
            <glyph glyph-name="daggerdbl" unicode="&#x2021;" horiz-adv-x="442"
                   d="M283 689v-163h105v-98h-105v-200h105v-97h-105v-224h-124v224h-105v97h105v200h-105v98h105v163h124z"/>
            <glyph glyph-name="bullet" unicode="&#x2022;" horiz-adv-x="488"
                   d="M84 238q0 66 47 110t113 44t113 -44t47 -110t-47 -110t-113 -44t-113 44t-47 110z"/>
            <glyph glyph-name="ellipsis" unicode="&#x2026;" horiz-adv-x="865"
                   d="M53 74q0 36 25 59.5t61 23.5t61.5 -24t25.5 -59q0 -36 -25.5 -60t-61.5 -24t-61 24t-25 60zM346 74q0 36 25 59.5t61 23.5t61.5 -24t25.5 -59q0 -36 -25.5 -60t-61.5 -24t-61 24t-25 60zM639 74q0 36 25 59.5t61 23.5t61.5 -24t25.5 -59q0 -36 -25.5 -60t-61.5 -24
t-61 24t-25 60z"/>
            <glyph glyph-name="perthousand" unicode="&#x2030;" horiz-adv-x="1013"
                   d="M471 655h69l-322 -655h-69zM37 528q0 57 38 95.5t95 38.5q56 0 95 -39t39 -95q0 -57 -38.5 -95t-95.5 -38t-95 38t-38 95zM118 528q0 -23 14.5 -37.5t37.5 -14.5q22 0 37.5 14.5t15.5 37.5q0 22 -15.5 37.5t-37.5 15.5q-23 0 -37.5 -15.5t-14.5 -37.5zM391 123
q0 57 38 95.5t95 38.5q56 0 95 -39t39 -95q0 -57 -38.5 -95t-95.5 -38t-95 38t-38 95zM472 123q0 -23 14.5 -37.5t37.5 -14.5q22 0 37.5 14.5t15.5 37.5q0 22 -15.5 37.5t-37.5 15.5q-23 0 -37.5 -15.5t-14.5 -37.5zM712 123q0 57 38 95.5t95 38.5q56 0 95 -39t39 -95
q0 -57 -38.5 -95t-95.5 -38t-95 38t-38 95zM793 123q0 -23 14.5 -37.5t37.5 -14.5q22 0 37.5 14.5t15.5 37.5q0 22 -15.5 37.5t-37.5 15.5q-23 0 -37.5 -15.5t-14.5 -37.5z"/>
            <glyph glyph-name="guilsinglleft" unicode="&#x2039;" horiz-adv-x="328"
                   d="M39 233l138 207h108l-138 -207l138 -207h-108z"/>
            <glyph glyph-name="guilsinglright" unicode="&#x203a;" horiz-adv-x="328"
                   d="M289 233l-138 -207h-108l138 207l-138 207h108z"/>
            <glyph glyph-name="fraction" unicode="&#x2044;" horiz-adv-x="180"
                   d="M354 668l-451 -678h-83l452 678h82z"/>
            <glyph glyph-name="zerosuperior" unicode="&#x2070;" horiz-adv-x="351"
                   d="M34 624q0 197 142 197q141 0 141 -197q0 -196 -141 -196q-142 0 -142 196zM114 624q0 -118 62 -118q61 0 61 118q0 119 -61 119q-62 0 -62 -119z"/>
            <glyph glyph-name="foursuperior" unicode="&#x2074;" horiz-adv-x="342"
                   d="M269 519v-85h-81v85h-182l179 295h84v-227h48v-68h-48zM116 587h72v119z"/>
            <glyph glyph-name="fivesuperior" unicode="&#x2075;" horiz-adv-x="342"
                   d="M92 548q26 -40 66 -40q33 0 54.5 17.5t21.5 42.5q0 31 -19.5 46.5t-50.5 15.5q-57 0 -84 -41l-44 23l31 202h222v-74h-158l-11 -63q21 20 70 20q54 0 89 -34t35 -95q0 -62 -42.5 -101t-113.5 -39q-39 0 -75.5 21.5t-58.5 55.5l17 11l34 22z"/>
            <glyph glyph-name="sixsuperior" unicode="&#x2076;" horiz-adv-x="339"
                   d="M125 555q0 -21 14.5 -35.5t35.5 -14.5t36 14.5t15 35.5t-15 36t-36 15t-35.5 -15t-14.5 -36zM305 748l-75 -32q-14 30 -44 30q-39 0 -56 -32.5t-14 -77.5q5 13 26 28t50 15q46 0 81.5 -33.5t35.5 -94.5q0 -55 -38 -89t-100 -34q-55 0 -92.5 36t-42.5 96q-8 83 6 136
q28 129 147 125q85 -6 116 -73z"/>
            <glyph glyph-name="sevensuperior" unicode="&#x2077;" horiz-adv-x="324"
                   d="M313 814l-169 -380h-91l135 306h-161v74h286z"/>
            <glyph glyph-name="eightsuperior" unicode="&#x2078;" horiz-adv-x="346"
                   d="M134 713q0 -16 10 -26.5t29 -10.5t29 10.5t10 26.5q0 15 -10.5 25.5t-28.5 10.5t-28.5 -10.5t-10.5 -25.5zM109 561q0 -24 19 -41t45 -17t45 17t19 41q0 22 -17.5 39t-40.5 17h-13q-24 0 -40.5 -17t-16.5 -39zM56 715q0 44 34.5 75t82.5 31t82.5 -31t34.5 -75
q0 -41 -28 -63q55 -33 55 -93q0 -54 -42.5 -92.5t-101.5 -38.5t-101.5 38.5t-42.5 92.5q0 60 55 93q-28 26 -28 63z"/>
            <glyph glyph-name="ninesuperior" unicode="&#x2079;" horiz-adv-x="339"
                   d="M214 694q0 21 -14.5 36t-35.5 15t-36 -15t-15 -36t15 -35.5t36 -14.5t35.5 14.5t14.5 35.5zM34 502l75 32q15 -31 44 -31q39 0 56 33t14 78q-6 -14 -26.5 -28.5t-49.5 -14.5q-46 0 -81.5 33.5t-35.5 94.5q0 55 38 88.5t100 33.5q55 0 93 -36t43 -96q1 -36 0.5 -72.5
t-10.5 -71t-26 -61.5t-46.5 -42t-71.5 -14q-40 3 -69 18.5t-47 55.5z"/>
            <glyph glyph-name="zeroinferior" unicode="&#x2080;" horiz-adv-x="350"
                   d="M34 40q0 197 142 197q141 0 141 -197q0 -196 -141 -196q-142 0 -142 196zM114 40q0 -118 62 -118q61 0 61 118q0 119 -61 119q-62 0 -62 -119z"/>
            <glyph glyph-name="oneinferior" unicode="&#x2081;" horiz-adv-x="215"
                   d="M86 123l-65 -27v70l145 69v-385h-80v273z"/>
            <glyph glyph-name="twoinferior" unicode="&#x2082;" horiz-adv-x="320"
                   d="M31 -107l156 185q20 23 20 44q0 16 -13 27t-35 11q-21 0 -36 -14.5t-18 -38.5l-74 13q9 54 44 85.5t89 31.5q51 0 87.5 -32.5t36.5 -82.5q0 -49 -40 -96q-65 -73 -88 -100h118v-76h-247v43z"/>
            <glyph glyph-name="threeinferior" unicode="&#x2083;" horiz-adv-x="317"
                   d="M104 141l-32 20l-32 20q18 28 49 43t69 13q49 -4 81.5 -35t30.5 -71q0 -48 -49 -75q31 -12 49 -41.5t16 -61.5q-4 -48 -48 -80t-101 -28q-39 3 -72 25t-49 55l11 5l24 12l35 18q18 -32 57 -37q21 -2 37 11t18 29q0 22 -3 29q-13 24 -49 23h-40v69h40q38 0 38 42
q0 13 -10.5 25t-28.5 12q-26 0 -41 -22z"/>
            <glyph glyph-name="fourinferior" unicode="&#x2084;" horiz-adv-x="344"
                   d="M271 -65v-85h-81v85h-182l179 295h84v-227h48v-68h-48zM118 3h72v119z"/>
            <glyph glyph-name="fiveinferior" unicode="&#x2085;" horiz-adv-x="339"
                   d="M91 -36q26 -40 66 -40q33 0 54.5 17.5t21.5 42.5q0 31 -19.5 46.5t-50.5 15.5q-57 0 -84 -41l-44 23l31 202h222v-74h-158l-11 -63q21 20 70 20q54 0 89 -34t35 -95q0 -62 -42.5 -101t-113.5 -39q-39 0 -75.5 21.5t-58.5 55.5l17 11q17 10 34 21z"/>
            <glyph glyph-name="sixinferior" unicode="&#x2086;" horiz-adv-x="339"
                   d="M125 -29q0 -21 14.5 -35.5t35.5 -14.5t36 14.5t15 35.5t-15 36t-36 15t-35.5 -15t-14.5 -36zM305 164l-75 -32q-14 30 -44 30q-39 0 -56 -32.5t-14 -77.5q5 13 26 28t50 15q46 0 81.5 -33.5t35.5 -94.5q0 -55 -38 -89t-100 -34q-55 0 -92.5 36t-42.5 96q-8 83 6 136
q28 129 147 125q85 -6 116 -73z"/>
            <glyph glyph-name="seveninferior" unicode="&#x2087;" horiz-adv-x="311"
                   d="M309 230l-169 -380h-91l135 306h-161v74h286z"/>
            <glyph glyph-name="eightinferior" unicode="&#x2088;" horiz-adv-x="346"
                   d="M134 129q0 -16 10 -26.5t29 -10.5t29 10.5t10 26.5q0 15 -10.5 25.5t-28.5 10.5t-28.5 -10.5t-10.5 -25.5zM109 -23q0 -24 19 -41t45 -17t45 17t19 41q0 22 -17.5 39t-40.5 17h-13q-24 0 -40.5 -17t-16.5 -39zM56 131q0 44 34.5 75t82.5 31t82.5 -31t34.5 -75
q0 -41 -28 -63q55 -33 55 -93q0 -54 -42.5 -92.5t-101.5 -38.5t-101.5 38.5t-42.5 92.5q0 60 55 93q-28 26 -28 63z"/>
            <glyph glyph-name="nineinferior" unicode="&#x2089;" horiz-adv-x="339"
                   d="M214 110q0 21 -14.5 36t-35.5 15t-36 -15t-15 -36t15 -35.5t36 -14.5t35.5 14.5t14.5 35.5zM34 -82l75 32q15 -31 44 -31q39 0 56 33t14 78q-6 -14 -26.5 -28.5t-49.5 -14.5q-46 0 -81.5 33.5t-35.5 94.5q0 55 38 88.5t100 33.5q55 0 93 -36t43 -96q1 -36 0.5 -72.5
t-10.5 -71t-26 -61.5t-46.5 -42t-71.5 -14q-40 3 -69 18.5t-47 55.5z"/>
            <glyph glyph-name="colonmonetary" unicode="&#x20a1;" horiz-adv-x="710"
                   d="M333 -6l-37 -106l-58 21l35 99q-32 10 -62 27l-40 -112l-58 21l46 129q-57 49 -89 119.5t-32 150.5q0 147 98.5 249.5t244.5 104.5l39 108l58 -22l-33 -91q35 -6 66 -18l34 96l58 -22l-36 -100q64 -38 104 -97l-119 -82q-18 25 -35 39l-136 -380h3q53 0 98 26t74 69
l118 -82q-46 -70 -122 -110.5t-168 -40.5q-31 0 -51 4zM398 558l-138 -385q26 -23 59 -34l145 403q-34 15 -66 16zM185 343q0 -65 29 -115l115 323q-64 -18 -104 -76t-40 -132z"/>
            <glyph glyph-name="lira" unicode="&#x20a4;" horiz-adv-x="683"
                   d="M290 228v-104h184q14 0 22 10t8 26v29h137v-56q0 -57 -36 -95t-90 -38h-471v124h106v104h-83v63h83v47h-83v63h83v72q0 101 59.5 162.5t153.5 61.5q99 0 163 -58.5t64 -171.5h-145q0 82 -79 82q-35 0 -55.5 -20.5t-20.5 -55.5v-72h115v-63h-115v-47h115v-63h-115z"/>
            <glyph glyph-name="uni20A6" unicode="&#x20a6;" horiz-adv-x="782"
                   d="M131 212h-76v68h76v157h-76v68h76v184h134l105 -184h131v184h147v-184h81v-68h-81v-157h81v-68h-81v-212h-131l-122 212h-118v-212h-146v212zM409 437l90 -157h2v157h-92zM277 417v-137h79z"/>
            <glyph glyph-name="peseta" unicode="&#x20a7;" horiz-adv-x="755"
                   d="M483 438h-213v-72h129q33 0 55 20.5t29 51.5zM270 497h211q-9 27 -29 45t-49 18h-133v-63zM720 438h-88q-9 -86 -66.5 -143t-159.5 -57h-136v-238h-147v438h-78v59h78v192h283q100 0 157 -55t68 -137h89v-59z"/>
            <glyph glyph-name="rupee" unicode="&#x20a8;" horiz-adv-x="717"
                   d="M376 445h-315v59h309q-22 56 -75 56h-234l-1 129h613v-59h-210q53 -51 64 -126h146v-59h-143q-4 -73 -47.5 -128.5t-123.5 -72.5l171 -244h-176l-154 238h-139v128h230q35 0 57 23t28 56z"/>
            <glyph glyph-name="uni20A9" unicode="&#x20a9;" horiz-adv-x="1007"
                   d="M240 155h-178v68h155l-51 151h-104v68h81l-83 247h158l76 -247h109l41 150h120l40 -150h109l77 247h159l-84 -247h79v-68h-102l-52 -151h154v-68h-177l-52 -155h-115l-42 155h-110l-40 -155h-116zM503 362l-37 -139h74zM315 374l37 -119l32 119h-69zM623 374l32 -119
l37 119h-69z"/>
            <glyph glyph-name="afii57636" unicode="&#x20aa;" horiz-adv-x="953"
                   d="M658 332v-119h-140v93q0 39 -27.5 65.5t-74.5 26.5h-190v-398h-140v538h361q94 0 152.5 -59t58.5 -147zM295 206v119h140v-93q0 -39 27.5 -65.5t74.5 -26.5h190v398h140v-538h-361q-94 0 -152.5 59t-58.5 147z"/>
            <glyph glyph-name="Euro" unicode="&#x20ac;" horiz-adv-x="829"
                   d="M309 435h230v-63h-493v63h109q28 115 120.5 188.5t214.5 73.5q91 0 166 -39t121 -107l-119 -82q-61 90 -168 90q-62 0 -109.5 -34t-71.5 -90zM539 256h-232q22 -58 71 -93t112 -35q53 0 98 26t74 69l118 -82q-46 -70 -122 -110.5t-168 -40.5q-124 0 -215.5 74.5
t-120.5 191.5h-108v63h493v-63z"/>
            <glyph glyph-name="uni2113" unicode="&#x2113;" horiz-adv-x="401"
                   d="M183 521v-240l27 3q23 0 23 38v200q0 58 -23 58q-13 0 -19 -10t-7 -20t-1 -29zM234 113l98 -7v-106h-123q-149 0 -149 170v357q0 170 149 170q147 0 147 -177v-186q0 -84 -35.5 -126.5t-137.5 -42.5q0 -15 2.5 -24t14.5 -18t34 -10z"/>
            <glyph glyph-name="afii61352" unicode="&#x2116;" horiz-adv-x="984"
                   d="M603 689v-689h-131l-240 417v-417h-146v689h134l236 -412v412h147zM672 563q0 57 38 95.5t95 38.5q56 0 95 -39t39 -95q0 -57 -38.5 -95t-95.5 -38t-95 38t-38 95zM747 563q0 -25 16.5 -41.5t41.5 -16.5q24 0 41.5 17t17.5 41t-17.5 41.5t-41.5 17.5t-41 -17.5t-17 -41.5
zM678 318v67h254v-67h-254z"/>
            <glyph glyph-name="trademark" unicode="&#x2122;" horiz-adv-x="851"
                   d="M336 325l36 289h-108v-289h-84v289h-118v75h388l111 -226l108 226h72l44 -364h-84l-25 222l-85 -181h-60l-85 181l-27 -222h-83z"/>
            <glyph glyph-name="estimated" unicode="&#x212e;" horiz-adv-x="646"
                   d="M604 279h-429v-193q68 -63 152 -63q76 0 123 33t87 94l31 -19q-46 -69 -100 -105t-141 -36q-119 0 -195 84.5t-76 205.5q0 123 75 206.5t200 83.5q124 0 198.5 -84.5t74.5 -206.5zM484 312v163q-68 62 -153 62q-96 0 -156 -62v-163h309z"/>
            <glyph glyph-name="minus" unicode="&#x2212;" horiz-adv-x="505"
                   d="M437 210h-369v102h369v-102z"/>
            <glyph glyph-name="notequal" unicode="&#x2260;" horiz-adv-x="602"
                   d="M265 149l-51 -105h-70l51 105h-125v98h173l50 103h-223v98h271l47 96h71l-47 -96h118v-98h-166l-51 -103h217v-98h-265z"/>
            <glyph glyph-name="lessequal" unicode="&#x2264;" horiz-adv-x="639"
                   d="M62 331v112l502 192l1 -110l-362 -138l362 -138l-1 -110zM564 86v-86h-497v86h497z"/>
            <glyph glyph-name="greaterequal" unicode="&#x2265;" horiz-adv-x="639"
                   d="M577 443v-112l-502 -192l-1 110l362 138l-362 138l1 110zM75 0v86h497v-86h-497z"/>
            <glyph glyph-name="commaaccent" unicode="&#xf6c3;" horiz-adv-x="315"
                   d="M138 -287l-68 35q32 44 45 87t13 109h117q-13 -153 -107 -231z"/>
            <glyph glyph-name="rupiah" unicode="&#xf6dd;" horiz-adv-x="1191"
                   d="M344 560h-128v-194h124q40 0 63.5 30t23.5 67q0 36 -22 66.5t-61 30.5zM408 244l171 -244h-176l-154 238h-33v-238h-147v689h282q110 0 169.5 -66.5t59.5 -159.5q0 -78 -44 -140t-128 -79zM797 232q0 -50 32 -80.5t76 -30.5q46 0 77 30.5t31 80.5t-31.5 81.5t-76.5 31.5
t-76.5 -31.5t-31.5 -81.5zM656 467h138v-58q17 32 54.5 50t82.5 18q93 0 159.5 -67t66.5 -175q0 -109 -66.5 -177t-159.5 -68q-45 0 -82.5 17.5t-54.5 49.5v-286h-138v696z"/>
            <glyph glyph-name="apple" unicode="&#xf8ff;" horiz-adv-x="847"
                   d="M767 687v-687h-687v687h687zM164 595v-377h81l-74 75v178l255 -253l256 253v-178l-74 -75h84v377l-266 -263zM179 132h-15v-53h9v37l13 -37h10l11 37v-37h9v53h-14l-9 -36zM248 132q-25 0 -25 -27q0 -11 6.5 -18.5t18.5 -7.5q11 0 17 8t6 18q0 27 -23 27zM248 89
q-8 0 -12.5 5t-4.5 11t4.5 11.5t12.5 5.5q12 0 12 -17q0 -16 -12 -16zM284 99h-13q0 -20 22 -20t22 17q0 11 -15 14q-16 4 -16 6q0 6 9 6q10 0 10 -6h9q0 16 -19 16t-19 -16q0 -8 16 -15q13 0 13 -5q0 -7 -10 -7q-9 0 -9 10zM315 122h17v-43h8v43h15v10h-40v-10zM377 132h-9
l-22 -53h12l4 13h22l3 -13h11zM374 119l7 -18h-16l6 18h3zM426 132h-28v-53h9v22h13q9 0 9 -9v-13h13q-3 3 -3 13q0 9 -7 13q7 3 7 11q0 16 -13 16zM420 108h-13v14h13q9 0 9 -6q0 -8 -9 -8zM466 132h-20v-53h20q25 0 25 29q0 24 -25 24zM466 89h-8v33h4q17 0 17 -17
q0 -16 -13 -16zM531 132h-37v-53h40v10h-28v12h25v9h-25v12h25v10zM543 99h-9q0 -20 22 -20t22 17q0 11 -15 14q-17 4 -17 6q0 6 7 6q12 0 12 -6h10q0 16 -19 16q-22 0 -22 -16q0 -8 19 -15q12 0 12 -5q0 -7 -9 -7q-13 0 -13 10zM589 132h-7v-53h7v53zM633 86l4 -7h6v29h-22
v-9h12q-4 -10 -12 -10q-16 0 -16 16q0 17 16 17q9 0 9 -10h13q-4 20 -22 20q-25 0 -25 -27q0 -10 7 -18t18 -8q9 0 12 7zM657 132h-8v-53h8v33l22 -33h13v53h-13v-33z"/>
            <glyph glyph-name="CR" horiz-adv-x="244"
            />
            <glyph glyph-name="published" horiz-adv-x="797"
                   d="M425 428h-57v-81h55q17 0 27 12.5t10 28.5t-9.5 28t-25.5 12zM284 167v336h142q57 0 87 -33.5t30 -81.5q0 -47 -30 -81t-87 -34h-58v-106h-84zM49 343q0 147 101.5 250.5t247.5 103.5t248 -103.5t102 -250.5t-102 -250t-248 -103t-247.5 103t-101.5 250zM127 343
q0 -114 79 -194t192 -80t192 80t79 194t-79 194.5t-192 80.5t-192 -80.5t-79 -194.5z"/>
            <glyph glyph-name="frenchfranc" horiz-adv-x="746"
                   d="M367 0v299h-130v-299h-147v689h431v-129h-284v-137h262v-108q17 62 50 92.5t72 30.5q54 0 90 -17l-25 -127q-31 16 -71 16q-116 0 -116 -186v-124h-132z"/>
            <glyph glyph-name="parenleft.case" horiz-adv-x="388"
                   d="M39 340q0 203 90.5 336t226.5 133v-109q-49 0 -95.5 -51t-75.5 -135t-29 -174q0 -136 62.5 -244.5t137.5 -108.5v-108q-136 0 -226.5 129.5t-90.5 331.5z"/>
            <glyph glyph-name="parenright.case" horiz-adv-x="388"
                   d="M349 340q0 -202 -90.5 -331.5t-226.5 -129.5v108q75 0 137.5 108.5t62.5 244.5q0 90 -29 174t-75.5 135t-95.5 51v109q136 0 226.5 -133t90.5 -336z"/>
            <glyph glyph-name="hyphen.case" horiz-adv-x="475"
                   d="M61 281v132h353v-132h-353z"/>
            <glyph glyph-name="at.case" horiz-adv-x="964"
                   d="M583 217v126q0 49 -34 83t-82 34t-82 -34t-34 -83q0 -47 34.5 -81t81.5 -34q46 0 79 25v-94q-40 -19 -79 -19q-85 0 -145 59.5t-60 143.5q0 86 60 145.5t145 59.5q83 0 142 -56q59 -53 64 -139v-142q0 -32 17.5 -46t42.5 -14q31 0 53 20.5t32.5 54t15 65.5t4.5 65
q0 142 -106 237.5t-255 95.5q-144 0 -243.5 -102.5t-99.5 -248.5q0 -145 99.5 -245.5t243.5 -100.5h33v-89h-33q-182 0 -307 126t-125 309t125.5 311.5t306.5 128.5q121 0 224 -54.5t165 -152t62 -215.5q0 -48 -10.5 -96.5t-32 -94t-61 -74t-91.5 -28.5q-65 0 -107.5 37
t-42.5 117z"/>
            <glyph glyph-name="bracketleft.case" horiz-adv-x="338"
                   d="M73 -116v918h231v-101h-113v-714h113v-103h-231z"/>
            <glyph glyph-name="bracketright.case" horiz-adv-x="338"
                   d="M265 802v-918h-231v103h113v714h-113v101h231z"/>
            <glyph glyph-name="braceleft.case" horiz-adv-x="412"
                   d="M31 300v84q24 0 42.5 16t18.5 42v159q0 90 58 145t144 55h85v-101h-88q-34 0 -58 -25t-24 -61v-164q0 -42 -25 -71.5t-54 -36.5q29 -7 54 -36.5t25 -71.5v-153q0 -37 24.5 -65t57.5 -28h88v-105h-85q-86 0 -144 55t-58 145v159q0 26 -18.5 42t-42.5 16z"/>
            <glyph glyph-name="braceright.case" horiz-adv-x="412"
                   d="M381 384v-84q-24 0 -42.5 -16t-18.5 -42v-159q0 -90 -58 -145t-144 -55h-85v105h88q33 0 57.5 28t24.5 65v153q0 42 25 71.5t54 36.5q-29 7 -54 36.5t-25 71.5v164q0 36 -24 61t-58 25h-88v101h85q86 0 144 -55t58 -145v-159q0 -26 18.5 -42t42.5 -16z"/>
            <glyph glyph-name="exclamdown.case" horiz-adv-x="284"
                   d="M219 -10h-154l20 487h114zM55 613q0 36 25 60t61 24t61.5 -24t25.5 -60q0 -35 -25.5 -59t-61.5 -24t-61 23.5t-25 59.5z"/>
            <glyph glyph-name="guillemotleft.case" horiz-adv-x="527"
                   d="M48 345l138 207h108l-138 -207l138 -207h-108zM225 345l138 207h108l-138 -207l138 -207h-108z"/>
            <glyph glyph-name="periodcentered.case" horiz-adv-x="279"
                   d="M53 368q0 36 25 60t61 24t61.5 -24t25.5 -60q0 -35 -25.5 -59t-61.5 -24t-61 23.5t-25 59.5z"/>
            <glyph glyph-name="guillemotright.case" horiz-adv-x="527"
                   d="M479 345l-138 -207h-108l138 207l-138 207h108zM302 345l-138 -207h-108l138 207l-138 207h108z"/>
            <glyph glyph-name="questiondown.case" horiz-adv-x="496"
                   d="M222 457l2 22h136l2 -22q0 -39 -1 -58.5t-6.5 -44.5t-17 -39.5t-32 -30t-52.5 -28.5l-40 -17q-24 -13 -30.5 -24t-6.5 -31q0 -24 19.5 -39t51.5 -15t51.5 18.5t19.5 50.5h140q0 -95 -58 -152t-153 -57t-153 53t-58 142q0 71 36.5 121t97.5 68q30 9 41 27.5t11 55.5z
M376 613q0 -36 -25 -59.5t-61 -23.5t-61.5 24t-25.5 59q0 36 25.5 60t61.5 24t61 -24t25 -60z"/>
            <glyph glyph-name="endash.case" horiz-adv-x="642"
                   d="M64 285v124h514v-124h-514z"/>
            <glyph glyph-name="emdash.case" horiz-adv-x="855"
                   d="M64 285v124h727v-124h-727z"/>
            <glyph glyph-name="bullet.case" horiz-adv-x="470"
                   d="M75 350q0 66 47 110t113 44t113 -44t47 -110t-47 -110t-113 -44t-113 44t-47 110z"/>
            <glyph glyph-name="guilsinglleft.case" horiz-adv-x="350"
                   d="M48 345l138 207h108l-138 -207l138 -207h-108z"/>
            <glyph glyph-name="guilsinglright.case" horiz-adv-x="350"
                   d="M302 345l-138 -207h-108l138 207l-138 207h108z"/>
            <glyph glyph-name="cent.case" horiz-adv-x="539"
                   d="M319 697v-106q115 -11 177 -98l-113 -81q-29 47 -90 47q-46 0 -81 -30.5t-35 -78.5q0 -49 35 -80.5t81 -31.5q61 0 90 47l113 -80q-62 -88 -177 -99v-115h-73v118q-88 15 -147.5 80.5t-59.5 160.5q0 94 59 158t148 80v109h73z"/>
            <glyph glyph-name="zero.tnum" horiz-adv-x="580"
                   d="M46 328q0 340 245 340q69 0 118 -26t75.5 -74t38 -106.5t11.5 -133.5t-11.5 -132.5t-38 -105.5t-75.5 -74t-118 -26q-245 0 -245 338zM186 328q0 -202 105 -202q103 0 103 202q0 204 -103 204q-105 0 -105 -204z"/>
            <glyph glyph-name="one.tnum" horiz-adv-x="580"
                   d="M392 664v-664h-140v469l-112 -48v123z"/>
            <glyph glyph-name="two.tnum" horiz-adv-x="580"
                   d="M493 0h-426v76l269 319q35 40 35 74q0 27 -22 46t-60 19q-37 0 -62 -25.5t-31 -65.5l-128 22q15 95 75.5 149t153.5 54q89 0 151.5 -56.5t62.5 -142.5q0 -88 -69 -166l-151 -171h202v-132z"/>
            <glyph glyph-name="three.tnum" horiz-adv-x="580"
                   d="M272 284h-69v120h69q64 0 64 71q0 20 -16.5 41.5t-49.5 21.5q-47 0 -69 -36l-113 69q30 48 84.5 74.5t119.5 22.5q85 -4 140.5 -58.5t53.5 -125.5q0 -40 -23 -73.5t-61 -54.5q53 -20 84.5 -72t27.5 -106q-8 -84 -83.5 -138t-174.5 -48q-68 4 -125.5 42t-83.5 95l123 61
q10 -23 39 -42t58 -21q37 -2 63.5 20t30.5 50v5v9.5t-0.5 10.5t-2 12t-5 12t-7.5 12.5t-11 10.5t-15.5 8.5t-21 5t-26.5 1.5z"/>
            <glyph glyph-name="four.tnum" horiz-adv-x="580"
                   d="M199 265h122v204zM545 147h-83v-147h-141v147h-313l306 508h148v-390h83v-118z"/>
            <glyph glyph-name="five.tnum" horiz-adv-x="580"
                   d="M399 231q0 53 -33.5 80t-87.5 27q-99 0 -144 -72l-77 40l54 349h384v-128h-273l-17 -106q40 34 120 34q92 0 153 -59.5t61 -164.5q0 -106 -74 -173.5t-196 -67.5q-68 0 -130.5 36t-101.5 96l118 76q20 -30 51.5 -49t62.5 -19q55 0 92.5 30.5t37.5 70.5z"/>
            <glyph glyph-name="six.tnum" horiz-adv-x="580"
                   d="M329 422q78 0 139.5 -58t61.5 -163q0 -95 -65.5 -153t-172.5 -58q-94 0 -160.5 62.5t-74.5 165.5q-6 51 -3 104.5t10 104t27.5 95.5t49 78t75.5 51.5t106 16.5q67 -3 117.5 -30.5t84.5 -96.5l-131 -56q-25 52 -76 52q-45 0 -74 -30t-38.5 -70.5t-7.5 -88.5q8 24 43 49
t89 25zM385 209q0 35 -25.5 60.5t-60.5 25.5t-60.5 -25.5t-25.5 -60.5t25.5 -60.5t60.5 -25.5t60.5 25.5t25.5 60.5z"/>
            <glyph glyph-name="seven.tnum" horiz-adv-x="580"
                   d="M58 655h494l-289 -655h-159l231 526h-277v129z"/>
            <glyph glyph-name="eight.tnum" horiz-adv-x="580"
                   d="M88 485q0 76 59.5 129.5t142.5 53.5t143 -53.5t60 -129.5q0 -68 -48 -110q44 -25 69 -68.5t25 -96.5q0 -92 -73 -156t-176 -64t-176 64t-73 156q0 53 25 96.5t69 68.5q-47 45 -47 110zM181 217q0 -41 32.5 -69t76.5 -28t76.5 28t32.5 69q0 40 -29 69t-81 29
q-51 0 -79.5 -29t-28.5 -69zM223 481q0 -27 17.5 -45t49.5 -18t49.5 18t17.5 45q0 25 -18 43t-49 18t-49 -18t-18 -43z"/>
            <glyph glyph-name="nine.tnum" horiz-adv-x="580"
                   d="M250 236q-78 0 -139.5 58t-61.5 163q0 94 65.5 152.5t172.5 58.5q95 0 160 -62.5t75 -165.5q6 -51 3 -104t-10 -104t-27.5 -96t-49.5 -78t-75.5 -51.5t-105.5 -16.5q-67 3 -118 30t-84 97l131 56q25 -52 76 -52q45 0 74 30t38.5 70.5t7.5 88.5q-26 -74 -132 -74zM194 449
q0 -35 25.5 -60.5t60.5 -25.5t60.5 25.5t25.5 60.5t-25.5 60.5t-60.5 25.5t-60.5 -25.5t-25.5 -60.5z"/>
            <glyph glyph-name="zero.taboldstyle" horiz-adv-x="580"
                   d="M289 -8q-104 0 -180 74t-76 190q0 117 75.5 190.5t180.5 73.5q106 0 181.5 -73t75.5 -191q0 -116 -75.5 -190t-181.5 -74zM289 122q50 0 88 37.5t38 96.5t-38 96t-88 37t-87 -37t-37 -96t37.5 -96.5t86.5 -37.5z"/>
            <glyph glyph-name="one.taboldstyle" horiz-adv-x="580"
                   d="M407 517v-517h-140v314l-130 -51v132z"/>
            <glyph glyph-name="two.taboldstyle" horiz-adv-x="580"
                   d="M496 0h-419v80l235 232q32 32 32 47q0 18 -14.5 30.5t-41.5 12.5q-65 0 -72 -59l-136 16q10 78 63.5 124.5t145.5 46.5q91 0 149.5 -48.5t58.5 -114.5q0 -69 -62 -121l-136 -124h197v-122z"/>
            <glyph glyph-name="six.taboldstyle" horiz-adv-x="580"
                   d="M329 422q78 0 139.5 -58t61.5 -163q0 -95 -65.5 -153t-172.5 -58q-94 0 -160.5 62.5t-74.5 165.5q-6 51 -3 104.5t10 104t27.5 95.5t49 78t75.5 51.5t106 16.5q67 -3 117.5 -30.5t84.5 -96.5l-131 -56q-25 52 -76 52q-45 0 -74 -30t-38.5 -70.5t-7.5 -88.5q8 24 43 49
t89 25zM385 209q0 35 -25.5 60.5t-60.5 25.5t-60.5 -25.5t-25.5 -60.5t25.5 -60.5t60.5 -25.5t60.5 25.5t25.5 60.5z"/>
            <glyph glyph-name="eight.taboldstyle" horiz-adv-x="580"
                   d="M88 485q0 76 59.5 129.5t142.5 53.5t143 -53.5t60 -129.5q0 -68 -48 -110q44 -25 69 -68.5t25 -96.5q0 -92 -73 -156t-176 -64t-176 64t-73 156q0 53 25 96.5t69 68.5q-47 45 -47 110zM181 217q0 -41 32.5 -69t76.5 -28t76.5 28t32.5 69q0 40 -29 69t-81 29
q-51 0 -79.5 -29t-28.5 -69zM223 481q0 -27 17.5 -45t49.5 -18t49.5 18t17.5 45q0 25 -18 43t-49 18t-49 -18t-18 -43z"/>
            <glyph glyph-name="three.taboldstyle" horiz-adv-x="580"
                   d="M274 93h-69v120h69q64 0 64 71q0 20 -16.5 41.5t-49.5 21.5q-47 0 -69 -36l-113 69q30 48 84.5 74.5t119.5 22.5q85 -4 140.5 -58.5t53.5 -125.5q0 -40 -23 -73.5t-61 -54.5q53 -20 84.5 -72t27.5 -106q-8 -84 -83.5 -138t-174.5 -48q-68 4 -125.5 42t-83.5 95l123 61
q10 -23 39 -42t58 -21q37 -2 63.5 20t30.5 50v6v8.5t-0.5 10.5t-2 12t-5 12t-7.5 12.5t-11 10.5t-15.5 8.5t-21 5t-26.5 1.5z"/>
            <glyph glyph-name="four.taboldstyle" horiz-adv-x="580"
                   d="M200 76h122v204zM546 -42h-83v-147h-141v147h-313l306 508h148v-390h83v-118z"/>
            <glyph glyph-name="five.taboldstyle" horiz-adv-x="580"
                   d="M399 43q0 53 -33.5 80t-87.5 27q-99 0 -144 -72l-77 40l54 349h384v-128h-273l-17 -106q40 34 120 34q92 0 153 -59.5t61 -164.5q0 -106 -74 -173.5t-196 -67.5q-68 0 -130.5 36t-101.5 96l118 76q20 -30 51.5 -49t62.5 -19q55 0 92.5 30.5t37.5 70.5z"/>
            <glyph glyph-name="seven.taboldstyle" horiz-adv-x="580"
                   d="M59 467h494l-289 -655h-159l231 526h-277v129z"/>
            <glyph glyph-name="nine.taboldstyle" horiz-adv-x="580"
                   d="M253 45q-78 0 -139.5 58t-61.5 163q0 94 65.5 152.5t172.5 58.5q95 0 160 -62.5t75 -165.5q6 -51 3 -104t-10 -104t-27.5 -96t-49.5 -78t-75.5 -51.5t-105.5 -16.5q-67 3 -118 30t-84 97l131 56q25 -52 76 -52q45 0 74 30t38.5 70.5t7.5 88.5q-26 -74 -132 -74zM197 258
q0 -35 25.5 -60.5t60.5 -25.5t60.5 25.5t25.5 60.5t-25.5 60.5t-60.5 25.5t-60.5 -25.5t-25.5 -60.5z"/>
            <glyph glyph-name="zero.oldstyle" horiz-adv-x="631"
                   d="M315 -8q-104 0 -180 74t-76 190q0 117 75.5 190.5t180.5 73.5q106 0 181.5 -73t75.5 -191q0 -116 -75.5 -190t-181.5 -74zM315 122q50 0 88 37.5t38 96.5t-38 96t-88 37t-87 -37t-37 -96t37.5 -96.5t86.5 -37.5z"/>
            <glyph glyph-name="one.oldstyle" horiz-adv-x="387"
                   d="M311 517v-517h-140v314l-130 -51v132z"/>
            <glyph glyph-name="two.oldstyle" horiz-adv-x="542"
                   d="M477 0h-419v80l235 232q32 32 32 47q0 18 -14.5 30.5t-41.5 12.5q-65 0 -72 -59l-136 16q10 78 63.5 124.5t145.5 46.5q91 0 149.5 -48.5t58.5 -114.5q0 -69 -62 -121l-136 -124h197v-122z"/>
            <glyph glyph-name="three.oldstyle" horiz-adv-x="531"
                   d="M250 93h-69v120h69q64 0 64 71q0 20 -16.5 41.5t-49.5 21.5q-47 0 -69 -36l-113 69q30 48 84.5 74.5t119.5 22.5q85 -4 140.5 -58.5t53.5 -125.5q0 -40 -23 -73.5t-61 -54.5q53 -20 84.5 -72t27.5 -106q-8 -84 -83.5 -138t-174.5 -48q-68 4 -125.5 42t-83.5 95l123 61
q10 -23 39 -42t58 -21q37 -2 63.5 20t30.5 50v6v8.5t-0.5 10.5t-2 12t-5 12t-7.5 12.5t-11 10.5t-15.5 8.5t-21 5t-26.5 1.5z"/>
            <glyph glyph-name="four.oldstyle" horiz-adv-x="587"
                   d="M204 76h122v204zM550 -42h-83v-147h-141v147h-313l306 508h148v-390h83v-118z"/>
            <glyph glyph-name="five.oldstyle" horiz-adv-x="577"
                   d="M398 42q0 53 -33.5 80t-87.5 27q-99 0 -144 -72l-77 40l54 349h384v-128h-273l-17 -106q40 34 120 34q92 0 153 -59.5t61 -164.5q0 -106 -74 -173.5t-196 -67.5q-68 0 -130.5 36t-101.5 96l118 76q20 -30 51.5 -49t62.5 -19q55 0 92.5 30.5t37.5 70.5z"/>
            <glyph glyph-name="six.oldstyle" horiz-adv-x="586"
                   d="M332 422q78 0 139.5 -58t61.5 -163q0 -95 -65.5 -153t-172.5 -58q-94 0 -160.5 62.5t-74.5 165.5q-6 51 -3 104.5t10 104t27.5 95.5t49 78t75.5 51.5t106 16.5q67 -3 117.5 -30.5t84.5 -96.5l-131 -56q-25 52 -76 52q-45 0 -74 -30t-38.5 -70.5t-7.5 -88.5q8 24 43 49
t89 25zM388 209q0 35 -25.5 60.5t-60.5 25.5t-60.5 -25.5t-25.5 -60.5t25.5 -60.5t60.5 -25.5t60.5 25.5t25.5 60.5z"/>
            <glyph glyph-name="seven.oldstyle" horiz-adv-x="528"
                   d="M33 467h494l-289 -655h-159l231 526h-277v129z"/>
            <glyph glyph-name="eight.oldstyle" horiz-adv-x="596"
                   d="M96 485q0 76 59.5 129.5t142.5 53.5t143 -53.5t60 -129.5q0 -68 -48 -110q44 -25 69 -68.5t25 -96.5q0 -92 -73 -156t-176 -64t-176 64t-73 156q0 53 25 96.5t69 68.5q-47 45 -47 110zM189 217q0 -41 32.5 -69t76.5 -28t76.5 28t32.5 69q0 40 -29 69t-81 29
q-51 0 -79.5 -29t-28.5 -69zM231 481q0 -27 17.5 -45t49.5 -18t49.5 18t17.5 45q0 25 -18 43t-49 18t-49 -18t-18 -43z"/>
            <glyph glyph-name="nine.oldstyle" horiz-adv-x="566"
                   d="M246 45q-78 0 -139.5 58t-61.5 163q0 94 65.5 152.5t172.5 58.5q95 0 160 -62.5t75 -165.5q6 -51 3 -104t-10 -104t-27.5 -96t-49.5 -78t-75.5 -51.5t-105.5 -16.5q-67 3 -118 30t-84 97l131 56q25 -52 76 -52q45 0 74 30t38.5 70.5t7.5 88.5q-26 -74 -132 -74zM190 258
q0 -35 25.5 -60.5t60.5 -25.5t60.5 25.5t25.5 60.5t-25.5 60.5t-60.5 25.5t-60.5 -25.5t-25.5 -60.5z"/>
            <glyph glyph-name="Lslash.sc" horiz-adv-x="435"
                   d="M211 398l75 47v-78l-75 -47v-208h209v-112h-336v240l-59 -36v78l59 37v247h127v-168z"/>
            <glyph glyph-name="Zcaron.sc" horiz-adv-x="516"
                   d="M198 760l63 -70l64 70h88l-93 -142h-118l-92 142h88zM47 95l254 360h-243v111h406v-94l-255 -360h255v-112h-417v95z"/>
            <glyph glyph-name="exclam.sc" horiz-adv-x="289"
                   d="M79 566h130l-16 -399h-97zM71 61q0 30 21.5 50t51.5 20t51.5 -20t21.5 -50t-21.5 -50.5t-51.5 -20.5t-51.5 20.5t-21.5 50.5z"/>
            <glyph glyph-name="ampersand.sc" horiz-adv-x="590"
                   d="M355 205v42h-68q-55 0 -78 -16t-28 -45q-4 -34 21.5 -56t60.5 -22q23 0 49.5 15.5t37.5 48.5q5 18 5 33zM266 344h89v64h112v-64h65v-97h-65v-80q0 -44 14.5 -57t61.5 -13v-105q-75 0 -111.5 12t-51.5 53q-17 -32 -56.5 -49.5t-77.5 -17.5q-84 0 -139.5 47.5t-55.5 120.5
q0 108 86 143q-64 25 -64 112q0 61 49.5 110.5t117.5 49.5q105 0 165 -76l-101 -63q-22 22 -45 22q-28 0 -41.5 -15.5t-13.5 -36.5v-4q1 -3 2 -8t3 -11.5t6.5 -13t10.5 -12t16.5 -8.5t23.5 -3z"/>
            <glyph glyph-name="question.sc" horiz-adv-x="427"
                   d="M154 401h-114l-3 -3q0 80 48 126.5t127 46.5q78 0 126 -44t48 -118q0 -58 -30.5 -99.5t-80.5 -56.5q-23 -8 -30 -19.5t-9 -37.5l-3 -28h-117l-1 20q0 68 21.5 107t76.5 60q33 13 42.5 24t9.5 31q0 16 -15 28t-38 12q-24 0 -40 -14t-18 -35zM103 61q0 31 21.5 51t51.5 20
q32 0 53.5 -19.5t21.5 -51.5q0 -30 -22 -50.5t-53 -20.5q-30 0 -51.5 20.5t-21.5 50.5z"/>
            <glyph glyph-name="A.sc"
                   d="M379 132h-189l-50 -132h-133l210 566h134l210 -566h-133zM338 242l-55 182l-52 -182h107z"/>
            <glyph glyph-name="B.sc" horiz-adv-x="550"
                   d="M475 407q0 -74 -71 -104q50 -14 75 -52t25 -76q0 -74 -50 -124.5t-132 -50.5h-244v566h228q78 0 123.5 -42.5t45.5 -116.5zM204 346h90q22 0 35.5 15t13.5 39q0 25 -13 39.5t-37 14.5h-89v-108zM313 240h-109v-128h111q26 0 41.5 19.5t15.5 46.5q0 24 -16 43t-43 19z"/>
            <glyph glyph-name="C.sc" horiz-adv-x="599"
                   d="M467 188l102 -71q-39 -60 -101.5 -93.5t-138.5 -33.5q-121 0 -203 84.5t-82 204.5q0 122 82 207t203 85q152 0 238 -124l-103 -70q-49 75 -135 75q-68 0 -113 -50t-45 -123q0 -71 45.5 -120.5t112.5 -49.5q87 0 138 79z"/>
            <glyph glyph-name="D.sc" horiz-adv-x="604"
                   d="M300 0h-222v566h222q120 0 188.5 -80t68.5 -205q0 -124 -68.5 -202.5t-188.5 -78.5zM204 115h96q63 0 97 48t34 118q0 73 -34 121.5t-97 48.5h-96v-336z"/>
            <glyph glyph-name="E.sc" horiz-adv-x="499"
                   d="M78 566h361v-112h-236v-120h207v-110h-207v-112h243v-112h-368v566z"/>
            <glyph glyph-name="F.sc" horiz-adv-x="466"
                   d="M78 566h357v-112h-231v-120h183v-111h-183v-223h-126v566z"/>
            <glyph glyph-name="G.sc" horiz-adv-x="641"
                   d="M458 397h-4q-46 56 -120 56q-69 0 -116.5 -51t-47.5 -123q0 -70 48 -121.5t116 -51.5q47 0 88 25t43 64h-150v103h295q0 -154 -74 -231t-202 -77q-122 0 -206 84.5t-84 204.5q0 122 84 207t206 85q133 0 215 -95z"/>
            <glyph glyph-name="H.sc" horiz-adv-x="600"
                   d="M522 566v-566h-127v225h-192v-225h-125v566h125v-228h192v228h127z"/>
            <glyph glyph-name="I.sc" horiz-adv-x="281"
                   d="M203 566v-566h-125v566h125z"/>
            <glyph glyph-name="J.sc" horiz-adv-x="282"
                   d="M-69 -177l11 114q34 -10 75 -10q31 0 46 20.5t15 53.5v565h126v-565q0 -86 -45 -139.5t-142 -53.5q-31 0 -86 15z"/>
            <glyph glyph-name="K.sc" horiz-adv-x="528"
                   d="M267 286l265 -286h-164l-163 185v-185h-127v566h127v-175l128 175h148z"/>
            <glyph glyph-name="L.sc" horiz-adv-x="428"
                   d="M78 566h126v-454h209v-112h-335v566z"/>
            <glyph glyph-name="M.sc" horiz-adv-x="772"
                   d="M386 210l165 356h106l68 -566h-126l-38 326l-126 -262h-96l-127 262l-39 -326h-126l69 566h104z"/>
            <glyph glyph-name="N.sc" horiz-adv-x="582"
                   d="M504 0h-111l-190 329v-329h-125v566h114l186 -324v324h126v-566z"/>
            <glyph glyph-name="O.sc" horiz-adv-x="662"
                   d="M44 279q0 122 83 207t203 85q122 0 205 -85t83 -207q0 -120 -83.5 -204.5t-204.5 -84.5q-120 0 -203 84.5t-83 204.5zM169 279q0 -68 46.5 -116t114.5 -48q69 0 116 48t47 116q0 69 -47 118t-116 49q-68 0 -114.5 -49t-46.5 -118z"/>
            <glyph glyph-name="P.sc" horiz-adv-x="529"
                   d="M78 566h233q92 0 140.5 -55t48.5 -132t-48.5 -131t-140.5 -54h-107v-194h-126v566zM309 454h-105v-150h101q31 0 49.5 23t18.5 52t-17 52t-47 23z"/>
            <glyph glyph-name="Q.sc" horiz-adv-x="667"
                   d="M504 45l54 -90l-90 -55l-61 99q-35 -9 -73 -9q-122 0 -206 84.5t-84 204.5q0 122 84 207t206 85t206 -85t84 -207q0 -146 -120 -234zM386 238l54 -88q58 56 58 129q0 72 -48 122.5t-116 50.5q-69 0 -116.5 -50.5t-47.5 -122.5q0 -60 36 -105t92 -57q19 -5 42 -5l-28 44
l-17 28z"/>
            <glyph glyph-name="R.sc" horiz-adv-x="550"
                   d="M362 199l141 -199h-153l-125 194h-21v-194h-126v566h233q90 0 140 -55.5t50 -131.5q0 -63 -36 -113t-103 -67zM305 454h-101v-150h97q31 0 49.5 23t18.5 52t-17 52t-47 23z"/>
            <glyph glyph-name="S.sc" horiz-adv-x="500"
                   d="M46 169h126q2 -29 23 -47.5t57 -18.5t57 14.5t22 40.5q0 21 -13 35.5t-52 24.5l-68 20q-146 43 -146 163q0 77 56 124t139 47q85 0 139 -48t54 -130h-125q0 28 -18 45.5t-50 17.5q-30 0 -50 -14.5t-20 -37.5q0 -37 58 -55l67 -20q156 -46 156 -172q0 -81 -61.5 -124.5
t-144.5 -43.5q-93 0 -149.5 50t-56.5 129z"/>
            <glyph glyph-name="T.sc" horiz-adv-x="471"
                   d="M21 566h429v-114h-150v-452h-128v452h-151v114z"/>
            <glyph glyph-name="U.sc" horiz-adv-x="584"
                   d="M293 109q38 0 65.5 25.5t27.5 66.5v365h126v-365q0 -93 -64.5 -152t-154.5 -59q-91 0 -156 59t-65 152v365h128v-365q0 -41 27.5 -66.5t65.5 -25.5z"/>
            <glyph glyph-name="V.sc" horiz-adv-x="505"
                   d="M155 566l97 -355l97 355h132l-173 -566h-111l-173 566h131z"/>
            <glyph glyph-name="W.sc" horiz-adv-x="759"
                   d="M610 566h136l-193 -566h-98l-76 284l-75 -284h-99l-191 566h136l106 -343l72 264h103l71 -263z"/>
            <glyph glyph-name="X.sc" horiz-adv-x="573"
                   d="M360 302l198 -302h-149l-123 198l-121 -198h-149l195 302l-178 264h152l101 -164l103 164h150z"/>
            <glyph glyph-name="Y.sc" horiz-adv-x="575"
                   d="M351 0h-128v256l-219 310h150l133 -206l133 206h152l-221 -311v-255z"/>
            <glyph glyph-name="Z.sc" horiz-adv-x="516"
                   d="M47 95l254 360h-243v111h406v-94l-255 -360h255v-112h-417v95z"/>
            <glyph glyph-name="Scaron.sc" horiz-adv-x="500"
                   d="M189 760l62 -71l65 71h87l-92 -142h-118l-93 142h89zM46 169h126q2 -29 23 -47.5t57 -18.5t57 14.5t22 40.5q0 21 -13 35.5t-52 24.5l-68 20q-146 43 -146 163q0 77 56 124t139 47q85 0 139 -48t54 -130h-125q0 28 -18 45.5t-50 17.5q-30 0 -50 -14.5t-20 -37.5
q0 -37 58 -55l67 -20q156 -46 156 -172q0 -81 -61.5 -124.5t-144.5 -43.5q-93 0 -149.5 50t-56.5 129z"/>
            <glyph glyph-name="OE.sc" horiz-adv-x="916"
                   d="M495 566h361v-111h-235v-121h205v-110h-205v-112h242v-112h-368v48q-74 -58 -163 -58q-120 0 -204 84.5t-84 204.5q0 122 84 207t204 85q99 0 163 -59v54zM170 279q0 -68 47 -116t115 -48t115 48t47 116q0 69 -47 118t-115 49t-115 -49t-47 -118z"/>
            <glyph glyph-name="Ydieresis.sc" horiz-adv-x="575"
                   d="M351 0h-128v256l-219 310h150l133 -206l133 206h152l-221 -311v-255zM154 703q0 25 18 41.5t44 16.5t43 -16.5t17 -41.5q0 -26 -17 -42.5t-43 -16.5q-27 0 -44.5 16.5t-17.5 42.5zM298 703q0 25 18 41.5t44 16.5t43 -16.5t17 -41.5q0 -26 -17 -42.5t-43 -16.5
q-27 0 -44.5 16.5t-17.5 42.5z"/>
            <glyph glyph-name="exclamdown.sc" horiz-adv-x="287"
                   d="M208 0h-130l17 399h97zM70 505q0 30 21.5 50.5t51.5 20.5t51.5 -20.5t21.5 -50.5t-21.5 -50t-51.5 -20t-51.5 20t-21.5 50z"/>
            <glyph glyph-name="questiondown.sc" horiz-adv-x="430"
                   d="M275 160h114l3 3q0 -80 -48 -126.5t-127 -46.5q-78 0 -126 44t-48 118q0 58 30.5 99.5t80.5 56.5q16 4 24 12.5t10.5 16.5t4.5 28l3 28h117l1 -20q0 -68 -21.5 -106t-76.5 -61q-33 -13 -42.5 -24t-9.5 -31q0 -16 15 -28t38 -12q24 0 40 14t18 35zM326 500
q0 -31 -21.5 -51t-51.5 -20q-32 0 -53.5 19.5t-21.5 51.5q0 30 22 50.5t53 20.5q30 0 51.5 -20.5t21.5 -50.5z"/>
            <glyph glyph-name="Agrave.sc"
                   d="M261 619l-125 142h121l93 -142h-89zM379 132h-189l-50 -132h-133l210 566h134l210 -566h-133zM338 242l-55 182l-52 -182h107z"/>
            <glyph glyph-name="Aacute.sc"
                   d="M436 761l-125 -142h-89l94 142h120zM379 132h-189l-50 -132h-133l210 566h134l210 -566h-133zM338 242l-55 182l-52 -182h107z"/>
            <glyph glyph-name="Acircumflex.sc"
                   d="M346 622l-63 70l-63 -70h-88l92 143h117l93 -143h-88zM379 132h-189l-50 -132h-133l210 566h134l210 -566h-133zM338 242l-55 182l-52 -182h107z"/>
            <glyph glyph-name="Atilde.sc"
                   d="M379 132h-189l-50 -132h-133l210 566h134l210 -566h-133zM338 242l-55 182l-52 -182h107zM248 673q-3 0 -6.5 -3t-7 -11.5t-3.5 -19.5h-68q2 57 28 84t57 27q16 0 37 -16.5t34 -16.5q3 0 6.5 2.5t7.5 10.5t4 20h67q-2 -58 -27.5 -84t-57.5 -26q-15 0 -36.5 16.5
t-34.5 16.5z"/>
            <glyph glyph-name="Adieresis.sc"
                   d="M139 703q0 25 18.5 41.5t44.5 16.5t43 -16.5t17 -41.5q0 -26 -17 -42.5t-43 -16.5q-27 0 -45 16.5t-18 42.5zM283 703q0 25 18.5 41.5t44.5 16.5t43.5 -16.5t17.5 -41.5q0 -26 -17.5 -42.5t-43.5 -16.5q-27 0 -45 16.5t-18 42.5zM379 132h-189l-50 -132h-133l210 566h134
l210 -566h-133zM338 242l-55 182l-52 -182h107z"/>
            <glyph glyph-name="Aring.sc"
                   d="M182 720q0 44 29 73.5t72 29.5t72.5 -29.5t29.5 -73.5q0 -43 -29.5 -72t-72.5 -29t-72 29t-29 72zM241 720q0 -18 12.5 -30t29.5 -12q18 0 31 12t13 30t-13 31t-31 13q-17 0 -29.5 -13t-12.5 -31zM379 132h-189l-50 -132h-133l210 566h134l210 -566h-133zM338 242
l-55 182l-52 -182h107z"/>
            <glyph glyph-name="AE.sc" horiz-adv-x="796"
                   d="M229 128l-81 -128h-151l358 566h380v-111h-235v-121h206v-110h-206v-112h243v-112h-369v128h-145zM301 250h73v140z"/>
            <glyph glyph-name="Ccedilla.sc" horiz-adv-x="601"
                   d="M286 -97q2 -10 11 -14t17 0q18 7 11 31l-27 73q-110 12 -181.5 94t-71.5 194q0 122 82 207t203 85q152 0 238 -124l-103 -70q-49 75 -135 75q-68 0 -113 -50t-45 -123q0 -71 45.5 -120.5t112.5 -49.5q87 0 138 79l102 -72q-73 -112 -208 -125q4 -9 13 -24.5t11 -18.5
q8 -17 8 -41q0 -36 -26 -61.5t-64 -25.5q-36 0 -62.5 29t-24.5 78l67 -3v-9q0 -4 2 -14z"/>
            <glyph glyph-name="Egrave.sc" horiz-adv-x="499"
                   d="M78 566h361v-112h-236v-120h207v-110h-207v-112h243v-112h-368v566zM244 619l-126 142h121l94 -142h-89z"/>
            <glyph glyph-name="Eacute.sc" horiz-adv-x="499"
                   d="M397 761l-126 -142h-89l94 142h121zM78 566h361v-112h-236v-120h207v-110h-207v-112h243v-112h-368v566z"/>
            <glyph glyph-name="Ecircumflex.sc" horiz-adv-x="499"
                   d="M78 566h361v-112h-236v-120h207v-110h-207v-112h243v-112h-368v566zM309 622l-63 70l-64 -70h-87l91 143h118l93 -143h-88z"/>
            <glyph glyph-name="Edieresis.sc" horiz-adv-x="499"
                   d="M112 703q0 25 18.5 41.5t44.5 16.5q25 0 42.5 -16.5t17.5 -41.5q0 -26 -17.5 -42.5t-42.5 -16.5q-27 0 -45 16.5t-18 42.5zM256 703q0 25 18.5 41.5t44.5 16.5q25 0 42.5 -16.5t17.5 -41.5q0 -26 -17.5 -42.5t-42.5 -16.5q-27 0 -45 16.5t-18 42.5zM78 566h361v-112h-236
v-120h207v-110h-207v-112h243v-112h-368v566z"/>
            <glyph glyph-name="Igrave.sc" horiz-adv-x="281"
                   d="M116 619l-125 142h120l94 -142h-89zM203 566v-566h-125v566h125z"/>
            <glyph glyph-name="Iacute.sc" horiz-adv-x="281"
                   d="M169 766h125l-130 -132h-92zM203 566v-566h-125v566h125z"/>
            <glyph glyph-name="Icircumflex.sc" horiz-adv-x="281"
                   d="M204 622l-63 70l-62 -70h-89l93 143h116l94 -143h-89zM203 566v-566h-125v566h125z"/>
            <glyph glyph-name="Idieresis.sc" horiz-adv-x="281"
                   d="M203 566v-566h-125v566h125zM5 703q0 25 18.5 41.5t44.5 16.5q25 0 42.5 -16.5t17.5 -41.5q0 -26 -17.5 -42.5t-42.5 -16.5q-27 0 -45 16.5t-18 42.5zM149 703q0 25 18.5 41.5t44.5 16.5q25 0 42.5 -16.5t17.5 -41.5q0 -26 -17.5 -42.5t-42.5 -16.5q-27 0 -45 16.5
t-18 42.5z"/>
            <glyph glyph-name="Eth.sc" horiz-adv-x="613"
                   d="M310 0h-223v234h-76v79h76v253h223q119 0 187.5 -80t68.5 -205q0 -123 -68.5 -202t-187.5 -79zM213 313h99v-79h-99v-119h97q62 0 96 48t34 118q0 73 -34 121.5t-96 48.5h-97v-138z"/>
            <glyph glyph-name="Ntilde.sc" horiz-adv-x="582"
                   d="M504 0h-111l-190 329v-329h-125v566h114l186 -324v324h126v-566zM255 673q-3 0 -6.5 -3t-7 -11.5t-3.5 -19.5h-68q2 57 28 84t57 27q15 0 37 -16.5t34 -16.5q3 0 6.5 2.5t7.5 10.5t4 20h67q-2 -58 -27.5 -84t-57.5 -26q-15 0 -36.5 16.5t-34.5 16.5z"/>
            <glyph glyph-name="Ograve.sc" horiz-adv-x="662"
                   d="M306 619l-126 142h120l94 -142h-88zM44 279q0 122 83 207t203 85q122 0 205 -85t83 -207q0 -120 -83.5 -204.5t-204.5 -84.5q-120 0 -203 84.5t-83 204.5zM169 279q0 -68 46.5 -116t114.5 -48q69 0 116 48t47 116q0 69 -47 118t-116 49q-68 0 -114.5 -49t-46.5 -118z"/>
            <glyph glyph-name="Oacute.sc" horiz-adv-x="662"
                   d="M486 761l-126 -142h-88l93 142h121zM44 279q0 122 83 207t203 85q122 0 205 -85t83 -207q0 -120 -83.5 -204.5t-204.5 -84.5q-120 0 -203 84.5t-83 204.5zM169 279q0 -68 46.5 -116t114.5 -48q69 0 116 48t47 116q0 69 -47 118t-116 49q-68 0 -114.5 -49t-46.5 -118z"/>
            <glyph glyph-name="Ocircumflex.sc" horiz-adv-x="662"
                   d="M394 622l-64 71l-62 -71h-88l92 143h117l93 -143h-88zM44 279q0 122 83 207t203 85q122 0 205 -85t83 -207q0 -120 -83.5 -204.5t-204.5 -84.5q-120 0 -203 84.5t-83 204.5zM169 279q0 -68 46.5 -116t114.5 -48q69 0 116 48t47 116q0 69 -47 118t-116 49
q-68 0 -114.5 -49t-46.5 -118z"/>
            <glyph glyph-name="Otilde.sc" horiz-adv-x="662"
                   d="M44 279q0 122 83 207t203 85q122 0 205 -85t83 -207q0 -120 -83.5 -204.5t-204.5 -84.5q-120 0 -203 84.5t-83 204.5zM169 279q0 -68 46.5 -116t114.5 -48q69 0 116 48t47 116q0 69 -47 118t-116 49q-68 0 -114.5 -49t-46.5 -118zM295 673q-3 0 -6.5 -3t-7 -11.5
t-3.5 -19.5h-68q2 57 28 84t57 27q15 0 37 -16.5t34 -16.5q3 0 6.5 2.5t7.5 10.5t4 20h67q-2 -58 -27.5 -84t-57.5 -26q-15 0 -36.5 16.5t-34.5 16.5z"/>
            <glyph glyph-name="Odieresis.sc" horiz-adv-x="662"
                   d="M197 703q0 25 18.5 41.5t44.5 16.5q25 0 42.5 -16.5t17.5 -41.5q0 -26 -17.5 -42.5t-42.5 -16.5q-27 0 -45 16.5t-18 42.5zM341 703q0 25 18.5 41.5t44.5 16.5t43 -16.5t17 -41.5q0 -26 -17 -42.5t-43 -16.5q-27 0 -45 16.5t-18 42.5zM44 279q0 122 83 207t203 85
q122 0 205 -85t83 -207q0 -120 -83.5 -204.5t-204.5 -84.5q-120 0 -203 84.5t-83 204.5zM169 279q0 -68 46.5 -116t114.5 -48q69 0 116 48t47 116q0 69 -47 118t-116 49q-68 0 -114.5 -49t-46.5 -118z"/>
            <glyph glyph-name="Oslash.sc" horiz-adv-x="661"
                   d="M152 51l-66 -67l-42 42l65 67q-66 82 -66 186q0 122 83 207t203 85q104 0 182 -66l64 67l42 -42l-65 -66q65 -81 65 -185q0 -120 -83.5 -204.5t-204.5 -84.5q-96 0 -177 61zM168 279q0 -55 29 -96l226 233q-43 30 -94 30q-68 0 -114.5 -49t-46.5 -118zM329 115
q69 0 116 48t47 116q0 56 -29 94l-224 -232q38 -26 90 -26z"/>
            <glyph glyph-name="Ugrave.sc" horiz-adv-x="584"
                   d="M274 619l-125 142h121l92 -142h-88zM293 109q38 0 65.5 25.5t27.5 66.5v365h126v-365q0 -93 -64.5 -152t-154.5 -59q-91 0 -156 59t-65 152v365h128v-365q0 -41 27.5 -66.5t65.5 -25.5z"/>
            <glyph glyph-name="Uacute.sc" horiz-adv-x="584"
                   d="M435 761l-125 -142h-89l94 142h120zM293 109q38 0 65.5 25.5t27.5 66.5v365h126v-365q0 -93 -64.5 -152t-154.5 -59q-91 0 -156 59t-65 152v365h128v-365q0 -41 27.5 -66.5t65.5 -25.5z"/>
            <glyph glyph-name="Ucircumflex.sc" horiz-adv-x="584"
                   d="M355 622l-64 71l-62 -71h-89l93 143h117l93 -143h-88zM293 109q38 0 65.5 25.5t27.5 66.5v365h126v-365q0 -93 -64.5 -152t-154.5 -59q-91 0 -156 59t-65 152v365h128v-365q0 -41 27.5 -66.5t65.5 -25.5z"/>
            <glyph glyph-name="Udieresis.sc" horiz-adv-x="584"
                   d="M158 703q0 25 18.5 41.5t44.5 16.5t43 -16.5t17 -41.5q0 -26 -17 -42.5t-43 -16.5q-27 0 -45 16.5t-18 42.5zM302 703q0 25 18.5 41.5t44.5 16.5t43.5 -16.5t17.5 -41.5q0 -26 -17.5 -42.5t-43.5 -16.5q-27 0 -45 16.5t-18 42.5zM293 109q38 0 65.5 25.5t27.5 66.5v365
h126v-365q0 -93 -64.5 -152t-154.5 -59q-91 0 -156 59t-65 152v365h128v-365q0 -41 27.5 -66.5t65.5 -25.5z"/>
            <glyph glyph-name="Yacute.sc" horiz-adv-x="575"
                   d="M351 0h-128v256l-219 310h150l133 -206l133 206h152l-221 -311v-255zM434 761l-126 -142h-88l93 142h121z"/>
            <glyph glyph-name="Thorn.sc" horiz-adv-x="492"
                   d="M278 103h-75v-103h-125v566h125v-91h75q80 0 132.5 -50.5t52.5 -134.5q0 -83 -53 -135t-132 -52zM203 209h70q26 0 46 21.5t20 55.5q0 37 -19.5 59.5t-45.5 22.5h-71v-159z"/>
            <glyph glyph-name="Amacron.sc"
                   d="M168 734h232v-75h-232v75zM379 132h-189l-50 -132h-133l210 566h134l210 -566h-133zM338 242l-55 182l-52 -182h107z"/>
            <glyph glyph-name="Abreve.sc"
                   d="M171 746h75q0 -42 37 -42q36 0 36 42h77q0 -51 -31 -81t-82 -30q-54 0 -83 32.5t-29 78.5zM379 132h-189l-50 -132h-133l210 566h134l210 -566h-133zM338 242l-55 182l-52 -182h107z"/>
            <glyph glyph-name="Cacute.sc" horiz-adv-x="599"
                   d="M492 761l-126 -142h-89l94 142h121zM467 188l102 -71q-39 -60 -101.5 -93.5t-138.5 -33.5q-121 0 -203 84.5t-82 204.5q0 122 82 207t203 85q152 0 238 -124l-103 -70q-49 75 -135 75q-68 0 -113 -50t-45 -123q0 -71 45.5 -120.5t112.5 -49.5q87 0 138 79z"/>
            <glyph glyph-name="Ccircumflex.sc" horiz-adv-x="599"
                   d="M389 622l-63 70l-63 -70h-88l92 143h117l93 -143h-88zM467 188l102 -71q-39 -60 -101.5 -93.5t-138.5 -33.5q-121 0 -203 84.5t-82 204.5q0 122 82 207t203 85q152 0 238 -124l-103 -70q-49 75 -135 75q-68 0 -113 -50t-45 -123q0 -71 45.5 -120.5t112.5 -49.5
q87 0 138 79z"/>
            <glyph glyph-name="Cdotaccent.sc" horiz-adv-x="599"
                   d="M260 708q0 27 18.5 45t47.5 18q27 0 46.5 -18t19.5 -45q0 -29 -19 -46.5t-47 -17.5q-29 0 -47.5 17.5t-18.5 46.5zM467 188l102 -71q-39 -60 -101.5 -93.5t-138.5 -33.5q-121 0 -203 84.5t-82 204.5q0 122 82 207t203 85q152 0 238 -124l-103 -70q-49 75 -135 75
q-68 0 -113 -50t-45 -123q0 -71 45.5 -120.5t112.5 -49.5q87 0 138 79z"/>
            <glyph glyph-name="Ccaron.sc" horiz-adv-x="599"
                   d="M257 760l62 -70l63 70h89l-94 -142h-116l-93 142h89zM467 188l102 -71q-39 -60 -101.5 -93.5t-138.5 -33.5q-121 0 -203 84.5t-82 204.5q0 122 82 207t203 85q152 0 238 -124l-103 -70q-49 75 -135 75q-68 0 -113 -50t-45 -123q0 -71 45.5 -120.5t112.5 -49.5
q87 0 138 79z"/>
            <glyph glyph-name="Dcaron.sc" horiz-adv-x="608"
                   d="M303 0h-225v570h225q119 0 188.5 -80.5t69.5 -206.5q0 -124 -69.5 -203.5t-188.5 -79.5zM208 451v-332h95q61 0 95 47.5t34 116.5q0 72 -34 120t-95 48h-95zM231 760l63 -70q1 1 26.5 28.5t37.5 41.5h89l-94 -142h-118l-92 142h88z"/>
            <glyph glyph-name="Aogonek.sc"
                   d="M484 0l-25 -80q-7 -24 11 -31q8 -4 17 0t11 14t2 14v9l67 3q2 -49 -24.5 -78t-62.5 -29q-38 0 -64 25.5t-26 61.5q0 24 8 41q1 1 13 22.5t16 30.5l-48 129h-189q-2 -5 -8 -21.5l-16 -44t-26 -66.5h-133l210 566h134l210 -566h-77zM284 423l-53 -181h108z"/>
            <glyph glyph-name="Emacron.sc" horiz-adv-x="499"
                   d="M78 566h361v-112h-236v-120h207v-110h-207v-112h243v-112h-368v566zM129 734h232v-75h-232v75z"/>
            <glyph glyph-name="Ebreve.sc" horiz-adv-x="499"
                   d="M133 746h75q0 -42 38 -42q35 0 35 42h77q0 -51 -30.5 -81t-81.5 -30q-54 0 -83.5 32.5t-29.5 78.5zM78 566h361v-112h-236v-120h207v-110h-207v-112h243v-112h-368v566z"/>
            <glyph glyph-name="Edotaccent.sc" horiz-adv-x="499"
                   d="M187 708q0 27 19 45t48 18q27 0 46 -18t19 -45q0 -29 -18.5 -46.5t-46.5 -17.5q-30 0 -48.5 17.5t-18.5 46.5zM78 566h361v-112h-236v-120h207v-110h-207v-112h243v-112h-368v566z"/>
            <glyph glyph-name="Ecaron.sc" horiz-adv-x="499"
                   d="M182 760l64 -70l63 70h88l-93 -142h-118l-91 142h87zM78 566h361v-112h-236v-120h207v-110h-207v-112h243v-112h-368v566z"/>
            <glyph glyph-name="Gcircumflex.sc" horiz-adv-x="641"
                   d="M386 622l-63 70l-62 -70h-89l93 143h116l94 -143h-89zM549 476l-91 -79q-53 56 -124 56q-69 0 -116.5 -51t-47.5 -123q0 -70 48 -121.5t116 -51.5q47 0 88 25t43 64h-150v103h295q0 -154 -74 -231t-202 -77q-122 0 -206 84.5t-84 204.5q0 122 84 207t206 85
q133 0 215 -95z"/>
            <glyph glyph-name="Gbreve.sc" horiz-adv-x="641"
                   d="M549 476l-91 -79q-53 56 -124 56q-69 0 -116.5 -51t-47.5 -123q0 -70 48 -121.5t116 -51.5q47 0 88 25t43 64h-150v103h295q0 -154 -74 -231t-202 -77q-122 0 -206 84.5t-84 204.5q0 122 84 207t206 85q133 0 215 -95zM211 746h75q0 -42 37 -42q36 0 36 42h77
q0 -51 -31 -81t-82 -30q-54 0 -83 32.5t-29 78.5z"/>
            <glyph glyph-name="Eogonek.sc" horiz-adv-x="499"
                   d="M383 0h-305v566h361v-112h-236v-120h207v-110h-207v-112h243v-110l-32 -82q-7 -24 11 -31q8 -4 17 0t11 14t2 14v9l67 3q2 -49 -24.5 -78t-62.5 -29q-38 0 -64 25.5t-26 61.5q0 24 8 41z"/>
            <glyph glyph-name="Dcroat.sc" horiz-adv-x="613"
                   d="M310 0h-223v234h-76v79h76v253h223q119 0 187.5 -80t68.5 -205q0 -123 -68.5 -202t-187.5 -79zM213 313h99v-79h-99v-119h97q62 0 96 48t34 118q0 73 -34 121.5t-96 48.5h-97v-138z"/>
            <glyph glyph-name="Gdotaccent.sc" horiz-adv-x="641"
                   d="M458 397h-4q-46 56 -120 56q-69 0 -116.5 -51t-47.5 -123q0 -70 48 -121.5t116 -51.5q47 0 88 25t43 64h-150v103h295q0 -154 -74 -231t-202 -77q-122 0 -206 84.5t-84 204.5q0 122 84 207t206 85q133 0 215 -95zM266 708q0 27 18.5 45t47.5 18q27 0 46.5 -18t19.5 -45
q0 -29 -19 -46.5t-47 -17.5q-29 0 -47.5 17.5t-18.5 46.5z"/>
            <glyph glyph-name="Hcircumflex.sc" horiz-adv-x="600"
                   d="M522 566v-566h-127v225h-192v-225h-125v566h125v-228h192v228h127zM363 622l-63 70l-63 -70h-88l92 143h117l93 -143h-88z"/>
            <glyph glyph-name="Hbar.sc" horiz-adv-x="611"
                   d="M528 486h59v-65h-59v-421h-127v225h-192v-225h-126v421h-58v65h58v80h126v-80h192v80h127v-80zM209 338h192v83h-192v-83z"/>
            <glyph glyph-name="Itilde.sc" horiz-adv-x="269"
                   d="M191 -8h-113v582h113v-582zM99 673q-3 0 -6.5 -3t-7 -11.5t-3.5 -19.5h-68q2 57 28 84t57 27q15 0 37 -16.5t34 -16.5q3 0 6.5 2.5t7.5 10.5t4 20h67q-2 -58 -27.5 -84t-57.5 -26q-15 0 -36.5 16.5t-34.5 16.5z"/>
            <glyph glyph-name="Imacron.sc" horiz-adv-x="281"
                   d="M25 734h232v-75h-232v75zM203 566v-566h-125v566h125z"/>
            <glyph glyph-name="Iogonek.sc" horiz-adv-x="281"
                   d="M78 4v562h125v-566h-63l-30 -80q-7 -24 11 -31q8 -4 17 0t11 14t2 14v9l67 3q2 -49 -24.5 -78t-62.5 -29q-38 0 -64 25.5t-26 61.5q0 24 8 41z"/>
            <glyph glyph-name="IJ.sc" horiz-adv-x="563"
                   d="M203 566v-566h-125v566h125zM212 -177l11 114q34 -10 75 -10q31 0 46 20.5t15 53.5v565h126v-565q0 -86 -45 -139.5t-142 -53.5q-31 0 -86 15z"/>
            <glyph glyph-name="Jcircumflex.sc" horiz-adv-x="270"
                   d="M198 622l-63 70l-63 -70h-88l92 143h117l94 -143h-89zM-68 -173l11 101q20 -7 69 -7q33 0 49.5 22t16.5 58v559h114v-559q0 -83 -43.5 -135t-136.5 -52q-26 0 -80 13z"/>
            <glyph glyph-name="Lacute.sc" horiz-adv-x="428"
                   d="M291 761l-126 -142h-88l92 142h122zM78 566h126v-454h209v-112h-335v566z"/>
            <glyph glyph-name="Lcaron.sc" horiz-adv-x="442"
                   d="M326 347l-75 24q42 57 58 132q6 29 6 64h100q-6 -76 -32 -134.5t-57 -85.5zM78 566h126v-454h209v-112h-335v566z"/>
            <glyph glyph-name="Ldot.sc" horiz-adv-x="429"
                   d="M78 566h126v-454h209v-112h-335v566zM261 254q0 24 17.5 40.5t43.5 16.5q25 0 42.5 -16.5t17.5 -40.5q0 -26 -17.5 -42.5t-42.5 -16.5q-26 0 -43.5 16.5t-17.5 42.5z"/>
            <glyph glyph-name="Nacute.sc" horiz-adv-x="582"
                   d="M450 761l-126 -142h-88l94 142h120zM504 0h-111l-190 329v-329h-125v566h114l186 -324v324h126v-566z"/>
            <glyph glyph-name="Ncaron.sc" horiz-adv-x="582"
                   d="M504 0h-111l-190 329v-329h-125v566h114l186 -324v324h126v-566zM221 760l64 -70l63 70h88l-93 -142h-118l-91 142h87z"/>
            <glyph glyph-name="Omacron.sc" horiz-adv-x="662"
                   d="M214 734h232v-75h-232v75zM44 279q0 122 83 207t203 85q122 0 205 -85t83 -207q0 -120 -83.5 -204.5t-204.5 -84.5q-120 0 -203 84.5t-83 204.5zM169 279q0 -68 46.5 -116t114.5 -48q69 0 116 48t47 116q0 69 -47 118t-116 49q-68 0 -114.5 -49t-46.5 -118z"/>
            <glyph glyph-name="Obreve.sc" horiz-adv-x="662"
                   d="M218 746h75q0 -42 37 -42q36 0 36 42h77q0 -51 -31 -81t-82 -30q-54 0 -83 32.5t-29 78.5zM44 279q0 122 83 207t203 85q122 0 205 -85t83 -207q0 -120 -83.5 -204.5t-204.5 -84.5q-120 0 -203 84.5t-83 204.5zM169 279q0 -68 46.5 -116t114.5 -48q69 0 116 48t47 116
q0 69 -47 118t-116 49q-68 0 -114.5 -49t-46.5 -118z"/>
            <glyph glyph-name="Ohungarumlaut.sc" horiz-adv-x="662"
                   d="M450 760h100l-112 -142h-93zM319 760h99l-104 -142h-89zM44 279q0 122 83 207t203 85q122 0 205 -85t83 -207q0 -120 -83.5 -204.5t-204.5 -84.5q-120 0 -203 84.5t-83 204.5zM169 279q0 -68 46.5 -116t114.5 -48q69 0 116 48t47 116q0 69 -47 118t-116 49
q-68 0 -114.5 -49t-46.5 -118z"/>
            <glyph glyph-name="Racute.sc" horiz-adv-x="550"
                   d="M412 761l-126 -142h-89l94 142h121zM362 199l141 -199h-153l-125 194h-21v-194h-126v566h233q90 0 140 -55.5t50 -131.5q0 -63 -36 -113t-103 -67zM305 454h-101v-150h97q31 0 49.5 23t18.5 52t-17 52t-47 23z"/>
            <glyph glyph-name="Rcaron.sc" horiz-adv-x="550"
                   d="M208 760l62 -70l64 70h89l-93 -142h-118l-93 142h89zM362 199l141 -199h-153l-125 194h-21v-194h-126v566h233q90 0 140 -55.5t50 -131.5q0 -63 -36 -113t-103 -67zM305 454h-101v-150h97q31 0 49.5 23t18.5 52t-17 52t-47 23z"/>
            <glyph glyph-name="Sacute.sc" horiz-adv-x="500"
                   d="M406 761l-125 -142h-89l94 142h120zM46 169h126q2 -29 23 -47.5t57 -18.5t57 14.5t22 40.5q0 21 -13 35.5t-52 24.5l-68 20q-146 43 -146 163q0 77 56 124t139 47q85 0 139 -48t54 -130h-125q0 28 -18 45.5t-50 17.5q-30 0 -50 -14.5t-20 -37.5q0 -37 58 -55l67 -20
q156 -46 156 -172q0 -81 -61.5 -124.5t-144.5 -43.5q-93 0 -149.5 50t-56.5 129z"/>
            <glyph glyph-name="Scircumflex.sc" horiz-adv-x="500"
                   d="M316 622l-64 70l-63 -70h-88l92 143h118l92 -143h-87zM46 169h126q2 -29 23 -47.5t57 -18.5t57 14.5t22 40.5q0 21 -13 35.5t-52 24.5l-68 20q-146 43 -146 163q0 77 56 124t139 47q85 0 139 -48t54 -130h-125q0 28 -18 45.5t-50 17.5q-30 0 -50 -14.5t-20 -37.5
q0 -37 58 -55l67 -20q156 -46 156 -172q0 -81 -61.5 -124.5t-144.5 -43.5q-93 0 -149.5 50t-56.5 129z"/>
            <glyph glyph-name="Scedilla.sc" horiz-adv-x="499"
                   d="M289 -7q4 -9 13 -24.5t11 -18.5q8 -17 8 -41q0 -36 -26 -61.5t-64 -25.5q-36 0 -62.5 29t-24.5 78l67 -3v-9q0 -4 2 -14t11 -14t17 0q18 7 11 31l-27 72q-81 8 -129.5 56.5t-48.5 121.5h125q1 -28 22 -47.5t58 -19.5q36 0 57 14.5t22 40.5q1 20 -13 35t-52 25l-67 19
q-146 43 -146 164q0 74 56 122t138 48q84 0 138 -47.5t54 -129.5h-124q0 28 -18 45t-51 17q-30 0 -50 -14.5t-20 -37.5q0 -39 59 -54l66 -21q86 -27 122 -75t33 -96q0 -72 -48.5 -114t-118.5 -51z"/>
            <glyph glyph-name="Utilde.sc" horiz-adv-x="584"
                   d="M293 109q38 0 65.5 25.5t27.5 66.5v365h126v-365q0 -93 -64.5 -152t-154.5 -59q-91 0 -156 59t-65 152v365h128v-365q0 -41 27.5 -66.5t65.5 -25.5zM257 673q-3 0 -6.5 -3t-7 -11.5t-3.5 -19.5h-68q2 57 28 84t57 27q15 0 37 -16.5t34 -16.5q3 0 6.5 2.5t7.5 10.5t4 20
h67q-2 -58 -27.5 -84t-57.5 -26q-15 0 -36.5 16.5t-34.5 16.5z"/>
            <glyph glyph-name="Umacron.sc" horiz-adv-x="584"
                   d="M176 734h233v-75h-233v75zM293 109q38 0 65.5 25.5t27.5 66.5v365h126v-365q0 -93 -64.5 -152t-154.5 -59q-91 0 -156 59t-65 152v365h128v-365q0 -41 27.5 -66.5t65.5 -25.5z"/>
            <glyph glyph-name="Ubreve.sc" horiz-adv-x="584"
                   d="M180 746h75q0 -42 36 -42q37 0 37 42h77q0 -51 -31.5 -81t-82.5 -30q-54 0 -82.5 32.5t-28.5 78.5zM293 109q38 0 65.5 25.5t27.5 66.5v365h126v-365q0 -93 -64.5 -152t-154.5 -59q-91 0 -156 59t-65 152v365h128v-365q0 -41 27.5 -66.5t65.5 -25.5z"/>
            <glyph glyph-name="Uring.sc" horiz-adv-x="584"
                   d="M191 720q0 44 28.5 73.5t71.5 29.5q44 0 73.5 -29.5t29.5 -73.5q0 -43 -29.5 -72t-73.5 -29q-42 0 -71 29.5t-29 71.5zM250 720q0 -18 12 -30t29 -12q19 0 31.5 12t12.5 30t-12.5 31t-31.5 13q-17 0 -29 -13t-12 -31zM293 109q38 0 65.5 25.5t27.5 66.5v365h126v-365
q0 -93 -64.5 -152t-154.5 -59q-91 0 -156 59t-65 152v365h128v-365q0 -41 27.5 -66.5t65.5 -25.5z"/>
            <glyph glyph-name="Uhungarumlaut.sc" horiz-adv-x="584"
                   d="M293 109q38 0 65.5 25.5t27.5 66.5v365h126v-365q0 -93 -64.5 -152t-154.5 -59q-91 0 -156 59t-65 152v365h128v-365q0 -41 27.5 -66.5t65.5 -25.5zM390 760h100l-112 -142h-93zM259 760h99l-104 -142h-89z"/>
            <glyph glyph-name="Uogonek.sc" horiz-adv-x="584"
                   d="M229 -50l23 46q-77 12 -128.5 68.5t-51.5 138.5v363h128v-363q0 -41 27.5 -66.5t65.5 -25.5t65.5 25.5t27.5 66.5v363h126v-363q0 -87 -56 -144t-139 -66l-27 -73q-7 -24 11 -31q8 -4 17 0t11 14t2 14v9l67 3q2 -49 -24.5 -78t-62.5 -29q-38 0 -64 25.5t-26 61.5
q0 24 8 41z"/>
            <glyph glyph-name="Wcircumflex.sc" horiz-adv-x="759"
                   d="M443 622l-63 70l-64 -70h-87l92 143h117l94 -143h-89zM610 566h136l-193 -566h-98l-76 284l-75 -284h-99l-191 566h136l106 -343l72 264h103l71 -263z"/>
            <glyph glyph-name="Ycircumflex.sc" horiz-adv-x="575"
                   d="M350 622l-63 70l-63 -70h-88l92 143h117l93 -143h-88zM351 0h-128v256l-219 310h150l133 -206l133 206h152l-221 -311v-255z"/>
            <glyph glyph-name="Tcaron.sc" horiz-adv-x="490"
                   d="M20 452v114h450v-114h-159v-452h-132v452h-159zM182 760l64 -70l63 70h88l-93 -142h-118l-91 142h87z"/>
            <glyph glyph-name="Tbar.sc" horiz-adv-x="471"
                   d="M95 244v75h78v132h-151v113h427v-113h-150v-132h77v-75h-77v-244h-126v244h-78z"/>
            <glyph glyph-name="Zacute.sc" horiz-adv-x="516"
                   d="M47 95l254 360h-243v111h406v-94l-255 -360h255v-112h-417v95zM408 761l-127 -142h-88l94 142h121z"/>
            <glyph glyph-name="Zdotaccent.sc" horiz-adv-x="516"
                   d="M47 95l254 360h-243v111h406v-94l-255 -360h255v-112h-417v95zM203 708q0 27 19 45t47 18t47 -18t19 -45q0 -29 -19 -46.5t-47 -17.5t-47 17.5t-19 46.5z"/>
            <glyph glyph-name="Wgrave.sc" horiz-adv-x="759"
                   d="M349 619l-125 142h120l94 -142h-89zM610 566h136l-193 -566h-98l-76 284l-75 -284h-99l-191 566h136l106 -343l72 264h103l71 -263z"/>
            <glyph glyph-name="Wacute.sc" horiz-adv-x="759"
                   d="M535 761l-126 -142h-89l94 142h121zM610 566h136l-193 -566h-98l-76 284l-75 -284h-99l-191 566h136l106 -343l72 264h103l71 -263z"/>
            <glyph glyph-name="Wdieresis.sc" horiz-adv-x="759"
                   d="M246 703q0 25 18.5 41.5t44.5 16.5q25 0 43 -17t18 -41q0 -26 -18 -42.5t-43 -16.5q-27 0 -45 16.5t-18 42.5zM390 703q0 25 18.5 41.5t44.5 16.5q25 0 43 -17t18 -41q0 -26 -18 -42.5t-43 -16.5q-27 0 -45 16.5t-18 42.5zM610 566h136l-193 -566h-98l-76 284l-75 -284
h-99l-191 566h136l106 -343l72 264h103l71 -263z"/>
            <glyph glyph-name="Aringacute.sc"
                   d="M440 911l-99 -112q46 -32 46 -87q0 -42 -30 -71.5t-74 -29.5q-51 0 -81 43q-19 25 -19 58q0 34 21 61t52 39l65 99h119zM243 712q0 -17 12 -29.5t29 -12.5q19 0 31.5 12.5t12.5 29.5q0 20 -12.5 32t-31.5 12q-18 0 -29.5 -12t-11.5 -32zM379 132h-189l-50 -132h-133
l210 566h134l210 -566h-133zM338 242l-55 182l-52 -182h107z"/>
            <glyph glyph-name="AEacute.sc" horiz-adv-x="796"
                   d="M592 761l-127 -142h-87l93 142h121zM229 128l-81 -128h-151l358 566h380v-111h-235v-121h206v-110h-206v-112h243v-112h-369v128h-145zM301 250h73v140z"/>
            <glyph glyph-name="Oslashacute.sc" horiz-adv-x="661"
                   d="M500 761l-127 -142h-87l93 142h121zM152 51l-66 -67l-42 42l65 67q-66 82 -66 186q0 122 83 207t203 85q104 0 182 -66l64 67l42 -42l-65 -66q65 -81 65 -185q0 -120 -83.5 -204.5t-204.5 -84.5q-96 0 -177 61zM168 279q0 -55 29 -96l226 233q-43 30 -94 30
q-68 0 -114.5 -49t-46.5 -118zM329 115q69 0 116 48t47 116q0 56 -29 94l-224 -232q38 -26 90 -26z"/>
            <glyph glyph-name="Ibreve.sc" horiz-adv-x="281"
                   d="M203 566v-566h-125v566h125zM25 746h75q0 -42 37 -42q36 0 36 42h77q0 -51 -31 -81t-82 -30q-54 0 -83 32.5t-29 78.5z"/>
            <glyph glyph-name="Eng.sc" horiz-adv-x="583"
                   d="M379 15l-175 314v-329h-126v566h115l185 -333v333h127v-552q0 -87 -45 -142t-140 -55q-29 0 -87 15l13 122q38 -12 76 -12q51 4 57 73z"/>
            <glyph glyph-name="Ygrave.sc" horiz-adv-x="575"
                   d="M265 619l-125 142h121l93 -142h-89zM351 0h-128v256l-219 310h150l133 -206l133 206h152l-221 -311v-255z"/>
            <glyph glyph-name="Gcommaaccent.sc" horiz-adv-x="641"
                   d="M549 476l-91 -79q-53 56 -124 56q-69 0 -116.5 -51t-47.5 -123q0 -70 48 -121.5t116 -51.5q47 0 88 25t43 64h-150v103h295q0 -154 -74 -231t-202 -77q-122 0 -206 84.5t-84 204.5q0 122 84 207t206 85q133 0 215 -95zM310 -222l-51 28q22 30 28 63t6 92h90
q0 -116 -73 -183z"/>
            <glyph glyph-name="Kcommaaccent.sc" horiz-adv-x="528"
                   d="M267 286l265 -286h-164l-163 185v-185h-127v566h127v-175l128 175h148zM260 -222l-51 28q22 30 28 63t6 92h90q0 -116 -73 -183z"/>
            <glyph glyph-name="Lcommaaccent.sc" horiz-adv-x="428"
                   d="M78 566h126v-454h209v-112h-335v566zM209 -222l-51 28q22 30 28 63t6 92h90q0 -116 -73 -183z"/>
            <glyph glyph-name="Ncommaaccent.sc" horiz-adv-x="582"
                   d="M504 0h-111l-190 324v-324h-125v566h114l186 -319v319h126v-566zM271 -222l-51 28q22 30 28 63t6 92h90q0 -116 -73 -183z"/>
            <glyph glyph-name="Rcommaaccent.sc" horiz-adv-x="550"
                   d="M362 199l141 -199h-153l-125 194h-21v-194h-126v566h233q90 0 140 -55.5t50 -131.5q0 -63 -36 -113t-103 -67zM305 454h-101v-150h97q31 0 49.5 23t18.5 52t-17 52t-47 23zM260 -222l-51 28q22 30 28 63t6 92h90q0 -116 -73 -183z"/>
            <glyph glyph-name="Tcommaaccent.sc" horiz-adv-x="471"
                   d="M21 566h429v-114h-150v-452h-128v452h-151v114zM205 -222l-51 28q22 30 28 63t6 92h90q0 -116 -73 -183z"/>
            <glyph glyph-name="Scommaaccent.sc" horiz-adv-x="500"
                   d="M46 169h126q2 -29 23 -47.5t57 -18.5t57 14.5t22 40.5q0 21 -13 35.5t-52 24.5l-68 20q-146 43 -146 163q0 77 56 124t139 47q85 0 139 -48t54 -130h-125q0 28 -18 45.5t-50 17.5q-30 0 -50 -14.5t-20 -37.5q0 -37 58 -55l67 -20q156 -46 156 -172q0 -81 -61.5 -124.5
t-144.5 -43.5q-93 0 -149.5 50t-56.5 129zM226 -222l-51 28q22 30 28 63t6 92h90q0 -116 -73 -183z"/>
            <glyph glyph-name="Idotaccent.sc" horiz-adv-x="281"
                   d="M203 566v-566h-125v566h125zM66 699q0 30 21.5 50t51.5 20t51.5 -20t21.5 -50t-21.5 -50.5t-51.5 -20.5t-51.5 20.5t-21.5 50.5z"/>
            <glyph glyph-name="zero.numr" horiz-adv-x="351"
                   d="M34 465q0 197 142 197q141 0 141 -197q0 -196 -141 -196q-142 0 -142 196zM114 465q0 -118 62 -118q61 0 61 118q0 119 -61 119q-62 0 -62 -119z"/>
            <glyph glyph-name="one.numr" horiz-adv-x="216"
                   d="M86 548l-65 -27v70l145 69v-385h-80v273z"/>
            <glyph glyph-name="two.numr" horiz-adv-x="318"
                   d="M30 318l156 185q20 23 20 44q0 16 -13 27t-35 11t-36.5 -14.5t-17.5 -38.5l-74 13q9 54 44 85.5t89 31.5q51 0 87.5 -32.5t36.5 -82.5q0 -49 -40 -96q-65 -73 -88 -100h118v-76h-247v43z"/>
            <glyph glyph-name="three.numr" horiz-adv-x="317"
                   d="M104 566l-32 20l-32 20q18 28 49 43t69 13q49 -4 81.5 -35t30.5 -71q0 -48 -49 -75q31 -12 49 -41.5t16 -61.5q-4 -48 -48 -80t-101 -28q-39 3 -72 25t-49 55l11 5l24 12l35 18q18 -32 57 -37q21 -2 37 11t18 29q0 22 -3 29q-13 24 -49 23h-40v69h40q38 0 38 42
q0 13 -10.5 25t-28.5 12q-26 0 -41 -22z"/>
            <glyph glyph-name="four.numr" horiz-adv-x="345"
                   d="M272 360v-85h-81v85h-182l179 295h84v-227h48v-68h-48zM119 428h72v119z"/>
            <glyph glyph-name="five.numr" horiz-adv-x="341"
                   d="M92 389q26 -40 66 -40q33 0 54.5 17.5t21.5 42.5q0 31 -19.5 46.5t-50.5 15.5q-57 0 -84 -41l-44 23l31 202h222v-74h-158l-11 -63q21 20 70 20q54 0 89 -34t35 -95q0 -62 -42.5 -101t-113.5 -39q-39 0 -75.5 21.5t-58.5 55.5l17 11q17 11 34 21z"/>
            <glyph glyph-name="six.numr" horiz-adv-x="339"
                   d="M125 396q0 -21 14.5 -35.5t35.5 -14.5t36 14.5t15 35.5t-15 36t-36 15t-35.5 -15t-14.5 -36zM305 589l-75 -32q-14 30 -44 30q-39 0 -56 -32.5t-14 -77.5q5 13 26 28t50 15q46 0 81.5 -33.5t35.5 -94.5q0 -55 -38 -89t-100 -34q-55 0 -92.5 36t-42.5 96q-8 83 6 136
q28 129 147 125q85 -6 116 -73z"/>
            <glyph glyph-name="seven.numr" horiz-adv-x="314"
                   d="M309 655l-169 -380h-91l135 306h-161v74h286z"/>
            <glyph glyph-name="eight.numr" horiz-adv-x="346"
                   d="M134 554q0 -16 10 -26.5t29 -10.5t29 10.5t10 26.5q0 15 -10.5 25.5t-28.5 10.5t-28.5 -10.5t-10.5 -25.5zM109 402q0 -24 19 -41t45 -17t45 17t19 41q0 22 -17.5 39t-40.5 17h-13q-24 0 -40.5 -17t-16.5 -39zM56 556q0 44 34.5 75t82.5 31t82.5 -31t34.5 -75
q0 -41 -28 -63q55 -33 55 -93q0 -54 -42.5 -92.5t-101.5 -38.5t-101.5 38.5t-42.5 92.5q0 60 55 93q-28 26 -28 63z"/>
            <glyph glyph-name="nine.numr" horiz-adv-x="339"
                   d="M214 535q0 21 -14.5 36t-35.5 15t-36 -15t-15 -36t15 -35.5t36 -14.5t35.5 14.5t14.5 35.5zM34 343l75 32q15 -31 44 -31q39 0 56 33t14 78q-6 -14 -26.5 -28.5t-49.5 -14.5q-46 0 -81.5 33.5t-35.5 94.5q0 55 38 88.5t100 33.5q55 0 93 -36t43 -96q1 -36 0.5 -72.5
t-10.5 -71t-26 -61.5t-46.5 -42t-71.5 -14q-40 3 -69 18.5t-47 55.5z"/>
            <glyph glyph-name="zero.dnom" horiz-adv-x="351"
                   d="M34 190q0 197 142 197q141 0 141 -197q0 -196 -141 -196q-142 0 -142 196zM114 190q0 -118 62 -118q61 0 61 118q0 119 -61 119q-62 0 -62 -119z"/>
            <glyph glyph-name="one.dnom" horiz-adv-x="216"
                   d="M86 273l-65 -27v70l145 69v-385h-80v273z"/>
            <glyph glyph-name="two.dnom" horiz-adv-x="318"
                   d="M30 43l156 185q20 23 20 44q0 16 -13 27t-35 11t-36.5 -14.5t-17.5 -38.5l-74 13q9 54 44 85.5t89 31.5q51 0 87.5 -32.5t36.5 -82.5q0 -49 -40 -96q-65 -73 -88 -100h118v-76h-247v43z"/>
            <glyph glyph-name="three.dnom" horiz-adv-x="318"
                   d="M105 291l-32 20l-32 20q18 28 49 43t69 13q49 -4 81.5 -35t30.5 -71q0 -48 -49 -75q31 -12 49 -41.5t16 -61.5q-4 -48 -48 -80t-101 -28q-39 3 -72 25t-49 55l11 5l24 12l35 18q18 -32 57 -37q21 -2 37 11t18 29q0 22 -3 29q-13 24 -49 23h-40v69h40q38 0 38 42
q0 13 -10.5 25t-28.5 12q-26 0 -41 -22z"/>
            <glyph glyph-name="four.dnom" horiz-adv-x="344"
                   d="M272 85v-85h-81v85h-182l179 295h84v-227h48v-68h-48zM119 153h72v119z"/>
            <glyph glyph-name="five.dnom" horiz-adv-x="340"
                   d="M91 114q26 -40 66 -40q33 0 54.5 17.5t21.5 42.5q0 31 -19.5 46.5t-50.5 15.5q-57 0 -84 -41l-44 23l31 202h222v-74h-158l-11 -63q21 20 70 20q54 0 89 -34t35 -95q0 -62 -42.5 -101t-113.5 -39q-39 0 -75.5 21.5t-58.5 55.5l17 11q17 10 34 21z"/>
            <glyph glyph-name="six.dnom" horiz-adv-x="339"
                   d="M125 121q0 -21 14.5 -35.5t35.5 -14.5t36 14.5t15 35.5t-15 36t-36 15t-35.5 -15t-14.5 -36zM305 314l-75 -32q-14 30 -44 30q-39 0 -56 -32.5t-14 -77.5q5 13 26 28t50 15q46 0 81.5 -33.5t35.5 -94.5q0 -55 -38 -89t-100 -34q-55 0 -92.5 36t-42.5 96q-8 83 6 136
q28 129 147 125q85 -6 116 -73z"/>
            <glyph glyph-name="seven.dnom" horiz-adv-x="315"
                   d="M309 380l-169 -380h-91l135 306h-161v74h286z"/>
            <glyph glyph-name="eight.dnom" horiz-adv-x="346"
                   d="M134 279q0 -16 10 -26.5t29 -10.5t29 10.5t10 26.5q0 15 -10.5 25.5t-28.5 10.5t-28.5 -10.5t-10.5 -25.5zM109 127q0 -24 19 -41t45 -17t45 17t19 41q0 22 -17.5 39t-40.5 17h-13q-24 0 -40.5 -17t-16.5 -39zM56 281q0 44 34.5 75t82.5 31t82.5 -31t34.5 -75
q0 -41 -28 -63q55 -33 55 -93q0 -54 -42.5 -92.5t-101.5 -38.5t-101.5 38.5t-42.5 92.5q0 60 55 93q-28 26 -28 63z"/>
            <glyph glyph-name="nine.dnom" horiz-adv-x="340"
                   d="M214 260q0 21 -14.5 36t-35.5 15t-36 -15t-15 -36t15 -35.5t36 -14.5t35.5 14.5t14.5 35.5zM34 68l75 32q15 -31 44 -31q39 0 56 33t14 78q-6 -14 -26.5 -28.5t-49.5 -14.5q-46 0 -81.5 33.5t-35.5 94.5q0 55 38 88.5t100 33.5q55 0 93 -36t43 -96q1 -36 0.5 -72.5
t-10.5 -71t-26 -61.5t-46.5 -42t-71.5 -14q-40 3 -69 18.5t-47 55.5z"/>
            <glyph glyph-name="l.alt1" horiz-adv-x="316"
                   d="M311 126v-126h-75q-95 0 -136 52.5t-41 150.5v518h140v-521q0 -74 61 -74h51z"/>
            <glyph glyph-name="a.alt1" horiz-adv-x="539"
                   d="M232 95q88 0 110 69q-30 27 -90 27q-41 0 -60 -14t-19 -35q0 -20 15.5 -33.5t43.5 -13.5zM132 311l-74 78q29 40 73.5 61.5t70 24t61.5 2.5q94 0 156 -50t62 -150v-277h-138v47q-49 -57 -135 -57q-80 0 -128.5 42t-48.5 109q0 61 48 99t152 38q69 0 112 -25
q0 104 -96 104q-69 0 -115 -46z"/>
            <glyph glyph-name="y.alt1" horiz-adv-x="509"
                   d="M152 -30l30 70l-176 427h147l103 -263l103 263h148l-230 -550q-35 -82 -77 -116t-115 -34q-31 0 -66 12v121q35 -7 54 -7q17 0 29 5t21.5 17.5t14.5 22.5t14 32z"/>
            <glyph glyph-name="lslash.alt1" horiz-adv-x="345"
                   d="M338 126v-126h-75q-95 0 -136 52.5t-41 150.5v75l-77 -48v95l77 48v348h140v-261l95 60v-95l-95 -60v-165q0 -74 61 -74h51z"/>
            <glyph glyph-name="lacute.alt1" horiz-adv-x="316"
                   d="M170 939h138l-148 -168h-100zM311 126v-126h-75q-95 0 -136 52.5t-41 150.5v518h140v-521q0 -74 61 -74h51z"/>
            <glyph glyph-name="lcommaaccent.alt1" horiz-adv-x="316"
                   d="M182 -287l-68 35q32 44 45 87t13 109h117q-13 -153 -107 -231zM311 126v-126h-75q-95 0 -136 52.5t-41 150.5v518h140v-521q0 -74 61 -74h51z"/>
            <glyph glyph-name="lcaron.alt1" horiz-adv-x="321"
                   d="M313 460l-84 29q75 105 74 232h117q-8 -91 -38.5 -160t-68.5 -101zM311 126v-126h-75q-95 0 -136 52.5t-41 150.5v518h140v-521q0 -74 61 -74h51z"/>
            <glyph glyph-name="aacute.alt1" horiz-adv-x="539"
                   d="M297 707h138l-148 -168h-100zM232 95q88 0 110 69q-30 27 -90 27q-41 0 -60 -14t-19 -35q0 -20 15.5 -33.5t43.5 -13.5zM132 311l-74 78q29 40 73.5 61.5t70 24t61.5 2.5q94 0 156 -50t62 -150v-277h-138v47q-49 -57 -135 -57q-80 0 -128.5 42t-48.5 109q0 61 48 99
t152 38q69 0 112 -25q0 104 -96 104q-69 0 -115 -46z"/>
            <glyph glyph-name="agrave.alt1" horiz-adv-x="539"
                   d="M70 707h138l110 -168h-100zM232 95q88 0 110 69q-30 27 -90 27q-41 0 -60 -14t-19 -35q0 -20 15.5 -33.5t43.5 -13.5zM132 311l-74 78q29 40 73.5 61.5t70 24t61.5 2.5q94 0 156 -50t62 -150v-277h-138v47q-49 -57 -135 -57q-80 0 -128.5 42t-48.5 109q0 61 48 99t152 38
q69 0 112 -25q0 104 -96 104q-69 0 -115 -46z"/>
            <glyph glyph-name="acircumflex.alt1" horiz-adv-x="539"
                   d="M192 711h138l110 -168h-100l-79 89l-78 -89h-100zM232 95q88 0 110 69q-30 27 -90 27q-41 0 -60 -14t-19 -35q0 -20 15.5 -33.5t43.5 -13.5zM132 311l-74 78q29 40 73.5 61.5t70 24t61.5 2.5q94 0 156 -50t62 -150v-277h-138v47q-49 -57 -135 -57q-80 0 -128.5 42
t-48.5 109q0 61 48 99t152 38q69 0 112 -25q0 104 -96 104q-69 0 -115 -46z"/>
            <glyph glyph-name="adieresis.alt1" horiz-adv-x="539"
                   d="M103 638q0 29 21.5 48.5t51.5 19.5t50.5 -19.5t20.5 -48.5t-21 -49t-50 -20q-30 0 -51.5 20t-21.5 49zM280 638q0 29 21.5 48.5t51.5 19.5t50.5 -19.5t20.5 -48.5t-21 -49t-50 -20q-30 0 -51.5 20t-21.5 49zM232 95q88 0 110 69q-30 27 -90 27q-41 0 -60 -14t-19 -35
q0 -20 15.5 -33.5t43.5 -13.5zM132 311l-74 78q29 40 73.5 61.5t70 24t61.5 2.5q94 0 156 -50t62 -150v-277h-138v47q-49 -57 -135 -57q-80 0 -128.5 42t-48.5 109q0 61 48 99t152 38q69 0 112 -25q0 104 -96 104q-69 0 -115 -46z"/>
            <glyph glyph-name="atilde.alt1" horiz-adv-x="539"
                   d="M207 606q-8 0 -16.5 -11t-9.5 -32h-75q3 68 33 99t68 31q23 0 50 -20.5t37 -20.5q8 0 16.5 10t9.5 31h75q-3 -67 -33.5 -97.5t-67.5 -30.5q-22 0 -49.5 20.5t-37.5 20.5zM232 95q88 0 110 69q-30 27 -90 27q-41 0 -60 -14t-19 -35q0 -20 15.5 -33.5t43.5 -13.5zM132 311
l-74 78q29 40 73.5 61.5t70 24t61.5 2.5q94 0 156 -50t62 -150v-277h-138v47q-49 -57 -135 -57q-80 0 -128.5 42t-48.5 109q0 61 48 99t152 38q69 0 112 -25q0 104 -96 104q-69 0 -115 -46z"/>
            <glyph glyph-name="aring.alt1" horiz-adv-x="539"
                   d="M141 659q0 52 35 87.5t85 35.5q51 0 86.5 -35.5t35.5 -87.5q0 -50 -35.5 -85t-86.5 -35q-50 0 -85 35t-35 85zM206 659q0 -23 16 -39t39 -16q24 0 40.5 16t16.5 39q0 25 -16.5 41.5t-40.5 16.5q-23 0 -39 -16.5t-16 -41.5zM232 95q88 0 110 69q-30 27 -90 27
q-41 0 -60 -14t-19 -35q0 -20 15.5 -33.5t43.5 -13.5zM132 311l-74 78q29 40 73.5 61.5t70 24t61.5 2.5q94 0 156 -50t62 -150v-277h-138v47q-49 -57 -135 -57q-80 0 -128.5 42t-48.5 109q0 61 48 99t152 38q69 0 112 -25q0 104 -96 104q-69 0 -115 -46z"/>
            <glyph glyph-name="amacron.alt1" horiz-adv-x="539"
                   d="M127 587v85h278v-85h-278zM232 95q88 0 110 69q-30 27 -90 27q-41 0 -60 -14t-19 -35q0 -20 15.5 -33.5t43.5 -13.5zM132 311l-74 78q29 40 73.5 61.5t70 24t61.5 2.5q94 0 156 -50t62 -150v-277h-138v47q-49 -57 -135 -57q-80 0 -128.5 42t-48.5 109q0 61 48 99t152 38
q69 0 112 -25q0 104 -96 104q-69 0 -115 -46z"/>
            <glyph glyph-name="abreve.alt1" horiz-adv-x="538"
                   d="M132 689h85q0 -53 49 -53q48 0 48 53h87q0 -60 -37.5 -95.5t-97.5 -35.5q-65 0 -99.5 38t-34.5 93zM231 95q88 0 110 69q-30 27 -90 27q-41 0 -60 -14t-19 -35q0 -20 15.5 -33.5t43.5 -13.5zM131 311l-74 78q29 40 73.5 61.5t70 24t61.5 2.5q94 0 156 -50t62 -150v-277
h-138v47q-49 -57 -135 -57q-80 0 -128.5 42t-48.5 109q0 61 48 99t152 38q69 0 112 -25q0 104 -96 104q-69 0 -115 -46z"/>
            <glyph glyph-name="aogonek.alt1" horiz-adv-x="539"
                   d="M132 311l-74 78q29 40 73.5 61.5t70 24t61.5 2.5q94 0 156 -50t62 -150v-277h-68l-37 -101q-12 -30 15 -42q28 -7 39 19q2 14 2 18q0 5 -1 8l77 4q1 -38 -8 -59q-14 -30 -39.5 -47.5t-55.5 -17.5q-44 0 -75.5 30.5t-31.5 72.5q0 32 10 49l35 66v47q-49 -57 -135 -57
q-80 0 -128.5 42t-48.5 109q0 61 48 99t152 38q69 0 112 -25q0 104 -96 104q-69 0 -115 -46zM232 95q88 0 110 69q-30 27 -90 27q-41 0 -60 -14t-19 -35q0 -20 15.5 -33.5t43.5 -13.5z"/>
            <glyph glyph-name="yacute.alt1" horiz-adv-x="509"
                   d="M305 707h138l-148 -168h-100zM152 -30l30 70l-176 427h147l103 -263l103 263h148l-230 -550q-35 -82 -77 -116t-115 -34q-31 0 -66 12v121q35 -7 54 -7q17 0 29 5t21.5 17.5t14.5 22.5t14 32z"/>
            <glyph glyph-name="ydieresis.alt1" horiz-adv-x="509"
                   d="M100 638q0 29 21.5 48.5t51.5 19.5t50.5 -19.5t20.5 -48.5t-21 -49t-50 -20q-30 0 -51.5 20t-21.5 49zM277 638q0 29 21.5 48.5t51.5 19.5t50.5 -19.5t20.5 -48.5t-21 -49t-50 -20q-30 0 -51.5 20t-21.5 49zM152 -30l30 70l-176 427h147l103 -263l103 263h148l-230 -550
q-35 -82 -77 -116t-115 -34q-31 0 -66 12v121q35 -7 54 -7q17 0 29 5t21.5 17.5t14.5 22.5t14 32z"/>
            <glyph glyph-name="ae.alt1" horiz-adv-x="869"
                   d="M142 310l-85 79q29 40 73.5 61.5t70 24t61.5 2.5q110 0 167 -61q69 61 168 61q102 0 170.5 -66.5t68.5 -175.5q0 -19 -2 -43h-342q5 -40 35.5 -61t79.5 -21q34 0 64 14t44 40l102 -67q-32 -55 -91.5 -81t-128.5 -26q-142 0 -184 75q-51 -75 -206 -75q-80 0 -128.5 42
t-48.5 109q0 62 51 102.5t160 40.5q56 0 101 -27q0 44 -22.5 72t-66.5 28q-72 0 -111 -47zM494 282h202q-5 39 -33.5 56t-64.5 17t-66.5 -16.5t-37.5 -56.5zM231 106q98 0 110 63q-19 12 -50.5 18.5t-49.5 6.5q-69 0 -69 -47q0 -16 15 -28.5t44 -12.5z"/>
            <glyph glyph-name="aeacute.alt1" horiz-adv-x="868"
                   d="M492 707h138l-148 -168h-100zM142 310l-85 79q29 40 73.5 61.5t70 24t61.5 2.5q110 0 167 -61q69 61 168 61q102 0 170.5 -66.5t68.5 -175.5q0 -19 -2 -43h-342q5 -40 35.5 -61t79.5 -21q34 0 64 14t44 40l102 -67q-32 -55 -91.5 -81t-128.5 -26q-142 0 -184 75
q-51 -75 -206 -75q-80 0 -128.5 42t-48.5 109q0 62 51 102.5t160 40.5q56 0 101 -27q0 44 -22.5 72t-66.5 28q-72 0 -111 -47zM494 282h202q-5 39 -33.5 56t-64.5 17t-66.5 -16.5t-37.5 -56.5zM231 106q98 0 110 63q-19 12 -50.5 18.5t-49.5 6.5q-69 0 -69 -47
q0 -16 15 -28.5t44 -12.5z"/>
            <glyph glyph-name="ycircumflex.alt1" horiz-adv-x="509"
                   d="M188 711h138l110 -168h-100l-79 89l-78 -89h-100zM152 -30l30 70l-176 427h147l103 -263l103 263h148l-230 -550q-35 -82 -77 -116t-115 -34q-31 0 -66 12v121q35 -7 54 -7q17 0 29 5t21.5 17.5t14.5 22.5t14 32z"/>
            <glyph glyph-name="ldot.alt1" horiz-adv-x="404"
                   d="M241 307q0 32 22 53t55 21t55 -21t22 -53q0 -33 -22 -54t-55 -21t-55 21t-22 54zM311 126v-126h-75q-95 0 -136 52.5t-41 150.5v518h140v-521q0 -74 61 -74h51z"/>
            <glyph glyph-name="t.alt1" horiz-adv-x="391"
                   d="M107 357h-85v110h85v98l140 45v-143h96v-110h-96v-167q-2 -64 61 -64h41v-126h-65q-96 0 -136.5 48t-40.5 145v164z"/>
            <glyph glyph-name="tcaron.alt1" horiz-adv-x="391"
                   d="M356 522l-68 35q32 44 45 87t13 109h117q-13 -153 -107 -231zM107 357h-85v110h85v98l140 45v-143h96v-110h-96v-167q-2 -64 61 -64h41v-126h-65q-96 0 -136.5 48t-40.5 145v164z"/>
            <glyph glyph-name="tbar.alt1" horiz-adv-x="392"
                   d="M316 193h-68v-3q0 -64 61 -64h41v-126h-65q-96 0 -136.5 48t-40.5 145h-53v77h53v87h-85v110h85v98l140 45v-143h96v-110h-96v-87h68v-77z"/>
            <glyph glyph-name="tcommaaccent.alt1" horiz-adv-x="391"
                   d="M216 -287l-68 35q32 44 45 87t13 109h117q-13 -153 -107 -231zM107 357h-85v110h85v98l140 45v-143h96v-110h-96v-167q-2 -64 61 -64h41v-126h-65q-96 0 -136.5 48t-40.5 145v164z"/>
            <glyph glyph-name="T.sc.alt1" horiz-adv-x="471"
                   d="M21 566h429v-114h-150v-452h-128v452h-151v114z"/>
            <glyph glyph-name="Tcaron.sc.alt1" horiz-adv-x="490"
                   d="M20 452v114h450v-114h-159v-452h-132v452h-159zM182 760l64 -70l63 70h88l-93 -142h-118l-91 142h87z"/>
            <glyph glyph-name="Tbar.sc.alt1" horiz-adv-x="471"
                   d="M95 244v75h78v132h-151v113h427v-113h-150v-132h77v-75h-77v-244h-126v244h-78z"/>
            <glyph glyph-name="Tcommaaccent.sc.alt1" horiz-adv-x="471"
                   d="M21 566h429v-114h-150v-452h-128v452h-151v114zM205 -222l-51 28q22 30 28 63t6 92h90q0 -116 -73 -183z"/>
            <glyph glyph-name="aringacute.alt1" horiz-adv-x="539"
                   d="M323 900h138l-120 -136q58 -38 58 -105q0 -50 -35.5 -85t-86.5 -35q-50 0 -85 35t-35 85q0 41 24 74t61 44zM222 659q0 -23 16 -39t39 -16q24 0 40.5 16t16.5 39q0 25 -16.5 41.5t-40.5 16.5q-23 0 -39 -16.5t-16 -41.5zM232 95q88 0 110 69q-30 27 -90 27q-41 0 -60 -14
t-19 -35q0 -20 15.5 -33.5t43.5 -13.5zM132 311l-74 78q29 40 73.5 61.5t70 24t61.5 2.5q94 0 156 -50t62 -150v-277h-138v47q-49 -57 -135 -57q-80 0 -128.5 42t-48.5 109q0 61 48 99t152 38q69 0 112 -25q0 104 -96 104q-69 0 -115 -46z"/>
            </font>
</defs>
</svg>
